#TITLE:ジョジョ~その血の運命~;
#TITLETRANSLIT:JoJo ~Sono Chi no Sadame~;
#BANNER:JoJo ~Sono Chi no Sadame~.png;
#BACKGROUND:JoJo ~Sono Chi no Sadame~-bg.png;
#CDTITLE:./CDTitles/DanceDanceRevolution 2013.png;
#MUSIC:JoJo ~Sono Chi no Sadame~.ogg;
#SAMPLESTART:54.037;
#SAMPLELENGTH:15;
#BPMS:0=146;
#STAGE:2;

//---------------dance-single - ----------------
#NOTES:
     dance-single:
     :
     Beginner:
     2:
     :
0000
0000
0000
0000
,
0000
0000
0000
0000
,
0000
0000
0000
0000
,
0001
0000
0000
0000
,
1000
0000
0000
0000
,
0001
0000
0000
0000
,
0100
0000
0000
0000
,
1000
0000
0000
0000
,
1000
0000
0000
0000
,
0001
0000
0000
0000
,
0001
0000
0000
0000
,
1000
0000
0000
0000
,
1000
0000
0000
0000
,
0100
0000
0000
0000
,
0100
0000
0000
0000
,
0001
0000
0001
0000
,
0001
0000
0000
0000
,
1000
0000
1000
0000
,
1000
0000
0000
0000
,
0001
0000
0000
0000
,
0001
0000
0000
0000
,
1000
0000
1000
0000
,
0001
0000
0001
0000
,
1000
1000
1000
0000
,
0001
0000
0000
0000
,
0100
0000
0000
0000
,
0100
0000
0000
0000
,
0001
0000
0000
0000
,
1000
0000
0000
0000
,
1000
0000
0000
0000
,
0001
0000
0000
0000
,
1000
0000
0000
0000
,
0001
0000
0100
0000
,
0001
0000
0001
0000
,
0001
0000
0001
0000
,
1000
0000
0000
0000
,
1000
0000
1000
0000
,
1000
0000
1000
0000
,
0001
0000
0001
0000
,
0001
0000
0001
0000
,
0010
0000
0000
0000
,
0001
0000
1000
0000
,
0001
0000
0001
0000
,
1000
0000
1000
0000
,
0001
0000
1000
0000
,
0100
0000
0000
0000
,
1000
0000
0001
0000
,
0000
0000
0000
0000
,
1000
0000
0000
0000
,
0001
0000
0000
0000
,
1000
0000
0000
0000
,
0001
0000
1000
0000
,
0001
0001
0001
0000
,
1000
0000
0000
0000
,
0000
0000
0000
0000
;

//---------------dance-single - ----------------
#NOTES:
     dance-single:
     :
     Easy:
     4:
     :
0000
0000
0000
0000
,
0000
0000
0000
0000
,
0000
0000
0000
0000
,
0001
0000
0000
1000
,
0000
0000
0001
0000
,
1000
0000
1000
0000
,
1001
0000
0000
0000
,
1000
0000
0010
0010
,
1000
0000
1000
0000
,
0001
0000
0100
0100
,
0001
0000
0001
0000
,
0010
0000
0001
0001
,
0010
0000
0010
0000
,
0100
0000
1000
1000
,
0100
0000
0100
0000
,
0001
0000
0001
0000
,
0001
0001
0100
1000
,
1000
0000
1000
0000
,
1000
0000
0000
0000
,
0100
0000
0000
0000
,
0001
0001
0001
0000
,
1000
0000
0100
0000
,
0010
0000
0001
0000
,
1000
1000
1000
0000
,
2002
0000
3003
0000
,
0010
0001
0010
0000
,
0100
1000
0100
0000
,
0001
0001
0001
0000
,
1001
0000
0000
0000
,
1001
0000
0000
0001
,
0000
0000
1000
0000
,
0001
0000
0000
1000
,
0001
0000
1001
0000
,
0001
0001
0010
0000
,
0001
0001
0010
0000
,
0001
1000
0001
0000
,
1000
1000
0100
0000
,
1000
1000
0100
0000
,
0001
0001
0100
0000
,
1000
0001
1000
0000
,
0001
0001
0001
0000
,
0001
0000
0100
0000
,
1000
1000
0010
0010
,
0100
0100
0001
0000
,
1000
0000
0001
0000
,
0010
0010
0010
0000
,
0000
0000
2002
0000
,
0000
0000
3003
0000
,
1001
0000
0000
0001
,
0000
0000
1000
0000
,
0001
0000
0000
1000
,
0000
0000
0001
0000
,
1000
1000
1000
0000
,
1001
0000
0000
0000
,
0000
0000
0000
0000
;

//---------------dance-single - ----------------
#NOTES:
     dance-single:
     :
     Medium:
     8:
     :
0000
0000
0000
0000
,
0000
0000
0000
0000
,
0000
0000
0000
0000
,
0010
0010
0000
0000
0000
0000
0001
1000
,
0000
0000
0000
0000
0100
0100
0000
0000
,
0001
0100
0001
0000
1000
0100
1000
0000
,
0001
1000
0000
0000
0100
0200
0300
0000
,
1000
0000
0010
1000
0010
0000
1001
0000
,
0010
0000
0100
0001
0100
0000
1001
0000
,
0100
0000
0001
1000
0010
0000
1001
0000
,
0100
0000
0010
0001
0100
0000
1001
0000
,
0010
0000
0010
0001
1000
0000
1100
0000
,
0010
0000
0010
1000
0100
0000
0101
0000
,
0100
0000
0010
0001
1000
0000
0101
0000
,
0010
1000
0100
0000
0001
0000
1010
0000
,
0001
0000
0100
0000
0100
0001
1000
0000
,
1000
0000
1000
0001
0100
0000
0001
0100
,
0002
0003
0001
0010
,
0001
0000
1000
0100
0000
0100
1000
0000
,
0001
0100
0000
0100
0000
0100
0001
0000
,
1000
0001
1000
0001
0000
0000
1001
0000
,
0010
0010
0100
0100
,
1001
0000
0000
1000
0100
1000
0100
1000
,
0010
0000
1000
0000
0010
0000
0000
1000
,
0001
0000
0020
0000
0000
0030
0001
1000
,
0001
0100
0001
0010
,
1001
0000
0000
0001
1000
0001
1000
0001
,
0100
0000
0101
1000
,
0001
1000
0000
0000
1000
0001
1000
0001
,
0010
0010
0000
0000
0000
0000
0001
1000
,
0000
0000
0000
0000
0100
0100
0000
0000
,
1000
1000
0000
0000
0000
0000
0001
0001
,
1000
0001
0000
0000
1001
0000
0000
0000
,
0001
0001
1000
0000
0010
0010
1000
0000
,
1000
1000
0001
0000
0100
0001
0100
0000
,
0010
0010
1000
0000
0100
0100
1000
0010
,
1000
1000
0001
0000
0010
0010
0100
0000
,
0001
0001
1000
0000
0010
1000
0010
0000
,
1000
1000
0001
0000
0010
0010
0100
0000
,
0001
0010
0001
0100
0001
1000
0001
0000
,
1001
0000
0001
0100
0001
0000
0000
0000
,
0001
0100
0100
0100
,
1000
1000
0001
0000
0100
0100
0010
0000
,
1000
1000
0001
0000
0020
0000
0030
0000
,
0010
0010
1000
0001
,
1000
0001
2002
3003
,
0100
0100
2002
0000
,
0000
0000
0000
3003
,
0010
0010
0000
0000
0000
0000
0001
1000
,
0000
0000
0000
0000
0100
0100
0000
0000
,
0001
0100
0001
0000
1000
0100
1000
0000
,
0001
0001
1000
1000
0100
0200
0300
0000
,
1000
1000
0001
0001
1000
1000
0000
1000
,
0001
1000
0000
0000
0000
0000
0000
0000
,
0000
0000
0000
0000
;

//---------------dance-single - ----------------
#NOTES:
     dance-single:
     :
     Hard:
     12:
     :
0000
0000
0000
0000
,
0000
0000
0000
0000
,
0000
0000
0000
0000
,
0011
1001
0000
0000
0000
0000
1001
1010
,
0000
0000
0000
0000
1100
0101
0000
0000
,
0001
0000
0001
0000
1000
0100
1000
0000
0001
0000
0001
0000
1000
0100
1000
0000
,
0100
1001
0000
0000
0100
0200
0000
0300
,
1000
0001
0000
1000
0001
0100
0001
1000
,
0010
0000
1000
0100
1000
0010
1000
0001
,
0100
0001
0010
0001
,
1100
0000
0010
0000
1001
0000
0001
1000
,
0010
1000
0000
0001
1000
0100
1000
0010
,
1000
0000
0010
0100
0001
0010
0001
1000
,
0100
0010
1000
0001
,
1010
0000
1100
0000
0001
1000
0010
1000
,
0001
0000
0000
0000
1100
0000
0000
0000
0110
0000
0000
1001
0000
0000
0101
0000
,
1000
0000
0000
0010
0000
0000
0100
0000
0001
0000
0000
0010
0000
0000
0100
0000
,
2000
0000
0000
3000
0001
0000
0010
0000
,
0001
0000
1000
0001
0000
0001
1000
0000
,
0001
0000
0100
0000
0000
0000
0100
0000
0000
0000
0100
0000
0010
1000
0010
0000
,
1000
0000
0001
0000
1000
0000
0001
0000
0000
0000
0001
0000
0100
0001
0100
0000
,
0010
0010
1100
0100
,
1001
0000
0000
0100
0001
0100
0001
1000
,
0010
0000
1000
0000
0010
0000
1000
0000
0010
0000
0000
0000
0000
1000
0001
1000
,
0002
0000
0020
0000
0000
0033
0001
1000
,
0100
0100
0011
0010
,
1001
0000
0000
0010
1000
0010
1000
0001
,
0100
0001
0100
0001
0100
0001
1000
0000
,
0001
0020
0000
0030
0100
0100
1000
0100
,
0010
0000
0010
0000
0001
1000
0001
0000
1000
0001
1000
0000
0010
0000
0010
0000
,
1000
0001
1000
0000
0001
1000
0001
0000
0100
0000
0100
0000
0000
0000
0000
0000
,
0010
0000
0010
0000
0100
0010
0100
0000
0010
0100
0001
0000
0010
0000
0010
0000
,
0100
1000
0000
2000
0002
0000
0000
3003
,
0001
0100
0001
0100
0010
1000
0010
1000
,
0001
1000
0001
1000
0010
0100
0010
0100
,
0001
0010
0001
0010
0100
0010
0100
0010
,
1000
0010
1000
0010
1000
0001
1000
0001
,
0100
0001
0100
0001
0100
0010
0100
0010
,
0001
1000
0001
0010
1000
0001
0100
0010
,
1000
0001
0100
0010
0001
0100
0100
0100
,
0001
0000
1000
0000
0010
0000
1000
0000
0001
0000
0000
0000
0000
0000
0001
1000
,
0001
0000
0100
0000
0100
0001
0100
0010
,
1000
1000
0001
0001
0100
0100
0010
0010
,
1000
1000
0001
0001
0020
0000
0000
0030
,
1001
0110
1010
0101
,
1100
0000
0011
0000
0220
0000
0000
0330
,
0100
0100
0220
0000
,
0000
0000
0000
0000
0000
0000
0000
0330
,
1001
1001
0000
0000
0000
0000
1001
1010
,
0000
0000
0000
0000
1100
0101
0000
0000
,
0001
0000
0001
0000
1000
0100
1000
0000
0001
0000
0001
0000
1000
0100
1000
0000
,
0001
1000
0001
0000
1000
0010
1000
0000
0001
0100
0001
0000
0000
0000
0000
0000
,
1000
0010
1000
0000
0001
0100
0001
0000
1000
0001
1000
0000
0000
0000
0100
0000
,
1000
0001
0000
0000
0000
0000
0000
0000
,
0000
0000
0000
0000
;

//---------------dance-double - ----------------
#NOTES:
     dance-double:
     :
     Easy:
     4:
     :
00000000
00000000
00000000
00000000
,
00000000
00000000
00000000
00000000
,
00000000
00000000
00000000
00000000
,
00001000
00000000
00000000
00010000
,
00000000
00000000
00100000
00000000
,
10000000
00000000
10000000
00000000
,
01000000
00000000
00000000
00000000
,
01000000
00000000
00100000
00100000
,
00010000
00000000
00001000
00000000
,
00000100
00000000
00000001
00000001
,
00000100
00000000
00000100
00000000
,
00000010
00000000
00001000
00001000
,
00000001
00000000
00001000
00000000
,
00000010
00000000
00000100
00000100
,
00001000
00000000
00000100
00000000
,
00001000
00000000
00001000
00000000
,
00001000
00001000
00010000
00100000
,
00100000
00000000
01000000
00000000
,
00010000
00000000
00000000
00000000
,
01000000
00000000
00000000
00000000
,
00010000
00010000
00010000
00000000
,
00100000
00000000
00010000
00000000
,
00001000
00000000
00000100
00000000
,
00000010
00000010
00000010
00000000
,
00002002
00000000
00003003
00000000
,
00000010
00000001
00000010
00000000
,
00000100
00001000
00000100
00000000
,
00001000
00001000
00001000
00000000
,
00011000
00000000
00000000
00000000
,
00011000
00000000
00000000
00010000
,
00000000
00000000
00100000
00000000
,
01000000
00000000
00000000
00010000
,
10000000
00000000
10010000
00000000
,
00010000
00010000
01000000
00000000
,
00100000
00100000
00010000
00000000
,
00001000
00000010
00000100
00000000
,
00000010
00000010
00001000
00000000
,
00010000
00010000
01000000
00000000
,
00010000
00010000
10000000
00000000
,
00010000
10000000
00010000
00000000
,
00010000
00010000
00010000
00000000
,
00001000
00000000
00000100
00000000
,
00000010
00000010
00000001
00000001
,
00001000
00001000
00000010
00000000
,
00000001
00000100
00001000
00010000
,
00001000
00001000
00001000
00000000
,
00000000
00000000
00022000
00000000
,
00000000
00000000
00033000
00000000
,
00011000
00000000
00000000
00010000
,
00000000
00000000
00001000
00000000
,
00010000
00000000
00000000
00001000
,
00000000
00000000
00010000
00000000
,
00001000
00001000
00001000
00000000
,
00011000
00000000
00000000
00000000
,
00000000
00000000
00000000
00000000
;

//---------------dance-double - ----------------
#NOTES:
     dance-double:
     :
     Medium:
     8:
     :
00000000
00000000
00000000
00000000
,
00000000
00000000
00000000
00000000
,
00000000
00000000
00000000
00000000
,
00010000
00010000
00000000
00000000
00000000
00000000
00000100
00000100
,
00000000
00000000
00000000
00000000
00010000
00010000
00000000
00000000
,
00001000
00010000
00001000
00000000
00010000
00001000
00010000
00000000
,
00001000
00010000
00000000
00000000
00010000
00001000
00000000
00000000
,
00001000
00000000
00001000
00010000
00100000
00000000
00010000
00000000
,
00100000
00000000
01000000
00100000
00010000
00000000
00010000
00000000
,
00100000
00000000
01000000
00010000
00001000
00000000
00000100
00000000
,
00000010
00000000
00000100
00000010
00000001
00000000
00001001
00000000
,
00000010
00000000
00000010
00000010
00001000
00000000
00010000
00000000
,
00010000
00000000
00100000
00100000
01000000
00000000
00010000
00000000
,
10000000
00000000
00100000
00100000
01000000
00000000
00001000
00000000
,
00010000
00000000
00001000
00001000
00000100
00000000
00001001
00000000
,
00000001
00000000
00000100
00000000
00000100
00000001
00001000
00000000
,
00001000
00000000
00001000
00000000
00010000
00000000
00100000
01000000
,
00020000
00030000
00010000
00000100
,
00001000
00000000
00000001
00000100
00000000
00000010
00001000
00000000
,
00001000
00010000
00000000
00010000
00000000
00010000
00001000
00000000
,
00001000
00010000
00001000
00010000
00000000
00000000
00100000
00000000
,
01000000
00100000
00001000
01000000
,
00010000
00000000
00000000
00010000
00001000
00010000
00001000
00000100
,
00000010
00000000
00000001
00000000
00000010
00000000
00000000
00000001
,
00001000
00000000
00000020
00000000
00000030
00000000
00000001
00001000
,
00000001
00000100
00010000
00100000
,
01000000
00000000
00000000
00010000
01000000
00010000
01000000
00100000
,
00010000
00000000
00010000
00001000
,
00010000
00001000
00000000
00000000
00010000
00000000
00001000
00000000
,
00010000
00010000
00000000
00000000
00000000
00000000
00000100
00000100
,
00000000
00000000
00000000
00000000
00010000
00010000
00000000
00000000
,
00001000
00001000
00000000
00000000
00000000
00000000
00100000
00100000
,
00010000
10000000
00000000
00000000
10010000
00000000
00000000
00000000
,
00010000
00010000
10000000
00000000
00100000
00100000
00010000
00000000
,
00001000
00001000
00000100
00000000
00000010
00000001
00000010
00000000
,
00001000
00001000
00000001
00000000
00000001
00000001
00000100
00000001
,
00001000
00001000
00000001
00000000
00000010
00000010
00001000
00000000
,
00010000
00010000
01000000
00000000
00100000
10000000
00100000
00000000
,
00010000
00010000
10000000
00000000
00100000
00100000
01000000
00000000
,
00010000
00100000
00010000
01000000
00010000
10000000
00010000
00000000
,
10000000
01000000
00010000
00001000
00000100
00000000
00000000
00000000
,
00000010
00000000
00000010
00000000
00001000
00000000
00001000
00000010
,
00001000
00001000
00010000
00000000
01000000
01000000
00100000
00000000
,
10000000
10000000
00010000
00000000
00200000
00000000
00000000
00300000
,
00001000
00001000
00010000
00001000
,
00100000
00001000
00022000
00033000
,
00000010
00000010
00022000
00000000
,
00000000
00000000
00000000
00033000
,
00010000
00010000
00000000
00000000
00000000
00000000
00000100
00000100
,
00000000
00000000
00000000
00000000
00010000
00010000
00000000
00000000
,
00010000
00001000
00010000
00000000
00001000
00010000
00001000
00000000
,
00010000
00001000
00000100
00000010
00001000
00001000
00000000
00000000
,
00000010
00000010
00010000
00010000
00001000
00001000
00000000
00001000
,
00010000
00001000
00000000
00000000
00000000
00000000
00000000
00000000
,
00000000
00000000
00000000
00000000
;

//---------------dance-double - ----------------
#NOTES:
     dance-double:
     :
     Hard:
     12:
     :
00000000
00000000
00000000
00000000
,
00000000
00000000
00000000
00000000
,
00000000
00000000
00000000
00000000
,
00011000
00011000
00000000
00000000
00000000
00000000
01010000
10100000
,
00000000
00000000
00000000
00000000
00101000
00110000
00000000
00000000
,
00010000
00000000
00010000
00000000
00001000
00010000
00001000
00000000
00010000
00000000
00010000
00000000
00001000
00010000
00001000
00000000
,
01000000
00001000
00000000
00000000
00010000
00020000
00000000
00030000
,
00000001
00001000
00000000
00000001
00000010
00001000
00010000
01000000
,
00100000
00000000
00010000
01000000
00100000
10000000
00010000
10000000
,
01000000
00010000
00001000
00000100
,
00000101
00000000
00000010
00000000
00001001
00000000
00000001
00000100
,
00001000
00010000
00000000
01000000
00100000
00010000
10000000
00100000
,
10000000
00000000
00100000
01000000
00010000
00001000
00000100
00000010
,
00000100
00000001
00001000
00010000
,
10100000
00000000
11000000
00000000
10000000
00100000
01000000
00001000
,
00010000
00000000
00000000
00000000
00011000
00000000
00000000
00000000
00001100
00000000
00000000
00000001
00000000
00000000
00000010
00000000
,
00001000
00000000
00000000
00010000
00000000
00000000
01000000
00000000
10000000
00000000
00000000
00100000
00000000
00000000
01000000
00000000
,
00020000
00000000
00000000
00030000
00010000
00000000
00100000
00000000
,
00010000
00000000
00001000
00100000
00000000
00100000
00001000
00000000
,
00010000
00000000
00000100
00000000
00000000
00000000
00000100
00000000
00000000
00000000
00001000
00000000
00000010
00001000
00000010
00000000
,
00001000
00000000
00000001
00000000
00001000
00000000
00000001
00000000
00000000
00000000
00001000
00000000
00000100
00001000
00000100
00000000
,
00001000
00000010
00001010
00010000
,
00110000
00000000
00000000
01000000
00010000
01000000
00010000
10000000
,
00100000
00000000
10000000
00000000
01000000
00000000
10000000
00000000
00010000
00000000
00000000
00000000
00000000
00100000
00010000
00100000
,
00002000
00000000
00200000
00000000
00000000
00303000
00001000
00100000
,
00000100
00010000
00001000
00110000
,
10100000
00000000
00000000
00100000
00010000
00001000
00000100
00000010
,
00001000
00000001
00000100
00000001
00000010
00000001
00001000
00000000
,
00001000
00000200
00000000
00000300
00000010
00000010
00001000
00000100
,
00000010
00000000
00000010
00000000
00000001
00001000
00000001
00000000
00001000
00000001
00001000
00000000
00000010
00000000
00000010
00000000
,
00001000
00000100
00001000
00000000
00000100
00010000
00000100
00000000
00010000
00000000
00010000
00000000
00000000
00000000
00000000
00000000
,
00100000
00000000
00100000
00000000
01000000
00001000
01000000
00000000
00100000
01000000
00010000
00000000
00100000
00000000
00100000
00000000
,
01000000
10000000
00000000
20000000
00020000
00000000
00000000
30030000
,
10000000
01000000
10000000
01000000
00100000
00010000
00100000
00010000
,
00100000
00001000
00100000
00001000
00010000
00000100
00010000
00000100
,
00000010
00000001
00000010
00000001
00000010
00000100
00000010
00000100
,
00000001
00001000
00000001
00001000
00000010
00001000
00000010
00001000
,
00010000
01000000
00010000
01000000
00100000
01000000
00100000
01000000
,
00010000
00001000
00000100
00010000
00001000
00000100
00000010
00001000
,
00000001
00000100
00001000
00010000
00100000
01000000
01000000
01000000
,
10000000
00000000
00010000
00000000
00100000
00000000
00010000
00000000
10000000
00000000
00000000
00000000
00000000
00000000
00100000
00001000
,
00100000
00000000
00001000
00000000
00001000
00010000
00000100
00001000
,
00000001
00000001
00001000
00001000
01000000
01000000
10000000
10000000
,
00010000
00010000
00100000
00100000
00002000
00000000
00000000
00003000
,
00001100
00101000
01100000
01010000
,
11000000
00000000
00110000
00000000
00202000
00000000
00000000
00303000
,
00001000
00001000
00022000
00000000
,
00000000
00000000
00000000
00000000
00000000
00000000
00000000
00033000
,
00011000
00011000
00000000
00000000
00000000
00000000
01010000
10100000
,
00000000
00000000
00000000
00000000
00101000
00110000
00000000
00000000
,
00100000
00000000
00100000
00000000
00001000
00100000
00001000
00000000
00100000
00000000
00100000
00000000
00001000
01000000
00001000
00000000
,
01000000
00010000
01000000
00000000
00100000
10000000
00100000
00000000
01000000
00010000
01000000
00000000
00000000
00000000
00000000
00000000
,
00001000
00100000
00001000
00000000
00100000
00001000
00100000
00000000
00010000
10000000
00010000
00000000
00000000
00000000
01000000
00000000
,
00010000
00001000
00000000
00000000
00000000
00000000
00000000
00000000
,
00000000
00000000
00000000
00000000
;
