#TITLE:JOKER;
#ARTIST:Royz;
#BANNER:JOKER.png;
#BACKGROUND:JOKER-bg.png;
#CDTITLE:./CDTitles/DanceDanceRevolution 2013.png;
#MUSIC:JOKER.ogg;
#SAMPLESTART:62.98;
#SAMPLELENGTH:15;
#BPMS:0=160;

//---------------dance-single - ----------------
#NOTES:
     dance-single:
     :
     Beginner:
     2:
     :
0000
0000
0000
0000
,
0000
0000
0000
0000
,
0000
0000
0000
0000
,
0000
0000
0000
0000
,
0000
0000
0000
0000
,
0000
0000
0000
0000
,
1000
0000
0000
0000
,
0001
0000
0000
0000
,
1000
0000
0000
0000
,
1001
0000
0000
0000
,
0010
0000
0000
0000
,
1000
0000
1000
0000
,
0010
0000
0000
0000
,
0001
0000
0001
0000
,
0010
0000
0000
0000
,
1000
0000
1000
0000
,
0010
0000
0000
0000
,
0001
0000
0001
0000
,
1000
0000
0000
0000
,
0001
0000
0000
0000
,
1000
0000
0000
0000
,
0001
0000
0000
0000
,
0010
0000
0000
0000
,
0010
0000
0000
0000
,
1000
0000
1000
0000
,
0001
0000
0001
0000
,
0010
0000
0000
0000
,
0010
0000
0000
0000
,
1000
0000
1000
0000
,
0001
0000
0001
0000
,
0100
0000
0000
0000
,
0010
0000
0000
0000
,
1000
0000
0000
0000
,
0001
0000
0000
0000
,
0100
0000
0000
0000
,
0010
0000
0000
0000
,
1000
0000
0000
0000
,
0001
0000
0000
0000
,
0100
0000
0000
0000
,
0010
0000
0000
0000
,
1000
0000
0000
0000
,
0001
0000
0000
0000
,
0100
0000
0000
0000
,
0010
0000
0000
0000
,
1000
0000
1000
0000
,
0001
0000
0001
0000
,
1000
0000
0000
0000
,
0001
0000
0000
0000
,
0010
0000
0010
0000
,
0100
0000
0100
0000
,
0010
0000
0000
0000
,
0100
0000
0000
0000
,
0001
0000
0010
0000
,
0001
0000
0000
0000
,
1000
0000
0010
0000
,
1000
0000
0000
0000
,
0001
0000
0100
0000
,
0001
0000
0000
0000
,
1000
0000
0100
0000
,
1000
0000
0000
0000
,
1001
0000
0000
0000
,
0000
0000
0000
0000
,
1001
0000
0000
0000
,
0000
0000
0000
0000
,
1000
0000
1000
0000
,
0001
0000
0001
0000
,
1000
0000
1000
0000
,
0001
0000
0001
0001
,
0000
0000
0000
0000
;

//---------------dance-single - ----------------
#NOTES:
     dance-single:
     :
     Easy:
     4:
     :
0000
0000
0000
0000
,
0000
0000
0000
0000
,
0000
0000
0000
0000
,
0000
0000
0000
0000
,
0000
0000
0000
0000
,
0000
0000
0000
0000
,
0010
0000
1000
0000
,
0010
0000
0001
0000
,
0010
0000
1000
0000
,
1001
0000
0000
0000
,
0010
0010
0010
0000
,
0001
0000
1000
0000
,
0010
0010
0010
0000
,
1000
0000
0001
0000
,
0010
0010
0010
0000
,
0001
0000
1000
0000
,
0010
0010
0010
0000
,
1000
0000
0001
0000
,
0000
1000
0000
1000
,
0000
0010
0000
0010
,
0000
0001
0000
0001
,
0000
0100
0000
0100
,
1000
0000
0000
0000
,
0001
0000
0000
0000
,
0010
0010
0010
0000
,
0100
0100
0100
0000
,
0001
0000
0000
0000
,
1000
0000
0000
0000
,
0010
0010
0010
0000
,
0100
0100
0100
0000
,
0010
0000
1000
0000
,
0010
0100
0001
0000
,
2000
0000
3000
0000
,
0002
0000
0003
0000
,
0100
0000
0001
0000
,
1000
0001
0100
0000
,
0002
0000
0003
0000
,
2000
0000
3000
0000
,
0001
0000
0100
0000
,
1000
0010
0001
0000
,
2000
0000
3000
0000
,
0002
0000
0003
0000
,
0100
0000
0010
0000
,
1001
0000
0000
0000
,
0010
0000
0001
0000
,
0100
0001
0100
0000
,
0010
0000
1000
0000
,
0100
1000
0100
0000
,
1000
0000
0001
0000
,
1000
0010
1000
0000
,
0001
0000
1000
0000
,
0001
0010
0001
0000
,
2000
0000
3000
0000
,
0200
0000
0300
0000
,
0020
0000
0030
0000
,
0002
0000
0003
0000
,
2000
0000
3000
0000
,
0002
0000
0003
0000
,
2002
0000
3003
0000
,
0001
0000
1000
0000
,
0000
0001
0000
0001
,
0000
0010
0000
0010
,
0000
1000
0000
1000
,
0000
0100
0000
0100
,
0010
0000
0001
0000
,
0010
0000
1000
0000
,
0010
0000
0001
0000
,
1000
0000
0001
0001
,
0000
0000
0000
0000
;

//---------------dance-single - ----------------
#NOTES:
     dance-single:
     :
     Medium:
     8:
     :
0000
0000
0000
0000
,
0000
0000
0000
0000
,
0000
0000
0000
0000
,
0000
0000
0000
0000
,
0000
0000
0000
0000
,
0000
0000
0000
0000
,
0010
0000
0010
0000
0001
1000
0100
0000
,
0010
0000
0010
0000
1000
0001
0100
0000
,
0010
0000
0010
0000
0001
1000
0100
0000
,
0001
0000
0000
1000
0000
0000
1001
0000
0000
0000
0000
0000
0000
0000
0000
0000
,
0011
0000
0011
0000
0100
1000
0000
0001
,
0000
0100
0000
0010
1000
0010
0100
0000
,
1010
0000
1010
0000
0100
0001
0000
1000
,
0000
0100
0000
0010
0001
0010
0100
0000
,
0110
0000
0110
0000
1000
0001
0000
0100
,
0000
0010
0000
0010
1000
0010
0100
0000
,
0110
0000
0110
0000
0001
1000
0000
0100
,
0000
0010
0000
0010
0001
0010
0100
0000
,
1000
1100
0001
0100
,
0010
1010
0001
0100
,
0010
0110
0010
1000
,
0001
1001
0100
0001
,
0010
0010
0000
0000
0000
0000
0000
0000
,
0001
0001
0000
0000
0000
0000
0000
0000
,
1000
0100
1000
0000
0001
0100
0001
0000
,
1000
0010
1000
0000
0001
0010
0001
0000
,
0100
0100
0000
0000
0000
0000
0000
0000
,
1000
1000
0000
0000
0000
0000
0000
0000
,
0001
0100
0001
0000
1000
0100
1000
0000
,
0001
0010
0001
0000
1000
0010
1000
0000
,
0010
1000
0001
1000
,
0010
0100
1000
0001
,
0100
0000
0100
0000
0010
0001
1000
0001
,
0100
0000
0100
0000
0010
1000
0001
1000
,
0100
0010
0100
0001
,
0100
1000
0010
0001
,
0010
0000
0010
0000
0100
1000
0100
0010
,
0100
0000
0100
0000
0001
0010
0100
0010
,
0001
1000
0100
0001
,
1000
0010
0001
0100
,
0010
0000
0010
0000
0001
0010
0001
0010
,
0100
0000
0100
0000
1000
0001
0100
0001
,
1000
0100
0010
0001
,
0010
0000
0000
0010
0000
0000
0010
0000
0000
0000
0000
0000
0000
0000
0000
0000
,
0100
0000
1000
0100
0000
0010
0000
0001
,
0000
0100
0000
0010
0000
1000
0000
0100
,
0010
0100
0000
0100
0000
1000
0000
0001
,
1000
0010
0000
0001
0000
0100
0001
0000
,
0001
0000
1000
0100
0000
0001
0000
0100
,
0000
1000
0000
0010
0000
0100
0000
0001
,
0100
0001
0000
1000
0000
0010
0000
1000
,
0010
0100
0000
0100
0000
0000
0000
0000
,
0001
0000
0010
0001
0000
1000
0001
0000
,
0100
0010
0000
2000
0000
0000
3100
0000
,
0001
0000
0010
0100
0000
0010
0001
0000
,
1000
0010
0000
0200
0000
0000
0301
0000
,
1000
0000
0100
0002
0000
0000
0103
0000
,
0010
0000
1000
0100
0000
0010
0000
2002
,
0000
0000
3003
0010
,
1000
0000
0001
1000
,
0001
0101
1000
0100
,
0010
0011
1000
0100
,
0010
0110
0010
0001
,
1000
1001
0100
1000
,
0010
0000
0010
0000
1000
0001
0100
0000
,
0010
0000
0010
0000
0001
1000
0100
0000
,
0010
0000
0010
0000
1000
0001
0100
0000
,
1000
0000
0001
0000
1001
0000
0010
0010
,
0000
0000
0000
0000
;

//---------------dance-single - ----------------
#NOTES:
     dance-single:
     :
     Hard:
     11:
     :
0000
0000
0000
0000
,
0000
0000
0000
0000
,
0000
0000
0000
0000
,
0000
0000
0000
0000
,
0000
0000
0000
0000
,
0000
0000
0000
0000
,
0010
0000
0010
0000
1000
0100
0010
0100
,
1000
0000
0010
0000
0001
0100
0010
0100
,
0001
0000
0010
0000
1000
0100
0010
0100
,
1000
0000
0000
0001
0000
0000
0220
0000
0000
0000
0000
0000
0330
0000
0000
0000
,
1010
0000
0000
1000
0010
0000
0000
0010
0100
0000
0101
0000
0000
0000
1001
0000
,
0000
0100
0010
0001
0100
0010
1000
0100
,
0011
0000
0000
0001
0010
0000
0000
0010
0100
0000
1100
0000
0000
0000
1001
0000
,
0000
0100
0010
1000
0100
0010
0001
0000
,
0110
0000
0000
0100
1000
0000
0000
1000
0001
0000
1001
0000
0000
0000
0110
0000
,
0000
0010
1000
0010
0001
0010
1000
0100
,
0110
0000
0000
0010
0001
0000
0000
0001
1000
0000
1001
0000
0000
0000
0110
0000
,
0000
0100
0001
0100
1000
0100
0001
0000
,
1000
0000
0100
0000
1100
0000
0000
0000
1000
0000
0010
0000
0100
0001
0000
0000
,
0010
0000
0001
0000
0011
0000
0000
0000
1000
0000
0010
0000
0100
0001
0000
0000
,
0010
0000
0100
0000
0110
0000
0000
0000
0010
0000
0001
0000
1000
0100
0000
0000
,
1000
0000
0001
0000
1001
0000
0000
0000
0100
0000
0010
0000
1000
0100
0000
0000
,
0010
0010
0000
0000
0000
0000
0000
0000
,
1000
1000
0000
0000
0000
0000
0000
0000
,
0001
0100
0101
0000
1000
0100
1100
0000
,
1000
0010
1010
0000
0001
0010
0011
0000
,
0100
0100
0000
0000
0000
0000
0000
0000
,
0001
0001
0000
0000
0000
0000
0000
0000
,
1000
0100
1100
0000
0001
0100
0101
0000
,
0001
0010
0011
0000
1000
0010
1010
0000
,
0010
0000
0000
0100
0000
0000
0001
0000
0000
0000
0010
0000
0001
0000
0100
0000
,
0010
0000
0000
1000
0000
0000
0100
0000
0000
0000
0010
0000
0100
0000
1000
0000
,
0001
0100
0010
0100
1000
0100
0010
0100
,
0001
0010
0100
0010
1000
0010
0100
0010
,
0001
0000
0000
0010
0000
0000
0100
0000
0000
0000
1000
0000
0100
0000
0010
0000
,
0001
0000
0000
0100
0000
0000
0010
0000
0000
0000
0001
0000
1000
0000
0010
0000
,
1000
0100
0010
0100
0001
0100
0010
0100
,
1000
0010
0100
0010
0001
0010
0100
0010
,
1000
0000
0000
0001
0000
0000
0100
0000
0000
0000
1000
0000
0100
0000
0001
0000
,
1000
0000
0000
0100
0000
0000
0001
0000
0000
0000
0100
0000
1000
0000
0010
0000
,
0100
0010
0001
0010
1000
0010
1000
0010
,
0100
0001
0100
1000
0100
0010
0100
0010
,
1000
0000
0000
0100
0000
0000
0010
0000
0000
0000
0100
0000
1000
0000
0001
0000
,
0010
0000
0000
0100
0000
0000
1001
0000
0000
0000
0010
0000
0010
0000
0010
0000
,
0200
0000
0301
0200
0000
0320
0000
2030
,
0000
3200
0000
0320
0000
0032
0000
0103
,
0010
1000
0010
0200
0000
0301
1000
0100
,
0010
0002
0000
2003
0000
3100
1000
0010
,
2000
0000
3001
0200
0000
2300
0000
3200
,
0000
0302
0000
0023
0000
0230
0000
1300
,
0100
1000
0001
0200
0000
0310
1000
0001
,
0010
0100
1000
2200
0000
0000
3300
0000
,
0001
0100
0010
1000
0100
0010
0001
0100
,
0010
1000
0010
0200
0000
0310
0100
0010
,
1000
0100
0010
0001
0100
0010
1000
0100
,
0010
0001
0010
0200
0000
0310
0100
0010
,
0001
0010
0100
2000
0000
3001
0100
0001
,
0020
0000
0032
0203
0000
0320
0030
2002
,
0000
3003
1000
0010
,
0001
0000
0100
0000
1000
0010
0001
0000
,
0001
0000
0100
0000
0101
0000
0000
0000
0001
0000
0010
0000
0100
1000
0000
0000
,
0010
0000
1000
0000
1010
0000
0000
0000
0001
0000
0010
0000
0100
1000
0000
0000
,
0010
0000
0100
0000
0110
0000
0000
0000
0010
0000
1000
0000
0001
0100
0000
0000
,
0001
0000
1000
0000
1001
0000
0000
0000
0100
0000
0010
0000
0001
0100
0000
0000
,
0010
0000
0010
0000
0001
0100
0010
0100
,
0001
0000
0010
0000
1000
0100
0010
0100
,
1000
0000
0010
0000
0001
0100
0010
0100
,
0001
0000
0000
0000
0010
0000
0000
0000
0110
0000
0000
0000
1000
0001
1000
0001
,
0000
0000
0000
0000
;

//---------------dance-single - ----------------
#NOTES:
     dance-single:
     :
     Challenge:
     14:
     :
0000
0000
0000
0000
,
0000
0000
0000
0000
,
0000
0000
0000
0000
,
0000
0000
0000
0000
,
0000
0000
0000
0000
,
0000
0000
0000
0000
,
1001
0000
0100
0000
0010
0000
1000
0100
0000
0100
0010
0000
0001
0000
0010
0000
,
1000
0000
0010
0000
0001
0000
0100
1000
0000
1000
0100
0000
0010
0000
0100
0000
,
0001
0000
0010
0000
1000
0000
0010
0100
0000
0100
0010
0000
0001
0000
1000
0000
,
0011
0000
0000
1100
0000
0000
2002
0000
3003
0000
0000
0000
0000
0000
0000
0000
,
0001
0000
0001
0010
0100
0000
0100
1000
0101
0000
1010
0000
0000
0000
0011
0000
,
0000
1001
0000
0101
1001
1001
0110
0000
,
0010
0000
0010
0100
0001
0000
0001
1000
0101
0000
1010
0000
0000
0000
0101
0000
,
0000
1001
0000
0011
1001
1010
0011
1001
,
1000
0000
1000
0010
0100
0000
0100
0001
1100
0000
0011
0000
0000
0000
1010
0000
,
0000
1001
0000
1100
1001
1001
0110
0000
,
0010
0000
0010
0100
1000
0000
1000
0001
1100
0000
0011
0000
0000
0000
1100
0000
,
0000
1001
0000
1010
1001
0011
1010
1001
,
0001
0000
0001
0000
2200
0000
3300
0000
0001
0000
1000
0000
0001
1000
0000
1000
,
0010
0000
0010
0000
2002
0000
3003
0000
0010
0000
0100
0000
0001
0010
0000
0010
,
0100
0000
0100
0000
0022
0000
0033
0000
0100
0000
0010
0000
0001
0100
0000
0100
,
0010
0000
0010
0000
2020
0000
3030
0000
0001
0000
0010
0000
0100
0010
0000
0010
,
0000
0000
0001
0000
1000
0000
0010
0100
0000
0000
0100
0000
0010
0000
1000
0000
,
0000
0000
0001
0000
0010
0000
0100
1000
0000
0000
1000
0000
0010
0000
1000
0000
,
0001
1000
0001
1000
0020
0000
0030
0000
1000
0001
1000
0001
0020
0000
0030
0000
,
0001
1000
0001
1000
0200
0000
0300
0000
1000
0001
1000
0001
0200
0000
0300
0000
,
0000
0000
0001
0000
1000
0000
0001
0100
0000
0100
0010
0000
0100
0000
0001
0000
,
0000
0000
1000
0000
0001
0000
1000
0100
0000
0000
0010
0000
0100
0000
1000
0000
,
0001
1000
0001
1000
0020
0000
0030
0000
1000
0001
1000
0001
0020
0000
0030
0000
,
0001
1000
0001
1000
0200
0000
0300
0000
1000
0001
1000
0001
0200
0000
0300
0000
,
0001
0000
0000
1000
0000
0000
0001
0000
0000
0000
0101
0000
0010
0000
1000
0000
,
0001
0000
0000
1000
0000
0000
0001
0000
0000
0000
0101
0000
0010
0000
0100
0000
,
0010
0000
1000
0000
0001
0000
0100
0001
0000
0001
0100
0000
0101
0000
1010
0000
,
0001
0000
0010
0000
0100
0000
1000
0100
0000
0100
1000
0000
1100
0000
0011
0000
,
1000
0000
0000
0001
0000
0000
1000
0000
0000
0000
1100
0000
0010
0000
0001
0000
,
1000
0000
0000
0001
0000
0000
1000
0000
0000
0000
1100
0000
0010
0000
0100
0000
,
0010
0000
0001
0000
1000
0000
0100
1000
0000
1000
0100
0000
1100
0000
0011
0000
,
1000
0000
0010
0000
0100
0000
0001
0100
0000
0100
0001
0000
0101
0000
1010
0000
,
0001
0000
0000
0100
0000
0000
0001
0000
0000
0000
1001
0000
0010
0000
0100
0000
,
0001
0000
0000
1000
0000
0000
0001
0000
0000
0000
0101
0000
0010
0000
1000
0000
,
0001
0000
0100
0000
1000
0000
0100
0001
0000
0001
0100
0000
0101
0000
1010
0000
,
0001
0000
0010
0000
1000
0000
0010
0001
0000
0001
0010
0000
0011
0000
1100
0000
,
0001
0000
0000
1000
0000
0000
0010
0000
0000
0000
1000
0000
0001
0000
0010
0000
,
1001
0000
0000
1001
0000
0000
1001
0000
0000
0000
0001
0000
1000
0000
0001
0000
,
0011
0000
0100
1000
0000
1001
0000
1010
,
0000
1001
0000
1100
0000
1001
0000
0001
,
0010
0100
0000
1100
0000
0001
1000
0001
,
0001
0100
0000
1010
0000
1000
0001
1000
,
1010
0000
0100
0001
0000
1001
0000
0011
,
0000
1001
0000
0101
0000
1001
0000
1000
,
0010
0100
0000
0101
0000
1000
0001
1000
,
1000
0100
0010
0022
0000
0000
0033
0000
,
0001
0000
0001
1000
0000
1000
0001
0100
,
0010
1000
0000
2002
0000
0000
3003
0000
,
1000
0000
1000
0001
0000
0001
1000
0100
,
0010
0001
0000
2002
0000
0000
3003
0000
,
1001
0000
0100
2002
0000
0000
3003
0000
,
0001
0000
0100
0001
0000
0110
0000
2002
,
0000
0000
3000
0100
,
1003
0000
1001
1001
,
0001
0000
0001
0000
2002
0000
3003
0000
0010
0000
0100
0000
0001
1000
0000
1000
,
0100
0000
0100
0000
0220
0000
0330
0000
0001
0000
0010
0000
0100
0010
0000
0010
,
0100
0000
0100
0000
2200
0000
3300
0000
0001
0000
0100
0000
0010
0100
0000
0100
,
0010
0000
0010
0000
0202
0000
0303
0000
0010
0000
1000
0000
0001
0010
0000
0010
,
0001
0000
1000
0000
0010
0000
1000
0001
0000
0001
1000
0000
0100
0000
0010
0000
,
0100
0000
1000
0000
0001
0000
0100
0010
0000
0010
0100
0000
0001
0000
1000
0000
,
0001
0000
0100
0000
1000
0000
0100
0001
0000
0001
1000
0000
0100
0000
0010
0000
,
0001
0000
0010
0000
1000
0000
0010
0001
0000
0001
1000
0000
0001
1000
0001
1000
,
0000
0000
0000
0000
;

//---------------dance-double - ----------------
#NOTES:
     dance-double:
     :
     Easy:
     6:
     :
00000000
00000000
00000000
00000000
,
00000000
00000000
00000000
00000000
,
00000000
00000000
00000000
00000000
,
00000000
00000000
00000000
00000000
,
00000000
00000000
00000000
00000000
,
00000000
00000000
00000000
00000000
,
00010000
00000000
00100000
00000000
,
10000000
00000000
00100000
00000000
,
00010000
00000000
00001000
00000000
,
00011000
00000000
00000000
00000000
,
00000010
00000010
00000010
00000000
,
00000001
00001000
00000100
00001000
,
00000010
00000010
00000010
00000000
,
00000100
00001000
00010000
00001000
,
00100000
00100000
00100000
00000000
,
00010000
10000000
01000000
10000000
,
00010000
00010000
00010000
00000000
,
01000000
00100000
10000000
01000000
,
00000000
00100000
00000000
00100000
,
00000000
00010000
00000000
00010000
,
00000000
00001000
00000000
00001000
,
00000000
00000010
00000000
00000010
,
00000100
00000000
00000000
00000000
,
00000001
00000000
00000000
00000000
,
00001000
00000100
00001000
00000000
,
00000001
00000100
00000001
00000000
,
00001000
00000000
00000000
00000000
,
00000010
00000000
00000000
00000000
,
00010000
00001000
00010000
00000000
,
00001000
00010000
00001000
00000000
,
00100000
00000000
00010000
00000000
,
00100000
01000000
10000000
01000000
,
00200000
00000000
00000000
00300000
,
00020000
00000000
00000000
00030000
,
01000000
00000000
00100000
00000000
,
10000000
01000000
00010000
00001000
,
00020000
00000000
00000000
00030000
,
00002000
00000000
00000000
00003000
,
00000010
00000000
00000001
00000000
,
00001000
00000010
00000100
00000001
,
00002000
00000000
00000000
00003000
,
00000200
00000000
00000000
00000300
,
00010000
00000000
00001000
00000000
,
00011000
00000000
00000000
00000000
,
00100000
01000000
00010000
00000000
,
10000000
01000000
00100000
00010000
,
01000000
00001000
00010000
00000000
,
00000010
00001000
00000001
00000100
,
00000010
00001000
00000100
00000000
,
00000010
00000100
00001000
00000010
,
00000100
00000010
00000100
00000000
,
00001000
00000000
00010000
00000000
,
01000000
01000000
00100000
00100000
,
00010000
10000000
00010000
00000000
,
01000000
01000000
00100000
00100000
,
10000000
01000000
00100000
00000000
,
00010000
00000000
00001000
00000000
,
00000100
00000010
00000001
00000100
,
00002002
00000000
00000000
00003003
,
00000010
00000000
00000100
00000100
,
00000020
00000000
00000000
00000000
,
00000000
00000000
00000000
00000000
,
00002000
00000000
00000000
00000000
,
00000000
00000000
00000000
00003030
,
00000001
00000100
00000010
00000000
,
00001000
00000100
00000010
00000000
,
00010000
00001000
00010000
00000000
,
00010000
01000000
10000000
10000000
,
00000000
00000000
00000000
00000000
;

//---------------dance-double - ----------------
#NOTES:
     dance-double:
     :
     Medium:
     8:
     :
00000000
00000000
00000000
00000000
,
00000000
00000000
00000000
00000000
,
00000000
00000000
00000000
00000000
,
00000000
00000000
00000000
00000000
,
00000000
00000000
00000000
00000000
,
00000000
00000000
00000000
00000000
,
00000010
00000000
00000010
00000000
00001000
00000001
00000100
00000000
,
00000010
00000000
00000010
00000000
00001000
00000100
00000010
00000000
,
00000001
00000000
00000001
00000000
00000100
00001000
00010000
00000000
,
00001000
00000000
00000000
00010000
00000000
00000000
00011000
00000000
00000000
00000000
00000000
00000000
00000000
00000000
00000000
00000000
,
00110000
00000000
00110000
00000000
01000000
10000000
00000000
00010000
,
00000000
01000000
00000000
00100000
00000000
10000000
00100000
00000000
,
01100000
00000000
01100000
00000000
00010000
10000000
00000000
01000000
,
00000000
00010000
00000000
00001000
00000000
00000010
00000001
00000000
,
00001010
00000000
00001010
00000000
00000001
00001000
00000000
00000100
,
00000000
00000010
00000000
00000001
00000000
00000100
00000010
00000000
,
00001001
00000000
00001001
00000000
00000100
00010000
00000000
00001000
,
00000000
00010000
00000000
01000000
00000000
10000000
00010000
00000000
,
01000000
01010000
00100000
10000000
,
01000000
01100000
00010000
00001000
,
00000010
00001010
00000100
00000001
,
00001000
00001100
00000010
00000001
,
00000010
00000010
00000000
00000000
00000000
00000000
00000000
00000000
,
00001000
00001000
00000000
00000000
00000000
00000000
00000000
00000000
,
00000001
00000100
00000001
00000000
00000100
00001000
00000100
00000000
,
00001000
00010000
00001000
00000000
00010000
01000000
00010000
00000000
,
01000000
01000000
00000000
00000000
00000000
00000000
00000000
00000000
,
10000000
10000000
00000000
00000000
00000000
00000000
00000000
00000000
,
00100000
10000000
00100000
00000000
10000000
01000000
10000000
00000000
,
01000000
00010000
01000000
00000000
00010000
00001000
00010000
00000000
,
00000010
00001000
00000100
00000010
,
00000001
00000100
00000010
00001000
,
00000100
00000000
00000100
00000000
00000010
00000001
00000100
00000000
,
00001000
00000000
00001000
00000000
00010000
00001000
00100000
00000000
,
00010000
01000000
10000000
01000000
,
00100000
10000000
01000000
00100000
,
00010000
00000000
00010000
00000000
01000000
00010000
00100000
00000000
,
01000000
00000000
01000000
00000000
00010000
00001000
00010000
00000000
,
00001000
00000010
00000001
00001000
,
00000001
00000010
00001000
00000100
,
00000010
00000000
00000010
00000000
00000001
00000100
00001000
00000000
,
00000010
00000000
00000010
00000000
00001000
00000100
00000001
00000000
,
00000100
00000010
00001000
00010000
,
00001000
00000000
00000000
00001000
00000000
00000000
00001000
00000000
00000000
00000000
00000000
00000000
00000000
00000000
00000000
00000000
,
00100000
00000000
01000000
00100000
00000000
00010000
00000000
00100000
,
00000000
01000000
00000000
10000000
00000000
00100000
00000000
01000000
,
00010000
01000000
00000000
00010000
00000000
10000000
00000000
01000000
,
00010000
00001000
00000000
00001000
00000000
00000100
00000010
00000000
,
00001000
00000000
00000001
00000100
00000000
00000010
00000000
00001000
,
00000000
00000001
00000000
00000010
00000000
00000100
00000000
00001000
,
00000100
00000001
00000000
00000100
00000000
00000010
00000000
00000001
,
00000100
00000010
00000000
00000100
00000000
00000000
00000000
00000000
,
00001000
00000000
00010000
00001000
00000000
00010000
00100000
00000000
,
10000000
00010000
00000000
02000000
00000000
00000000
03100000
00000000
,
10000000
00000000
01000000
00100000
00000000
01000000
10000000
00000000
,
00010000
01000000
00000000
00200000
00000000
00000000
00310000
00000000
,
00001000
00000000
00010000
00002000
00000000
00000000
00003100
00000000
,
00000010
00000000
00001000
00000100
00000000
00000010
00000000
00002002
,
00000000
00000000
00003003
00000010
,
00000001
00000000
00001000
00000001
,
00000100
00001100
00000010
00000001
,
00000100
00000110
00001000
00010000
,
00100000
00110000
01000000
10000000
,
00010000
01010000
00100000
10000000
,
00100000
00000000
00100000
00000000
00010000
10000000
01000000
00000000
,
00100000
00000000
00100000
00000000
00001000
00010000
00001000
00000000
,
00000100
00000000
00000100
00000000
00000010
00001000
00000100
00000000
,
00001000
00000000
00000001
00000000
00001001
00000000
00000010
00000010
,
00000000
00000000
00000000
00000000
;

//---------------dance-double - ----------------
#NOTES:
     dance-double:
     :
     Hard:
     11:
     :
00000000
00000000
00000000
00000000
,
00000000
00000000
00000000
00000000
,
00000000
00000000
00000000
00000000
,
00000000
00000000
00000000
00000000
,
00000000
00000000
00000000
00000000
,
00000000
00000000
00000000
00000000
,
00100000
00000000
00100000
00000000
00010000
01000000
00100000
01000000
,
00010000
00000000
00010000
00000000
10000000
01000000
00100000
01000000
,
10000000
00000000
10000000
00000000
00010000
01000000
00001000
00010000
,
00000010
00000000
00000000
00000100
00000000
00000000
00000220
00000000
00000000
00000000
00000000
00000000
00000330
00000000
00000000
00000000
,
00000001
00000000
00000000
00000001
00000100
00000000
00000000
00000100
00000010
00000000
00000100
00000000
00000000
00000000
00001001
00000000
,
00000000
00000001
00000010
00001000
00010000
01000000
10000000
00100000
,
01000000
00000000
00000000
01000000
00010000
00000000
00000000
00010000
10000000
00000000
01000000
00000000
00000000
00000000
01100000
00000000
,
00000000
00100000
00010000
01000000
00010000
10000000
01000000
00010000
,
00001000
00000000
00000000
00001000
00000010
00000000
00000000
00000010
00000100
00000000
00000010
00000000
00000000
00000000
00001001
00000000
,
00000000
00000010
00000001
00000100
00000010
00000100
00000001
00000010
,
00001000
00000000
00000000
00001000
00010000
00000000
00000000
00010000
01000000
00000000
10000000
00000000
00000000
00000000
01010000
00000000
,
00000000
00100000
10000000
01000000
00010000
01000000
10000000
00000000
,
00010000
00000000
01000000
00000000
01010000
00000000
00000000
00000000
00100000
00000000
10000000
00000000
01000000
00100000
00000000
00000000
,
00001000
00000000
00010000
00000000
00011000
00000000
00000000
00000000
00001000
00000000
00000100
00000000
00000010
00000100
00000000
00000000
,
00000001
00000000
00001000
00000000
00001001
00000000
00000000
00000000
00000100
00000000
00000010
00000000
00000001
00000100
00000000
00000000
,
00000010
00000000
00001000
00000000
00001010
00000000
00000000
00000000
00000100
00000000
00010000
00000000
00001000
00010000
00000000
00000000
,
01000000
01000000
00000000
00000000
00000000
00000000
00000000
00000000
,
00100000
00100000
00000000
00000000
00000000
00000000
00000000
00000000
,
10000000
01000000
11000000
00000000
00010000
01000000
01010000
00000000
,
00010000
00100000
00110000
00000000
10000000
00100000
10100000
00000000
,
01000000
01000000
00000000
00000000
00000000
00000000
00000000
00000000
,
00010000
00010000
00000000
00000000
00000000
00000000
00000000
00000000
,
00001000
00000100
00001100
00000000
00000001
00000100
00000101
00000000
,
00000001
00000010
00000011
00000000
00001000
00000010
00001010
00000000
,
00000001
00000000
00000000
00000100
00000000
00000000
00000010
00000000
00000000
00000000
00001000
00000000
00000100
00000000
00000010
00000000
,
00000100
00000000
00000000
00001000
00000000
00000000
00000010
00000000
00000000
00000000
00000100
00000000
00001000
00000000
00010000
00000000
,
00000010
00010000
00000100
00010000
00001000
01000000
00010000
00100000
,
10000000
00100000
01000000
00100000
00010000
00100000
01000000
10000000
,
00100000
00000000
00000000
01000000
00000000
00000000
00010000
00000000
00000000
00000000
00100000
00000000
00010000
00000000
01000000
00000000
,
10000000
00000000
00000000
01000000
00000000
00000000
00010000
00000000
00000000
00000000
10000000
00000000
00010000
00000000
00100000
00000000
,
00001000
00010000
00001000
01000000
00001000
00100000
00010000
00100000
,
00001000
00010000
00001000
00000100
00000001
00000010
00000100
00000010
,
00000001
00000000
00000000
00001000
00000000
00000000
00000100
00000000
00000000
00000000
00000010
00000000
00000001
00000000
00000100
00000000
,
00000010
00000000
00000000
00001000
00000000
00000000
00000001
00000000
00000000
00000000
00000010
00000000
00000100
00000000
00000010
00000000
,
00001000
00010000
00000100
00010000
00001000
00010000
01000000
00100000
,
01000000
10000000
01000000
00010000
01000000
00100000
00010000
01000000
,
00010000
00000000
00000000
10000000
00000000
00000000
01000000
00000000
00000000
00000000
00100000
00000000
00010000
00000000
01000000
00000000
,
00100000
00000000
00000000
01000000
00000000
00000000
10010000
00000000
00000000
00000000
00100000
00000000
00100000
00000000
00100000
00000000
,
20000000
00000000
31000000
00200000
00000000
02300000
00000000
03020000
,
00000000
00032000
00000000
00003200
00000000
00000302
00000000
00001003
,
00000100
00000010
00000001
00000200
00000000
00000310
00000001
00000010
,
00000100
00001000
00010000
00002000
00000000
00013000
00100000
01000000
,
00200000
00000000
10300000
02000000
00000000
03020000
00000000
02030000
,
00000000
23000000
00000000
30200000
00000000
00320000
00000000
00031000
,
01000000
00010000
10000000
02000000
00000000
03010000
00001000
00000010
,
00000001
00001000
00000010
00000220
00000000
00000000
00000330
00000000
,
00001000
00000100
00000010
00000001
00001000
00000001
00000100
00000010
,
00001000
00000100
00010000
00002000
00000000
00103000
01000000
00100000
,
00010000
01000000
00100000
10000000
01000000
10000000
00010000
01000000
,
00100000
00010000
00001000
00020000
00000000
00031000
00000010
00000100
,
00001000
00000001
00000100
00000002
00000000
00001003
00000010
00001000
,
00000002
00000000
00000203
00002300
00000000
00023000
00030000
02020000
,
00000000
03030000
10000000
00010000
,
00100000
01000000
10000000
10000000
,
00010000
00000000
01000000
00000000
01010000
00000000
00000000
00000000
00100000
00000000
10000000
00000000
01000000
00100000
00000000
00000000
,
00001000
00000000
00010000
00000000
00011000
00000000
00000000
00000000
00001000
00000000
00000100
00000000
00000010
00000100
00000000
00000000
,
00000001
00000000
00001000
00000000
00001001
00000000
00000000
00000000
00000100
00000000
00000010
00000000
00000001
00000100
00000000
00000000
,
00000010
00000000
00001000
00000000
00001010
00000000
00000000
00000000
00000100
00000000
00001000
00000000
00010000
00001000
00000000
00000000
,
00100000
00000000
00100000
00000000
00010000
01000000
00100000
01000000
,
00010000
00000000
00010000
00000000
10000000
01000000
00100000
01000000
,
10000000
00000000
10000000
00000000
00010000
01000000
00001000
00010000
,
00000010
00000000
00000000
00000000
00001000
00000000
00000000
00000000
00000110
00000000
00000000
00000000
00000001
00001000
00000001
00001000
,
00000000
00000000
00000000
00000000
;

//---------------dance-double - ----------------
#NOTES:
     dance-double:
     :
     Challenge:
     14:
     :
00000000
00000000
00000000
00000000
,
00000000
00000000
00000000
00000000
,
00000000
00000000
00000000
00000000
,
00000000
00000000
00000000
00000000
,
00000000
00000000
00000000
00000000
,
00000000
00000000
00000000
00000000
,
00001000
00000000
00000100
00000000
00000010
00000000
00000001
00000100
00000000
00000010
00000100
00000000
00001000
00000000
00010000
00000000
,
00100000
00000000
10000000
00000000
00100000
00000000
01000000
00010000
00000000
01000000
00100000
00000000
10000000
00000000
01000000
00000000
,
00010000
00000000
01000000
00000000
10000000
00000000
00010000
01000000
00000000
00010000
00100000
00000000
00001000
00000000
00010000
00000000
,
00001010
00000000
00000000
00000101
00000000
00000000
00002002
00000000
00000000
00000000
00000000
00000000
00003003
00000000
00000000
00000000
,
00001000
00000000
00000010
00000100
00000001
00000000
00001000
00000001
00001000
00000000
00001010
00000000
00000000
00000000
00000101
00000000
,
00000000
00000011
00001000
00010000
01000000
11000000
01100000
00000000
,
00010000
00000000
00100000
01000000
10000000
00000000
00010000
01000000
00100000
00000000
01100000
00000000
00000000
00000000
10010000
00000000
,
00000000
01010000
00001000
00010000
00000100
00001000
00000001
00000010
,
00000001
00000000
00001000
00000001
00000100
00000000
00000010
00001000
00000001
00000000
00000011
00000000
00000000
00000000
00000110
00000000
,
00000000
00001001
00000001
00000100
00000001
00001001
00001100
00000000
,
00010000
00000000
00000010
00010000
00001000
00000000
00100000
00001000
00010000
00000000
00011000
00000000
00000000
00000000
01010000
00000000
,
00000000
01100000
10000000
01000000
00100000
00010000
01000000
00100000
,
10000000
00000000
00010000
00000000
02200000
00000000
03300000
00000000
10000000
00000000
01000000
00000000
00100000
00010000
00000000
00010000
,
01000000
00000000
00001000
00000000
00022000
00000000
00033000
00000000
00001000
00000000
00000100
00000000
00000001
00000010
00000000
00000010
,
00000100
00000000
00000010
00000000
00002002
00000000
00003003
00000000
00000100
00000000
00000010
00000000
00001000
00000100
00000000
00000100
,
00000010
00000000
00000001
00000000
00000202
00000000
00000303
00000000
00000010
00000000
00001000
00000000
00010000
01000000
00000000
01000000
,
00000000
00000000
00010000
00000000
10000000
00000000
01000000
10000000
00000000
00000000
00010000
00000000
00100000
00000000
01000000
00000000
,
00000000
00000000
10000000
00000000
00010000
00000000
01000000
00100000
00000000
00000000
00010000
00000000
00001000
00000000
00010000
00000000
,
00000010
00001000
00000010
00001000
00000002
00000000
00000003
00000000
00000010
00000001
00000010
00000001
00002000
00000000
00003000
00000000
,
00000100
00001000
00000100
00001000
00000002
00000000
00000003
00000000
00000100
00000001
00000100
00000001
00002000
00000000
00003000
00000000
,
00000000
00000000
00001000
00000000
00000001
00000000
00000100
00000001
00000000
00000000
00001000
00000000
00000010
00000000
00000100
00000000
,
00000000
00000000
00000001
00000000
00001000
00000000
00000100
00000010
00000000
00000000
00001000
00000000
00010000
00000000
00001000
00000000
,
00100000
00010000
00100000
00010000
20000000
00000000
30000000
00000000
00100000
10000000
00100000
10000000
00020000
00000000
00030000
00000000
,
01000000
00010000
01000000
00010000
20000000
00000000
30000000
00000000
01000000
10000000
01000000
10000000
00020000
00000000
00030000
00000000
,
10000000
00000000
00000000
01000000
00000000
00000000
00010000
00000000
00000000
00000000
00001000
00000000
00000100
00000000
00000001
00000000
,
00001000
00000000
00000000
00000001
00000000
00000000
00000010
00000000
00000000
00000000
00001000
00000000
00000010
00000000
00000100
00000000
,
00000010
00000000
00000001
00000000
00001000
00000000
00000100
00001000
00000000
00000100
00000010
00000000
00000100
00000000
00001100
00000000
,
00001000
00000000
00000010
00000000
00000100
00000000
00001000
00010000
00000000
00100000
01000000
00000000
00100000
00000000
10100000
00000000
,
10000000
00000000
00000000
00010000
00000000
00000000
01000000
00000000
00000000
00000000
00100000
00000000
00010000
00000000
00001000
00000000
,
00100000
00000000
00000000
01000000
00000000
00000000
00010000
00000000
00000000
00000000
00001000
00000000
00010000
00000000
01000000
00000000
,
10000000
00000000
00010000
00000000
01000000
00000000
00001000
00010000
00000000
00000010
00001000
00000000
00000001
00000000
00000101
00000000
,
00000100
00000000
00000010
00000000
00001000
00000000
00000100
00001000
00000000
00000010
00001000
00000000
00000001
00000000
00001001
00000000
,
00001000
00000000
00000000
00000100
00000000
00000000
00000010
00000000
00000000
00000000
00000100
00000000
00010000
00000000
00000010
00000000
,
00001000
00000000
00000000
00000001
00000000
00000000
00000100
00000000
00000000
00000000
00001000
00000000
00010000
00000000
00100000
00000000
,
10000000
00000000
00100000
00000000
01000000
00000000
00100000
10000000
00000000
01000000
00100000
00000000
00010000
00000000
00110000
00000000
,
01000000
00000000
10000000
00000000
00100000
00000000
01000000
00100000
00000000
01000000
00001000
00000000
00010000
00000000
00011000
00000000
,
00001000
00000000
00000000
00000010
00000000
00000000
00000001
00000000
00000000
00000000
00001000
00000000
00000010
00000000
00000100
00000000
,
00000101
00000000
00000000
00001100
00000000
00000000
00000110
00000000
00000000
00000000
00000001
00000000
00000010
00000000
00000100
00000000
,
00001000
00000010
00000100
00000010
00001000
00000001
00000100
00000010
,
00001000
00010000
01000000
00100000
10000000
00100000
00010000
00100000
,
10000000
01000000
00100000
00110000
00000000
11000000
00000000
00010000
,
01000000
00001000
00010000
00011000
00000000
00000010
00001000
00000001
,
00000010
00000100
00001000
00000100
00000001
00001000
00000010
00000001
,
00000100
00001000
00000001
00000010
00001000
00010000
01000000
10000000
,
01000000
00010000
10000000
11000000
00000000
00100000
00001000
00010000
,
00100000
01000000
00001000
00022000
00000000
00000000
00033000
00000000
,
00001000
00000000
00001000
00000100
00000000
00000100
00000001
00001000
,
00000100
00000010
00000001
00002002
00000000
00000000
00003003
00000000
,
00000001
00000000
00000001
00000100
00000000
00000100
00001000
00000100
,
00000010
00010000
00001000
00022000
00000000
00000000
00033000
00000000
,
00110000
00000000
00100000
20020000
00000000
00000000
30030000
00000000
,
00100000
00000000
10000000
01000000
00000000
01100000
00000000
00220000
,
00000000
00030000
00301000
00000010
,
00000001
00000000
00001001
00000110
,
00000001
00000000
00001000
00000000
00000220
00000000
00000330
00000000
00000001
00000000
00000100
00000000
00000010
00001000
00000000
00001000
,
00000100
00000000
00010000
00000000
00022000
00000000
00033000
00000000
00010000
00000000
01000000
00000000
10000000
00100000
00000000
00100000
,
01000000
00000000
00100000
00000000
20020000
00000000
30030000
00000000
01000000
00000000
00100000
00000000
00010000
01000000
00000000
01000000
,
00100000
00000000
10000000
00000000
22000000
00000000
33000000
00000000
00100000
00000000
00010000
00000000
00001000
00000100
00000000
00000100
,
00001000
00000000
00000100
00000000
00000010
00000000
00000001
00000100
00000000
00000010
00000100
00000000
00001000
00000000
00010000
00000000
,
00100000
00000000
10000000
00000000
00100000
00000000
01000000
00010000
00000000
01000000
00100000
00000000
10000000
00000000
01000000
00000000
,
00010000
00000000
01000000
00000000
10000000
00000000
00010000
01000000
00000000
00010000
00100000
00000000
00001000
00000000
00010000
00000000
,
00001000
00000000
00000010
00000000
00000001
00000000
00000100
00000001
00000000
00000001
00001000
00000000
00000010
00001000
00000010
00001000
,
00000000
00000000
00000000
00000000
;
