#TITLE:Hoping To Be Good;
#ARTIST:Bill Hamel & Derek James feat. James Rowand;
#BANNER:Hoping To Be Good.png;
#BACKGROUND:Hoping To Be Good-bg.png;
#CDTITLE:./CDTitles/DanceDanceRevolution 2013.png;
#MUSIC:Hoping To Be Good.ogg;
#SAMPLESTART:8.986;
#SAMPLELENGTH:15;
#BPMS:0=120;
#STAGE:2;

//---------------dance-single - ----------------
#NOTES:
     dance-single:
     :
     Beginner:
     2:
     :
0000
0000
0000
0000
,
0000
0000
0000
0000
,
0000
0000
0000
0000
,
0000
0000
0000
0000
,
0000
0000
0000
0000
,
0010
0000
0010
0000
,
1000
0000
1000
0000
,
0010
0000
0010
0000
,
0001
0000
0001
0000
,
0100
0000
0100
0000
,
1000
0000
1000
0000
,
0100
0000
0100
0000
,
0001
0000
0001
0000
,
0010
0010
0010
0000
,
1000
0000
1000
0000
,
0100
0100
0100
0000
,
0001
0000
0001
0000
,
1000
1000
1000
0000
,
0100
0000
0100
0000
,
0010
0010
0010
0000
,
0001
0000
1001
0000
,
1000
1000
1000
1000
,
1000
0000
0000
0000
,
0010
0010
0010
0010
,
0010
0000
0000
0000
,
1000
0000
1000
0000
,
1001
0000
0000
0000
,
0001
0000
0001
0000
,
1001
0000
0000
0000
,
0010
0000
0010
0000
,
1000
0000
0000
0000
,
0001
0000
0001
0000
,
0100
0000
0000
0000
,
0010
0000
0010
0000
,
0001
0000
0001
0000
,
0010
0000
0010
0000
,
1000
0000
1000
0000
,
0001
0000
0001
0000
,
0100
0000
0100
0000
,
1000
0000
1000
0000
,
0001
0000
0001
0000
,
1001
0000
0000
0000
,
0000
0000
0000
0000
;

//---------------dance-single - ----------------
#NOTES:
     dance-single:
     :
     Easy:
     5:
     :
0000
0000
0000
0000
,
0000
0000
0000
0000
,
0000
0000
0000
0000
,
0000
0000
0000
0000
,
0000
0000
0000
0000
,
0010
0000
1000
0000
,
0010
1000
0010
0001
,
0100
0001
0100
1000
,
0100
0000
0010
0001
,
1000
0000
0100
0000
,
0010
0001
1000
0100
,
0001
0100
1000
0100
,
0001
0000
0000
0000
,
1000
1000
0001
0001
,
1000
0000
0001
0001
,
0010
0010
0100
0100
,
0010
0000
0100
0100
,
0010
0001
0010
0001
,
1000
0000
0100
0100
,
0010
0001
0010
1000
,
1001
0000
1001
0000
,
0100
0000
1000
0000
,
0001
0000
0100
0100
,
1000
0100
0001
0100
,
1000
0100
0001
0100
,
0001
0001
0010
0010
,
0001
1000
0010
0100
,
0001
0001
0010
0010
,
0001
1000
0010
0100
,
2000
3000
0002
0003
,
2002
3003
0001
0001
,
0020
0030
0200
0300
,
0020
0030
0100
0100
,
0020
0000
0000
0000
,
0000
0030
0002
0003
,
2000
0000
0000
0000
,
0000
3000
0200
0300
,
0002
0000
0000
0000
,
0000
0003
0200
0300
,
0002
0000
0000
0000
,
0000
0003
0100
0100
,
2002
0000
0000
0000
,
0000
0000
0000
3003
,
0000
0000
0000
0000
;

//---------------dance-single - ----------------
#NOTES:
     dance-single:
     :
     Medium:
     7:
     :
0000
0000
0000
0000
,
0000
0000
0000
0000
,
0000
0000
0000
0000
,
0000
0000
0000
0000
,
0000
0000
0000
0000
,
0100
0001
0010
0001
,
1000
0010
0100
1000
,
0100
0000
0001
0010
0100
1000
0010
0000
,
0001
0010
1000
0100
,
0010
0001
0100
0001
,
1000
0100
0010
1000
,
0010
0000
0001
0100
0010
1000
0100
0000
,
0001
0100
1000
0010
,
0001
0010
0001
0010
1000
0000
0100
0000
,
0010
0011
0001
0101
,
1000
0100
1000
0100
0001
0000
0100
0000
,
1000
0000
0010
0000
0001
0000
0100
0001
,
0010
1000
0010
1000
0100
0000
0001
0000
,
0100
1100
1000
1010
,
0100
1000
0100
1000
0010
0000
1000
0000
,
0001
0100
0001
0100
0001
0010
0001
0010
,
0200
0000
2000
0300
,
0020
0000
3000
0000
2030
0000
3000
0001
,
0020
0000
2000
0030
,
0020
0000
3000
0000
0031
0000
1000
0010
,
0200
0301
0002
0013
,
0020
0000
1030
0000
2000
0000
3100
1000
,
0020
0031
0002
0103
,
0020
1030
1100
0011
,
0001
0000
0100
0000
0010
1000
0010
0000
,
1000
0100
1000
0000
0001
0010
0001
0000
,
1000
0000
0010
0000
0100
0001
0100
0000
,
0001
0010
0001
0000
1000
0100
1000
0000
,
0010
1000
0010
0000
1000
0000
0100
0000
,
0001
0100
1000
0010
,
0100
0001
0100
0000
0001
0000
0010
0000
,
1000
0000
0010
0000
0001
0000
0100
1000
,
0100
0001
0010
0000
1000
0010
0001
0000
,
1000
0010
0001
0000
0010
1000
0100
0000
,
0010
0001
0010
0000
0100
1000
0100
0000
,
2000
0000
3020
0000
0032
0000
0013
1000
,
2002
0000
0000
0000
,
0000
0000
0000
3003
,
0000
0000
0000
0000
;

//---------------dance-single - ----------------
#NOTES:
     dance-single:
     :
     Hard:
     12:
     :
0000
0000
0000
0000
,
0000
0000
0000
0000
,
0000
0000
0000
0000
,
0000
0000
0000
0000
,
0000
0000
0000
0000
,
0010
0000
0000
1000
0001
0000
1000
0000
0100
0000
0000
0000
1000
0000
0010
0000
,
0100
0000
0000
1000
0001
0000
0010
0000
0100
0000
0000
0000
0010
0000
0100
0000
,
0001
0000
0000
1000
0001
0000
0100
0000
0010
0000
0000
0000
0001
0000
1000
0000
,
0100
0000
0000
1000
0001
0000
0010
0000
0100
0000
0000
0000
1000
0000
1000
0000
,
0010
0000
0000
0001
1000
0000
0010
0000
0100
0000
0000
0000
0010
0000
0100
0000
,
0010
0000
0000
0001
1000
0000
0010
0000
0100
0000
0000
0000
0001
0000
1000
0000
,
0100
0000
0000
0001
1000
0000
0010
0000
0100
0000
0000
0000
1000
0000
0001
0000
,
0010
0000
0000
1000
0001
0000
1000
0000
0001
0000
0000
0000
0100
0000
0010
0000
,
1000
0000
0000
0000
0100
0000
0000
0000
0001
0000
0010
1000
0010
0000
0100
0000
,
1000
0000
0000
0000
0001
0000
0000
0000
0100
0000
0001
1000
0001
0000
1000
0000
,
0010
0000
0000
0000
0100
0000
0000
0000
0001
0000
0010
1000
0010
0000
1000
0000
,
0100
0000
0000
0000
0010
0000
0000
0000
0001
0000
1000
0010
1000
0000
0010
0000
,
1000
1000
0010
0010
0001
0001
1000
1000
,
0010
0010
0001
0001
0100
0100
1000
1000
,
0100
0100
0001
0001
0100
0100
1000
1000
,
0010
0001
1000
0100
0001
1000
0100
0100
,
0010
0001
0100
1000
,
0010
0001
0010
1000
,
0010
1000
0100
0001
,
0001
0001
1000
1000
0010
0010
0100
0100
,
1000
0000
0000
0001
1000
0000
0000
0000
0100
0000
0000
0010
0100
0000
0000
0000
,
0001
0000
0000
1000
0001
0000
0000
0000
0010
0000
0000
0100
0010
0000
0000
0000
,
0001
0000
0000
0010
0001
0000
0000
0000
0100
0000
0000
1000
0100
0000
0000
0000
,
1000
0000
0000
0100
1000
0000
0000
0000
0010
0000
0000
0001
0010
0000
0000
0000
,
0100
0000
1000
0100
1000
0000
0000
0000
0010
0000
0000
0000
0100
0000
0000
0000
,
0010
0000
0001
0010
0001
0000
0000
0000
1000
0000
1000
0000
0100
0000
0100
0000
,
0001
0000
1000
0100
1000
0000
0000
0000
0010
0000
0000
0000
0001
0000
0000
0000
,
0100
0000
0010
0001
0010
0000
0000
0000
1000
0000
1000
0000
0001
0000
0001
0000
,
1000
0000
1000
0100
1000
0000
0000
0000
0010
0000
0000
0000
0100
0000
0000
0000
,
0001
0000
0010
0100
0010
0000
0000
0000
0001
0000
0001
0000
0100
0000
0100
0000
,
0010
0000
1000
0100
1000
0000
0000
0000
0010
0000
0000
0000
0001
0000
0000
0000
,
0010
0000
0001
0010
0001
0000
0000
0000
0100
0000
0100
0000
1000
0000
1000
0000
,
0100
0000
0010
0100
0010
0000
0001
0000
0100
0000
0010
0000
0100
0000
0001
0000
,
0010
0000
1000
0100
1000
0000
0001
0000
0010
0000
0010
0000
0100
0000
0100
0000
,
0010
0000
1000
0100
1000
0000
0001
0000
0100
0000
0010
0100
0010
0000
1000
0000
,
0100
0000
0010
0001
0010
0000
0001
0000
1000
0001
1000
0001
0100
0000
0010
0000
,
2002
0000
0000
0000
,
0000
0000
0000
3003
,
0000
0000
0000
0000
;

//---------------dance-double - ----------------
#NOTES:
     dance-double:
     :
     Easy:
     5:
     :
00000000
00000000
00000000
00000000
,
00000000
00000000
00000000
00000000
,
00000000
00000000
00000000
00000000
,
00000000
00000000
00000000
00000000
,
00000000
00000000
00000000
00000000
,
00100000
00000000
10000000
00000000
,
00100000
10000000
00100000
00010000
,
01000000
00010000
01000000
10000000
,
01000000
00010000
00001000
00000000
,
00000010
00000000
00000100
00000000
,
00000010
00000001
00001000
00000100
,
00000010
00000001
00000010
00001000
,
00010000
00000000
00000000
00000000
,
10000000
10000000
00010000
00010000
,
10000000
00000000
00010000
00010000
,
00100000
00100000
01000000
01000000
,
00010000
00000000
00001000
00001000
,
00000010
00001000
00000010
00000001
,
00000010
00000000
00001000
00001000
,
00010000
00110000
00010000
01010000
,
10010000
00000000
10010000
00000000
,
00010000
00000000
00001000
00000000
,
00000010
00000000
00001000
00001000
,
00000001
00000100
00001000
00000100
,
00001100
00000000
00011000
00000000
,
00010000
00010000
01000000
01000000
,
00010000
10000000
00100000
01000000
,
00010000
00010000
00001000
00001000
,
00000010
00001000
00000010
00000001
,
00000200
00000300
00000020
00000030
,
00002000
00003000
00010000
00010000
,
00200000
00300000
02000000
03000000
,
00200000
00300000
01000000
01000000
,
00100000
00010000
00001000
00000100
,
00000010
00000001
00000200
00000300
,
00000010
00001000
00000010
00001000
,
00010000
00100000
02000000
03000000
,
10000000
01000000
10000000
01000000
,
00100000
00010000
00002000
00003000
,
00020000
00000000
00000000
00000000
,
00000000
00030000
00001000
00001000
,
00022000
00000000
00000000
00000000
,
00000000
00000000
00000000
00033000
,
00000000
00000000
00000000
00000000
;

//---------------dance-double - ----------------
#NOTES:
     dance-double:
     :
     Medium:
     7:
     :
00000000
00000000
00000000
00000000
,
00000000
00000000
00000000
00000000
,
00000000
00000000
00000000
00000000
,
00000000
00000000
00000000
00000000
,
00000000
00000000
00000000
00000000
,
00000001
00000010
00000100
00001000
,
00010000
00000000
00001000
00000000
00010000
01000000
00100000
00000000
,
10000000
01000000
00010000
00001000
,
00000100
00000000
00001000
00000000
00010000
01000000
10000000
00100000
,
10000000
01000000
00100000
00010000
,
00001000
00000000
00010000
00000000
00001000
00000010
00000100
00000000
,
00000001
00000010
00001000
00010000
,
00100000
00000000
00010000
00000000
00001000
00000010
00000001
00000100
,
00001000
00000100
00000001
00000010
00001000
00000000
00010000
00000000
,
01000000
00010000
00001000
00010000
,
00001000
00000010
00001000
00010000
00100000
00000000
10000000
00000000
,
01000000
10000000
00100000
01000000
,
10000000
01000000
00010000
00100000
00010000
00000000
00001000
00000000
,
00000010
00001000
00010000
00001000
,
00010000
01000000
00010000
00001000
00000100
00000000
00000001
00000000
,
00000010
00000001
00000100
00001000
,
00022000
00000000
00000000
00033000
,
20200000
00000000
00000000
30300000
,
22000000
00000000
00000000
33000000
,
00220000
00000000
00000000
00000000
00330000
00000000
00001000
00010000
,
00001000
00002000
00003010
00000020
,
00000130
00000200
00001300
00002000
,
00013000
00020000
01030000
02000000
,
23000000
00000000
30200000
00000000
10300000
00000000
01000000
00010000
,
00001000
00000100
00001000
00000000
00000100
00000001
00000100
00000000
,
00000001
00000010
00001100
00001010
,
00001000
00010000
00001000
00000000
00010000
00100000
00010000
00000000
,
10000000
00100000
01010000
00110000
,
00010000
00001000
00000010
00000000
00000010
00001000
00010000
00000000
,
00010000
01000000
00100000
00000000
00100000
00010000
00001000
00000000
,
00001000
00000100
00000001
00000000
00000001
00000100
00000010
00000000
,
00000010
00001000
00010000
00000000
00010000
00100000
10000000
00000000
,
00100000
00010000
00001000
00000000
00000010
00001000
00000010
00000000
,
00000100
00001000
00010000
00000000
01000000
00000000
10000000
00000000
,
00100000
00010000
00001000
00010000
,
00022000
00000000
00000000
00000000
00033000
00000000
00001000
00000010
,
00000022
00000000
00000000
00000000
,
00000000
00000000
00000000
00000033
,
00000000
00000000
00000000
00000000
;

//---------------dance-double - ----------------
#NOTES:
     dance-double:
     :
     Hard:
     11:
     :
00000000
00000000
00000000
00000000
,
00000000
00000000
00000000
00000000
,
00000000
00000000
00000000
00000000
,
00000000
00000000
00000000
00000000
,
00000000
00000000
00000000
00000000
,
00100000
00000000
00000000
01000000
00010000
00000000
01000000
00000000
00010000
00000000
00000000
00000000
00001000
00000000
00000100
00000000
,
00000010
00000000
00000000
00000001
00001000
00000000
00000010
00000000
00000100
00000000
00000000
00000000
00000010
00000000
00000100
00000000
,
00001000
00000000
00000000
00010000
00001000
00000000
00010000
00000000
00001000
00000000
00000000
00000000
00010000
00000000
00010000
00000000
,
00001000
00000000
00000000
00001000
00000100
00000000
00000010
00000000
00000100
00000000
00000000
00000000
00000001
00000000
00000001
00000000
,
00000100
00000000
00000000
00001000
00000100
00000000
00000010
00000000
00000100
00000000
00000000
00000000
00001000
00000000
00001000
00000000
,
00010000
00000000
00000000
00010000
01000000
00000000
00100000
00000000
01000000
00000000
00000000
00000000
00010000
00000000
00010000
00000000
,
00001000
00000000
00000000
00000100
00000010
00000000
00000001
00000000
00001000
00000000
00000000
00000000
00000100
00000000
00000100
00000000
,
00022000
00000000
00000000
00033000
,
01000000
00000000
00000000
00000000
00100000
00000000
00000000
00000000
10000000
00000000
00010000
10000000
00010000
00000000
01000000
00000000
,
00010000
00000000
00001000
00000000
00000100
00000010
00000001
00000000
,
00000010
00000000
00000000
00000000
00001000
00000000
00000000
00000000
00010000
00000000
01000000
00010000
01000000
00000000
00010000
00000000
,
01000000
00000000
00100000
00000000
00010000
00001000
00010000
00000000
,
00000100
00000100
00000010
00000010
00001000
00001000
00010000
00010000
,
01000000
01000000
00010000
00010000
00001000
00001000
00000100
00000100
,
00000010
00001000
00000001
00000100
00000010
00010000
00001000
00100000
,
00010000
10000000
01000000
00100000
10000000
10000000
00010000
00010000
,
00100000
10000000
01000000
00010000
,
00001000
00000010
00000001
00000100
,
00001000
00010000
01000000
00100000
,
01000000
10000000
00100000
00010000
00001000
00000100
00000001
00000010
,
00000100
00000000
00000000
00000010
00000100
00000000
00000000
00000000
00000010
00000000
00000000
00001000
00000010
00000000
00000000
00000000
,
00010000
00000000
00000000
00001000
00010000
00000000
00000000
00000000
00100000
00000000
00000000
01000000
00100000
00000000
00000000
00000000
,
00010000
00000000
00000000
00001000
00010000
00000000
00000000
00000000
00000100
00000000
00000000
00000010
00000100
00000000
00000000
00000000
,
00010000
00000000
00000000
00001000
00010000
00000000
00000000
00000000
00100000
00000000
00000000
00010000
00100000
00000000
00000000
00000000
,
01000000
00000000
10000000
01000000
10000000
00000000
00000000
00000000
00100000
00000000
00000000
00000000
00010000
00000000
00000000
00000000
,
00001000
00000000
00010000
00001000
00010000
00000000
00000000
00000000
00001000
00000000
00001000
00000000
00000100
00000000
00000100
00000000
,
00000010
00000000
00000100
00000010
00000100
00000000
00000000
00000000
00001000
00000000
00000000
00000000
00010000
00000000
00000000
00000000
,
01000000
00000000
00100000
00010000
00100000
00000000
00000000
00000000
01000000
00000000
01000000
00000000
00010000
00000000
00010000
00000000
,
00001000
00000000
00010000
00001000
00010000
00000000
00000000
00000000
00000100
00000000
00000000
00000000
00000010
00000000
00000000
00000000
,
00001000
00000000
00010000
00001000
00010000
00000000
00000000
00000000
00001000
00000000
00001000
00000000
01000000
00000000
01000000
00000000
,
00100000
00000000
10000000
01000000
10000000
00000000
00000000
00000000
00100000
00000000
00000000
00000000
00010000
00000000
00000000
00000000
,
00001000
00000000
00000100
00000010
00000100
00000000
00000000
00000000
00000001
00000000
00000001
00000000
00001000
00000000
00001000
00000000
,
00010000
00000000
00001000
00010000
00001000
00000000
00000000
00000000
00010000
00000000
00000000
00000000
01000000
00000000
00000000
00000000
,
00010000
00000000
10000000
01000000
10000000
00000000
00000000
00000000
00100000
00000000
00100000
00000000
01000000
00000000
01000000
00000000
,
00010000
00000000
00001000
00010000
00001000
00000000
00000000
00000000
00000100
00000000
00000000
00000000
00000010
00000000
00000000
00000000
,
00001000
00000000
00010000
00001000
00010000
00000000
00000000
00000000
01000000
00000000
10000000
00000000
00100000
00000000
01000000
00000000
,
20020000
00000000
00000000
00000000
,
00000000
00000000
00000000
30030000
,
00000000
00000000
00000000
00000000
;
