#TITLE:Find The Way;
#ARTIST:nc ft. SAK.;
#BANNER:Find The Way.png;
#BACKGROUND:Find The Way-bg.png;
#CDTITLE:./CDTitles/DanceDanceRevolution 2013.png;
#MUSIC:Find The Way.ogg;
#SAMPLESTART:66.55;
#SAMPLELENGTH:15;
#BPMS:0=165;
#STAGE:16;

//---------------dance-single - ----------------
#NOTES:
     dance-single:
     :
     Beginner:
     3:
     :
0000
0000
0000
0000
,
0000
0000
0000
0000
,
0000
0000
0000
0000
,
0000
0000
0000
0000
,
0000
0000
0000
0000
,
1000
0000
0000
0000
,
0001
0000
0000
0000
,
0010
0000
0000
0000
,
0100
0000
0000
0000
,
1000
0000
0000
0000
,
0100
0000
0000
0000
,
0001
0000
0000
0000
,
0010
0000
0000
0000
,
2002
0000
0000
0000
,
0000
0000
0000
0000
,
0000
0000
0000
0000
,
3003
0000
0000
0000
,
2002
0000
0000
0000
,
0000
0000
0000
0000
,
0000
0000
0000
0000
,
3003
0000
0000
0000
,
0001
0000
0000
0000
,
1000
0000
0000
0000
,
0001
0000
0000
0000
,
1000
0000
0000
0000
,
0001
0000
1000
0000
,
0001
0000
1000
0000
,
0001
0001
1000
1000
,
0001
1000
0001
1000
,
0000
0000
0000
0000
,
0010
0000
1000
0000
,
0010
0000
0001
0000
,
0100
0000
1000
0000
,
0100
0000
0001
0000
,
0010
0000
0001
0000
,
0100
0000
0001
0000
,
0010
0000
1000
0000
,
0100
0000
0000
0000
,
1000
0000
0000
0000
,
0001
0001
0001
0000
,
0100
0000
0000
0000
,
1000
1000
1000
0000
,
0010
0000
0000
0000
,
0100
0100
0100
0000
,
0001
0000
0000
0000
,
1000
1000
1000
0000
,
0001
0000
0100
0000
,
1000
0000
1000
0000
,
0010
0000
0100
0000
,
0001
0000
0001
0000
,
0010
0000
0001
0000
,
1000
0000
1000
0000
,
0010
0000
0100
0000
,
0010
0000
0000
0000
,
0001
0000
1000
0000
,
0001
0001
0001
0000
,
1000
0000
0001
0000
,
1000
1000
1000
0000
,
0010
0000
0100
0000
,
0010
0010
0010
0000
,
0100
0000
0010
0000
,
0100
0100
0100
0000
,
2002
0000
0000
0000
,
0000
0000
0000
0000
,
0000
0000
0000
0000
,
3003
0000
0000
0000
,
2002
0000
0000
0000
,
0000
0000
0000
0000
,
0000
0000
0000
0000
,
3003
0000
0000
0000
,
2002
0000
0000
0000
,
0000
0000
0000
3003
,
0000
0000
0000
0000
;

//---------------dance-single - ----------------
#NOTES:
     dance-single:
     :
     Easy:
     7:
     :
0000
0000
0000
0000
,
0000
0000
0000
0000
,
0000
0000
0000
0000
,
0000
0000
0000
0000
,
0000
0000
0000
0010
,
1000
0000
0001
0000
,
1000
0001
0100
0000
,
0010
0000
0100
0000
,
0001
1000
0100
0000
,
0010
0000
0001
0000
,
1000
0001
1000
0000
,
0001
0000
0010
0000
,
0100
0000
1000
0001
,
2002
0000
0000
0000
,
0000
0000
0000
0000
,
0000
0000
0000
0000
,
0000
3003
0010
0100
,
0220
0000
0000
0000
,
0000
0000
0000
0000
,
0000
0000
0000
0000
,
0000
0000
0000
0330
,
1001
0000
0100
0000
,
1000
0000
0010
0000
,
0001
0000
0100
0000
,
1000
0000
0010
0000
,
0001
0001
0100
0100
,
1000
1000
0010
0010
,
0001
0100
1000
0010
,
0001
0100
1000
0010
,
0000
0000
0000
0000
,
1000
0010
1010
0001
,
1000
0100
1100
0010
,
0001
1000
1001
1000
,
0010
0100
0110
0001
,
1000
0100
1100
0010
,
0001
0100
0101
0010
,
0100
0010
0110
1000
,
0001
0010
1000
0000
,
0001
0010
0100
0000
,
0001
0100
1000
0010
,
1000
0100
0010
0000
,
0100
0010
0001
0100
,
0001
0100
0010
0000
,
0100
0001
1000
0100
,
1000
0001
0010
0000
,
1000
0001
1000
0000
,
1001
0010
1000
0100
,
1000
0001
0100
0001
,
0010
1000
0010
0001
,
0010
1000
0110
0000
,
0001
0100
0010
1000
,
0001
0100
0010
0001
,
0001
0100
0010
1000
,
0100
0010
0100
0000
,
1001
0010
0001
0100
,
0001
1000
0100
1000
,
0010
0001
0010
1000
,
0010
0001
0110
0000
,
1000
0100
0010
0001
,
1000
0100
0010
1000
,
1000
0100
0010
0001
,
0100
0010
0100
0000
,
2010
0000
0001
0001
,
0100
0000
0001
0001
,
0010
0000
0001
0001
,
0100
0000
3001
0010
,
0012
0000
1000
1000
,
0100
0000
1000
1000
,
0010
0000
1000
1000
,
0100
0000
1003
0010
,
0220
0000
0000
0000
,
0000
0000
0000
0330
,
0000
0000
0000
0000
;

//---------------dance-single - ----------------
#NOTES:
     dance-single:
     :
     Medium:
     10:
     :
0000
0000
0000
0000
,
0000
0000
0000
0000
,
0000
0000
0000
0000
,
0000
0000
0000
0000
,
0000
0000
0000
0010
,
1001
0000
0000
0100
0000
0000
0010
0010
,
0000
1000
0000
0000
0100
0000
0010
0000
,
0001
0000
0000
0010
0000
0000
1000
1000
,
0000
0001
0100
0000
1000
0000
0010
0000
,
0100
0000
0000
0001
0000
0000
0100
0100
,
0000
1000
0000
0000
0010
0000
0001
0000
,
1000
0000
0000
0020
0000
2030
0000
3002
,
0000
0023
0000
0030
0100
0000
0010
0000
,
0001
0100
0000
0000
0100
0000
0000
0100
,
0000
1000
0000
0000
1000
0000
0000
1000
,
0000
0010
0000
0000
0010
0000
0000
0010
,
0000
0001
0000
0000
0001
0000
0000
0001
,
0000
1000
0000
0000
1000
0000
0000
1000
,
0000
0001
0000
0000
0001
0000
0000
0001
,
0000
0010
0000
0000
0010
0000
0000
0010
,
0000
0100
0000
0000
0100
0000
0000
0100
,
2000
0010
0000
0000
0010
0000
0000
3002
,
0000
0010
0000
0000
0010
0000
0000
2003
,
0000
0010
0000
0000
0010
0000
0000
3002
,
0000
0010
0000
0000
0010
0000
0000
2003
,
0000
0010
0000
3002
0000
0010
0000
2003
,
0000
0010
0000
3002
0000
0010
0000
1003
,
0100
0010
0100
0010
0001
1000
0001
1000
,
0100
0010
0001
0100
0010
1000
0100
0010
,
0000
0000
0000
0000
,
0001
1000
0100
0000
0101
0000
0010
1000
,
0001
0010
0100
0000
1001
0000
0100
0010
,
1000
0001
1000
0000
1100
0000
0001
0100
,
0010
1000
0010
0000
0110
0000
1000
0100
,
0001
0100
0010
0000
0110
0000
0001
1000
,
0010
0100
0001
0000
1100
0000
0010
0001
,
1000
0001
0010
0000
0110
0000
0001
0100
,
1000
0010
0001
0100
,
1000
0010
0100
0010
,
1000
0000
0100
0000
0001
0000
0010
0010
,
0010
0001
0100
1000
,
0010
0000
0100
0000
0010
0000
1000
1000
,
1000
0100
0010
0001
,
0100
0000
1000
0000
0001
0000
0100
0100
,
0100
1000
0010
1000
,
0001
1000
0001
0000
,
1001
0000
0010
0001
0000
0010
0100
1000
,
0000
0001
1000
0000
0100
0000
1000
0100
,
0010
0000
0001
0010
0000
0100
1000
0010
,
0000
1000
0001
0000
0100
0000
0001
0000
,
1000
0000
0100
0001
0000
0010
0001
1000
,
0000
0010
0100
0000
0010
0000
1000
0001
,
1000
0000
0100
0100
0000
0010
0000
0001
,
0000
0100
0010
0000
0100
0000
0010
0000
,
1001
0000
0010
1000
0000
0010
0100
0001
,
0000
1000
0001
0000
0100
0000
0001
0100
,
0010
0000
1000
0010
0000
0100
0001
0010
,
0000
0001
1000
0000
0100
0000
1000
0000
,
0001
0000
0100
1000
0000
0010
1000
0001
,
0000
0010
0100
0000
0010
0000
0001
1000
,
0001
0000
0100
0100
0000
0010
0000
1000
,
0000
0100
0010
0000
0100
0000
0010
0000
,
0011
0000
0010
0100
1000
0000
1000
0001
,
0100
0000
0100
0010
1000
0000
1000
0001
,
0010
0000
0010
0100
1000
0000
1000
0100
,
0001
0000
0001
0100
1000
0000
0001
0000
,
1010
0000
0010
0100
0001
0000
0001
1000
,
0100
0000
0100
0010
0001
0000
0001
1000
,
0010
0000
0010
0100
0001
0000
0001
0100
,
1000
0000
1000
0100
0001
0000
1000
0000
,
0220
0000
0000
0000
,
0000
0000
0000
0330
,
0000
0000
0000
0000
;

//---------------dance-single - ----------------
#NOTES:
     dance-single:
     :
     Hard:
     12:
     :
0000
0000
0000
0000
,
0000
0000
0000
0000
,
0000
0000
0000
0000
,
0000
0000
0000
0000
,
0000
0000
0000
0010
,
1001
0000
0001
0100
0000
0100
0010
0100
,
0000
0001
1000
0000
0100
0000
0010
0000
,
1001
0000
0100
0010
0000
0100
0001
0010
,
0000
0100
1000
0000
0001
0000
0100
0000
,
0110
0000
0010
1000
0000
0001
0100
0010
,
0000
0100
0001
0000
0010
0000
1000
0000
,
1001
0000
0100
0020
0000
0032
0000
2003
,
0000
3020
0000
0030
0100
0000
0010
0000
,
2000
0100
0000
0000
0100
0000
3000
0100
,
0010
0002
0000
0000
0100
0000
0003
0100
,
0020
0100
0000
0000
0100
0000
0030
0100
,
0002
1000
0000
0000
1000
0000
0003
1000
,
0200
0010
0000
0000
0010
0000
0300
0010
,
0200
1000
0000
0000
1000
0000
0300
1000
,
0002
0100
0000
0000
0100
0000
0003
0100
,
2000
0100
0000
0000
0100
0000
3000
0100
,
0110
0001
0000
0000
0001
0000
0000
0001
,
0110
1000
0000
0000
1000
0000
0000
1000
,
0110
0001
0000
0000
0001
0000
0000
0001
,
0110
1000
0000
0000
1000
0000
0000
1000
,
0110
0001
0000
0001
0110
1000
0000
1000
,
0110
0001
0000
0001
0110
1000
0000
1000
,
0110
0001
0110
1000
0110
0001
0110
1000
,
0100
0010
0100
0000
1000
0001
1000
0000
0010
0100
0010
0100
0001
1000
0001
1000
,
0000
0000
0000
0000
,
1000
0101
0001
0000
1000
0100
0010
0001
,
1000
1010
0100
0000
0001
1000
0100
0010
,
0001
1001
0010
0000
0100
0001
1000
0100
,
0010
0110
0001
0000
1000
0100
0001
0100
,
1000
0101
0010
0000
0100
0010
1000
0001
,
0100
0110
1000
0000
0001
0010
0100
0010
,
0001
1100
1000
0000
0001
0100
1000
0100
,
0001
0000
1000
0000
0001
0000
1000
0000
0010
0100
0010
0100
0010
0000
1000
0000
,
0001
1000
0010
0000
0100
0000
0010
1000
,
0001
0000
0000
0000
0100
0000
0000
0000
1000
0000
0000
0000
0100
0000
0010
0001
,
0010
0001
0010
0000
0100
1000
0001
0100
,
0010
0000
0000
0000
0100
0000
0000
0000
0010
0000
0000
0000
1000
0000
0001
1000
,
0001
0100
0010
0000
0100
0000
0010
1000
,
0100
0000
0000
0000
0001
0000
0000
0000
1000
0000
0000
0000
0100
0000
0010
1000
,
0010
0100
0001
0000
1000
0100
0001
0100
,
1000
0001
1000
0010
,
1001
0000
0010
1000
0100
0010
0100
1000
,
0000
1000
0001
0010
0100
1000
0001
0100
,
0010
0000
1000
0010
0100
0001
0010
0001
,
0000
0001
1000
0100
0001
0100
1000
0000
,
0011
0000
0100
1000
0010
1000
0001
0010
,
0000
0010
0100
0010
0001
0100
0010
1000
,
0001
0000
0001
0100
0000
0100
0010
0100
,
0000
0100
0001
1000
0100
0000
0110
0000
,
1001
0000
0010
0001
0100
0010
0100
0001
,
0000
0001
1000
0010
0100
0001
1000
0100
,
0010
0000
0001
0010
0100
1000
0010
1000
,
0000
1000
0001
0100
1000
0100
0001
0000
,
1010
0000
0100
0001
0010
0001
1000
0010
,
0000
0010
0100
0010
1000
0100
0010
0001
,
1000
0000
1000
0100
0000
0100
0010
0100
,
0000
0100
1000
0001
0100
0000
0110
0000
,
1010
0000
0000
0010
0100
0000
0000
0100
0001
0000
0000
0001
0100
0000
0000
0100
,
1000
0000
0000
1000
0100
0000
0000
0100
0001
0000
0000
0001
1000
0000
0000
1000
,
0100
0000
0000
0100
0001
0000
0000
0001
0100
0000
0000
0100
1000
0000
0000
1000
,
0100
0000
0000
0100
0001
0000
0000
0001
1000
0000
0000
1000
0010
0000
0000
0010
,
0001
0000
0000
1000
0010
0000
0000
0100
0001
0000
0000
1000
0100
0000
0000
0010
,
0001
0000
0000
0100
0010
0000
0000
1000
0001
0000
0000
0010
0100
0000
0000
1000
,
0001
0100
0010
1000
0001
0100
0010
1000
,
0001
0000
0010
0000
0100
0000
1000
0000
0001
1000
0001
1000
0001
0000
0000
0000
,
0220
0000
0000
0000
,
0000
0000
0000
0330
,
0000
0000
0000
0000
;

//---------------dance-double - ----------------
#NOTES:
     dance-double:
     :
     Easy:
     6:
     :
00000000
00000000
00000000
00000000
,
00000000
00000000
00000000
00000000
,
00000000
00000000
00000000
00000000
,
00000000
00000000
00000000
00000000
,
00000000
00000000
00000000
00100000
,
10000000
00000000
00010000
00000000
,
10000000
01000000
00010000
00000000
,
00001000
00000000
00000100
00000000
,
00000010
00001000
00000001
00000000
,
00000100
00000000
00001000
00000000
,
00010000
00001000
00010000
00000000
,
00100000
00000000
10000000
00000000
,
00010000
00000000
00100000
01000000
,
20020000
00000000
00000000
00000000
,
00000000
00000000
00000000
00000000
,
00000000
00000000
00000000
00000000
,
00000000
30030000
00010000
00001000
,
00022000
00000000
00000000
00000000
,
00000000
00000000
00000000
00000000
,
00000000
00000000
00000000
00000000
,
00000000
00000000
00000000
00033000
,
00000100
00000000
00000001
00000000
,
00000010
00000000
00001000
00000000
,
00010000
00000000
01000000
00000000
,
10000000
00000000
00100000
00000000
,
00010000
00010000
00001000
00001000
,
00000010
00000010
00000001
00000001
,
00000100
00001000
00010000
01000000
,
10000000
00100000
00010000
10000000
,
00000000
00000000
00000000
00000000
,
10000000
00100000
10000000
00010000
,
10000000
01000000
00010000
00001000
,
00000010
00000001
00001000
00000001
,
00000100
00001000
00010000
00001000
,
00100000
00010000
01000000
00001000
,
00100000
00010000
01000000
00001000
,
00010000
00001000
00000100
00000001
,
00001000
00000001
00001000
00000000
,
00000001
00000100
00001000
00000000
,
00010000
01000000
10000000
00100000
,
10000000
01000000
00010000
00000000
,
00001000
00000100
00000001
00000010
,
00000001
00000010
00001000
00000000
,
00010000
00100000
10000000
01000000
,
10000000
00100000
00010000
00000000
,
00001000
00010000
00001000
00000000
,
00000010
00001000
00000100
00010000
,
00001000
00100000
00010000
01000000
,
00100000
10000000
00100000
00010000
,
00001000
00000100
00000001
00000000
,
00001000
00000100
00000010
00000001
,
00000100
00000010
00001000
00010000
,
01000000
00100000
10000000
00010000
,
00100000
01000000
10000000
00000000
,
00100000
00010000
01000000
00001000
,
00010000
00000010
00001000
00000100
,
00000010
00000001
00000010
00001000
,
00010000
01000000
10000000
00000000
,
00010000
01000000
00100000
10000000
,
01000000
00100000
00010000
00001000
,
00000100
00000010
00000001
00001000
,
00000010
00000100
00000001
00000000
,
00002000
00000000
00000010
00003001
,
00000200
00000000
00001000
00000310
,
00020000
00000000
00001000
01030000
,
00200000
00000000
00010000
01300000
,
20000000
00000000
00010000
30100000
,
02000000
00000000
00010000
03001000
,
00020000
00000000
00001000
00031000
,
00000020
00000000
00000100
00000031
,
00002002
00000000
00000000
00000000
,
00000000
00000000
00000000
00003003
,
00000000
00000000
00000000
00000000
;

//---------------dance-double - ----------------
#NOTES:
     dance-double:
     :
     Medium:
     10:
     :
00000000
00000000
00000000
00000000
,
00000000
00000000
00000000
00000000
,
00000000
00000000
00000000
00000000
,
00000000
00000000
00000000
00000000
,
00000000
00000000
00000000
00000010
,
00001001
00000000
00000000
00000100
00000000
00000000
00000010
00000010
,
00000000
00000001
00000000
00000000
00000100
00000000
00001000
00000000
,
00010000
00000000
00000000
00100000
00000000
00000000
10000000
10000000
,
00000000
00010000
00100000
00000000
01000000
00000000
10000000
00000000
,
01000000
00000000
00000000
00010000
00000000
00000000
00001000
00001000
,
00000000
00000010
00000000
00000000
00000001
00000000
00001000
00000000
,
00000010
00000000
00000000
00000200
00000000
00000320
00000000
00020030
,
00000000
00030200
00000000
00000300
00000010
00000000
00000001
00000000
,
00001000
00000100
00000000
00000000
00000100
00000000
00000000
00000100
,
00000000
00010000
00000000
00000000
00010000
00000000
00000000
00010000
,
00000000
00001000
00000000
00000000
00001000
00000000
00000000
00001000
,
00000000
00100000
00000000
00000000
00100000
00000000
00000000
00100000
,
00000000
01000000
00000000
00000000
01000000
00000000
00000000
01000000
,
00000000
10000000
00000000
00000000
10000000
00000000
00000000
10000000
,
00000000
00010000
00000000
00000000
00010000
00000000
00000000
00010000
,
00000000
01000000
00000000
00000000
01000000
00000000
00000000
01000000
,
00200000
00010000
00000000
00000000
00010000
00000000
00000000
00320000
,
00000000
00001000
00000000
00000000
00001000
00000000
00000000
00032000
,
00000000
00000010
00000000
00000000
00000010
00000000
00000000
00003020
,
00000000
00000001
00000000
00000000
00000001
00000000
00000000
00000032
,
00000000
00000010
00000000
00002003
00000000
00000010
00000000
00003002
,
00000000
00000100
00000000
00002003
00000000
00000100
00000000
00003001
,
00000100
00000010
00000100
00000010
00010000
00001000
00010000
00001000
,
00100000
00010000
01000000
00100000
10000000
01000000
00100000
00010000
,
00000000
00000000
00000000
00000000
,
10000000
01000000
00010000
00000000
00011000
00000000
00000100
00000001
,
00001000
00000100
00000010
00000000
00001001
00000000
00000010
00010000
,
00000100
00001000
00000010
00000000
00000101
00000000
00001000
00010000
,
00100000
01000000
00010000
00000000
11000000
00000000
00010000
00100000
,
01000000
00100000
00010000
00000000
10100000
00000000
01000000
00001000
,
00010000
00000100
00001000
00000000
00000011
00000000
00000010
00001000
,
00000001
00001000
00000010
00000000
00000110
00000000
00001000
00000100
,
00000001
00000010
00001000
00010000
,
01000000
10000000
00100000
10000000
,
00010000
00000000
00001000
00000000
00000001
00000000
00000010
00000010
,
00000010
00001000
00000100
00000001
,
00000010
00000000
00000100
00000000
00001000
00000000
00010000
00010000
,
00010000
00100000
10000000
00010000
,
01000000
00000000
00001000
00000000
00100000
00000000
01000000
01000000
,
01000000
10000000
01000000
00010000
,
00001000
00010000
00011000
00000000
,
00000100
00000000
00000010
00000100
00000000
00000010
00000001
00000100
,
00000000
00000010
00001000
00000000
00010000
00000000
01000000
00100000
,
01000000
00000000
00010000
10000000
00000000
01000000
00100000
00010000
,
00000000
10000000
01000000
00000000
00010000
00000000
00001000
00000000
,
00000100
00000000
00000010
00000100
00000000
00000010
00001000
00000100
,
00000000
00000010
00000001
00000000
00001000
00000000
00000001
00000100
,
00000010
00000000
00001000
00001000
00000000
00010000
00000000
01000000
,
00000000
00100000
01000000
00000000
00010000
00000000
00100000
00000000
,
01000000
00000000
00100000
01000000
00000000
00100000
10000000
01000000
,
00000000
00100000
00010000
00000000
00001000
00000000
00000100
00000010
,
00000100
00000000
00001000
00000001
00000000
00000100
00000010
00001000
,
00000000
00000001
00000100
00000000
00001000
00000000
00010000
00000000
,
01000000
00000000
00100000
01000000
00000000
00100000
00010000
01000000
,
00000000
00100000
10000000
00000000
00010000
00000000
10000000
01000000
,
00100000
00000000
00010000
00010000
00000000
00001000
00000000
00000100
,
00000000
00000010
00000100
00000000
00001000
00000000
00000010
00000000
,
00001000
00000000
00000010
00000100
00000001
00000000
00000001
00001000
,
00000100
00000000
00000100
00010000
00001000
00000000
00001000
00100000
,
00010000
00000000
00010000
10000000
00100000
00000000
00100000
01000000
,
00010000
00000000
00010000
10000000
01000000
00000000
00010000
00000000
,
00001000
00000010
00000100
00000000
00001000
00000010
00000100
00000000
,
00001000
00010000
00001000
00000000
00100000
00010000
01000000
00000000
,
00100000
10000000
01000000
00000000
00100000
01000000
10000000
00000000
,
01000000
00010000
00001000
00000000
00000100
00000001
00001000
00000000
,
00000220
00000000
00000000
00000000
,
00000000
00000000
00000000
00000330
,
00000000
00000000
00000000
00000000
;

//---------------dance-double - ----------------
#NOTES:
     dance-double:
     :
     Hard:
     12:
     :
00000000
00000000
00000000
00000000
,
00000000
00000000
00000000
00000000
,
00000000
00000000
00000000
00000000
,
00000000
00000000
00000000
00000000
,
00000000
00000000
00000000
00100000
,
10000000
00000000
00010000
01000000
00000000
00100000
00010000
00001000
,
00000000
00000100
00000010
00000000
00001000
00000000
00000100
00000000
,
00000010
00000000
00000001
00001000
00000000
00000100
00000010
00001000
,
00000000
00010000
01000000
00000000
10000000
00000000
00010000
00000000
,
01000000
00000000
00001000
00100000
00000000
01000000
10000000
00100000
,
00000000
00010000
00001000
00000000
00000010
00000000
00000100
00000000
,
00001001
00000000
00000100
00000020
00000000
00002030
00000000
00003002
,
00000000
00000023
00000000
00000030
00000100
00000000
00000010
00000000
,
00000002
00000100
00000000
00000000
00000100
00000000
00000003
00000100
,
00001000
00020000
00000000
00000000
01000000
00000000
00030000
01000000
,
20000000
00010000
00000000
00000000
00010000
00000000
30000000
00010000
,
00200000
00001000
00000000
00000000
00001000
00000000
00300000
00001000
,
02000000
00100000
00000000
00000000
00100000
00000000
03000000
00100000
,
00020000
00001000
00000000
00000000
00001000
00000000
00030000
00001000
,
00000200
00000010
00000000
00000000
00000010
00000000
00000300
00000010
,
00002000
00000001
00000000
00000000
00000001
00000000
00003000
00000001
,
00000110
00001000
00000000
00000000
00001000
00000000
00000000
00001000
,
00011000
00100000
00000000
00000000
00100000
00000000
00000000
00100000
,
00011000
00000010
00000000
00000000
00000010
00000000
00000000
00000010
,
00011000
01000000
00000000
00000000
01000000
00000000
00000000
01000000
,
01100000
10000000
00000000
10000000
01100000
00010000
00000000
00010000
,
01100000
10000000
00000000
10000000
01100000
00010000
00000000
00010000
,
00100000
10000000
01000000
00010000
00001000
00000100
00000001
00000010
,
00000100
00000010
00000100
00000000
00001000
00000001
00001000
00000000
00000010
00000100
00000010
00000100
00000001
00001000
00000001
00001000
,
00000000
00000000
00000000
00000000
,
00000001
00000100
00000010
00000000
00001010
00001000
00010000
01000000
,
00100000
00010000
01000000
00000000
01100000
00010000
10000000
01000000
,
00100000
00001000
00010000
00000000
00001100
00000100
00000001
00001000
,
00000100
00000010
00000001
00000000
00001001
00000100
00000001
00001000
,
00000010
00010000
00001000
00000000
00110000
10000000
00100000
01000000
,
00010000
00100000
01000000
00000000
01010000
01000000
00001000
00010000
,
00001000
00000100
00000001
00000000
00000110
00001000
00000001
00000100
,
00000010
00000000
00001000
00000000
00000010
00000000
00001000
00000000
00000100
00000010
00000100
00000010
00000100
00000000
00000010
00000000
,
00000001
00001000
00010000
10000000
,
01100000
00000000
00000000
00000000
10010000
00000000
00000000
00000000
01100000
00000000
00000000
00000000
10000000
00000000
01000000
00100000
,
01000000
00010000
00001000
00000010
,
00000011
00000000
00000000
00000000
00001100
00000000
00000000
00000000
00000101
00000000
00000000
00000000
00000010
00000000
00000100
00000010
,
00000100
00001000
00010000
01000000
,
11000000
00000000
00000000
00000000
01010000
00000000
00000000
00000000
11000000
00000000
00000000
00000000
00010000
00000000
10000000
00100000
,
10000000
00010000
00001000
00000001
,
00000110
00001001
00000110
00000000
,
00000001
00000000
00000100
00000010
00010000
00000010
00000100
00001000
,
00000000
00010000
00100000
01000000
00100000
10000000
00010000
10000000
,
01000000
00000000
00100000
00010000
01000000
00100000
00010000
00001000
,
00000000
00000100
00000001
00001000
00000100
00000010
00000001
00000000
,
00001000
00000000
00000010
00001000
00010000
01000000
00010000
00100000
,
00000000
01000000
00100000
00010000
01000000
00100000
10000000
00010000
,
10000000
00000000
01000000
00010000
00000000
00001000
00010000
00001000
,
00000000
00000100
00000001
00001000
00000100
00000000
00000110
00000000
,
00001001
00000000
00000010
00010000
00000100
00001000
00010000
00100000
,
00000000
00010000
10000000
00100000
01000000
00100000
00010000
00001000
,
00010000
00000000
01000000
00010000
00001000
00000100
00000010
00001000
,
00000000
00000001
00001000
00000100
00000010
00000100
00001000
00000000
,
00000001
00000000
00000100
00000010
00010000
00000100
00001000
00000010
,
00000000
00010000
00001000
00100000
00010000
01000000
00100000
10000000
,
00010000
00000000
00100000
01000000
00000000
01000000
10000000
01000000
,
00000000
00010000
00001000
00010000
00000010
00000000
00001010
00000000
,
00000001
00000010
00000100
00000000
00001100
00001000
00010000
00100000
,
01000000
00010000
00100000
00000000
01100000
00010000
10000000
00100000
,
01000000
00001000
00010000
00000000
00001010
00000010
00000001
00001000
,
00000010
00000100
00000001
00000000
00001001
00000010
00000001
00001000
,
00000100
00010000
00001000
00000000
01010000
10000000
01000000
00100000
,
00010000
01000000
00100000
00000000
00110000
00100000
00001000
00010000
,
00001000
00000010
00000001
00000000
00000110
00001000
00000001
00000100
,
00000010
00000000
00010000
00000000
00001000
00000000
00100000
00000000
01000000
00100000
01000000
00100000
01000000
00000000
00000000
00000000
,
20020000
00000000
00000000
00000000
,
00000000
00000000
00000000
30030000
,
00000000
00000000
00000000
00000000
;
