#TITLE:Diamond Night;
#ARTIST:TOMOSUKE feat. Alexa Slaymaker;
#BANNER:Diamond Night.png;
#BACKGROUND:Diamond Night-bg.png;
#CDTITLE:./CDTITLES/DanceDanceRevolution II.png;
#MUSIC:Diamond Night.ogg;
#SAMPLESTART:37.222;
#SAMPLELENGTH:15;
#DISPLAYBPM:135;
#BPMS:0=134.5,4=135;
#STAGE:2;

//---------------dance-single - ----------------
#NOTES:
     dance-single:
     :
     Beginner:
     3:
     :
0000
0000
0000
0000
,
0000
0000
0000
0000
,
0000
0000
0000
0000
,
0000
0000
0000
0000
,
0000
0000
0000
0000
,
1000
0000
1000
0000
,
0001
0000
0001
0000
,
0010
0000
0010
0000
,
0100
0000
0000
0000
,
1000
0000
0010
0000
,
0001
0000
0010
0000
,
1000
0000
0100
0000
,
0010
0000
0000
0000
,
1000
0000
1000
0000
,
0001
0000
0001
0000
,
0010
0000
0010
0000
,
0100
0000
0000
0000
,
1000
0000
0010
0000
,
0001
0000
0010
0000
,
2000
3000
0002
0003
,
2002
3003
0000
0000
,
0010
0000
0001
0000
,
0010
0010
0010
0000
,
1000
0000
0010
0000
,
1000
1000
1000
0000
,
0010
0000
0001
0000
,
0010
0010
0010
0000
,
1000
0000
0010
0000
,
1000
1000
1000
0000
,
0001
0000
0000
0000
,
1000
0000
0000
0000
,
0010
0000
0000
0000
,
0100
0000
0000
0000
,
0001
0000
0000
0000
,
1000
0000
0000
0000
,
0010
0000
0000
0000
,
0100
0000
0000
0000
,
2000
0000
3000
0000
,
0020
0000
0030
0000
,
0200
0000
0300
0000
,
0002
0000
0003
0000
,
2000
0000
3000
0000
,
0020
0000
0030
0000
,
0200
0000
0300
0000
,
0002
0000
0003
0000
,
1000
0000
1000
0000
,
1000
0001
1000
0000
,
0010
0000
0010
0000
,
0010
0000
0000
0000
,
0001
0000
0001
0000
,
0001
1000
0001
0000
,
0010
0000
0010
0000
,
0010
0000
0000
0000
,
0000
0000
0000
0000
;

//---------------dance-single - ----------------
#NOTES:
     dance-single:
     :
     Easy:
     5:
     :
0000
0000
0000
0000
,
0000
0000
0000
0000
,
0000
0000
0000
0000
,
0000
0000
0000
0000
,
0000
0000
0000
0000
,
0001
1000
0001
0000
,
0010
1000
0010
0000
,
1000
0100
1000
0000
,
0020
0000
0130
0000
,
1000
0000
0001
1000
,
0001
0000
0100
0010
,
0100
0000
0001
0100
,
0010
0000
0010
0000
,
1000
0001
1000
0000
,
0010
0001
0010
0000
,
0001
0100
0001
0000
,
0020
0000
0130
0000
,
0001
0000
1000
0001
,
1000
0000
0100
0010
,
0110
0000
1001
0000
,
0110
0110
1001
0000
,
0010
0100
1000
0100
,
1000
0100
0010
0000
,
0001
0100
0010
0100
,
0001
0100
0010
0000
,
0010
0100
0001
0100
,
0001
0100
0010
0000
,
1000
0100
0010
0100
,
1000
0100
0010
0000
,
0001
0000
1000
0000
,
0010
0010
1000
0000
,
0100
0000
0100
0000
,
0001
0001
0010
0000
,
1000
0000
0001
0000
,
0010
0010
0001
0000
,
0100
0000
0100
0000
,
1000
1000
0010
0000
,
2000
0000
0000
0000
,
3002
0000
0000
0000
,
0203
0000
0000
0000
,
0310
0000
0000
0000
,
0002
0000
0000
0000
,
2003
0000
0000
0000
,
3200
0000
0000
0000
,
0310
0000
0000
0000
,
1000
0001
1000
0001
,
0100
0000
0100
0000
,
0010
1000
0001
0000
,
0100
0001
1000
0000
,
0001
1000
0001
1000
,
0100
0000
0100
0000
,
0010
1000
0001
0000
,
0100
0001
1000
0000
,
0001
0000
0000
0000
,
0000
0000
0000
0000
;

//---------------dance-single - ----------------
#NOTES:
     dance-single:
     :
     Medium:
     8:
     :
0000
0000
0000
0000
,
0000
0000
0000
0000
,
0000
0000
0000
0000
,
0000
0000
0000
0000
,
0000
0000
0000
0000
,
1000
0000
0100
0000
1000
0100
0001
0000
,
0100
0000
1000
0000
0010
0100
0001
0000
,
0010
0000
1000
0000
0001
0010
1000
0000
,
0020
0001
0100
0130
,
1000
0001
0000
0001
0100
0000
0100
0000
,
0010
1000
0000
1000
0100
0000
0100
0000
,
1000
0010
0000
0010
0100
0000
0100
0000
,
0010
0001
1000
0100
,
0001
0000
0100
0000
0001
0100
1000
0000
,
0100
0000
0001
0000
0010
0100
1000
0000
,
0010
0000
0001
0000
1000
0010
0001
0000
,
0020
1000
0100
0130
,
0001
1000
0000
1000
0100
0000
0100
0000
,
0010
0001
0000
0001
0100
0000
0100
0000
,
0110
1000
0110
0001
,
1010
0000
0000
0101
0000
0000
1000
0001
1000
0001
0000
0000
,
0010
0000
0100
0000
1000
0100
0010
0100
,
1000
1100
0001
0011
,
0100
0000
0010
0000
1000
0100
0010
0100
,
0010
0011
0100
1100
,
0010
0000
0100
0000
0001
0100
0010
0100
,
0001
0101
1000
1010
,
0100
0000
0010
0000
0001
0100
0010
0100
,
0010
1010
0100
0101
,
1000
0000
0010
0000
1000
0010
0100
0010
,
1000
0000
0100
0000
1000
0010
0100
0100
,
0001
0000
0010
0000
0001
0100
0001
0100
,
0001
0010
0100
1000
,
0001
0000
0010
0000
0001
0010
0100
0010
,
0001
0000
0100
0000
0001
0010
0100
0100
,
1000
0000
0010
0000
1000
0100
1000
0100
,
1000
0010
0100
0001
,
2000
0000
0100
0100
,
3020
0000
1000
1000
,
0230
0000
0001
0001
,
0320
0000
0100
0130
,
0002
0000
1000
0100
,
0023
0000
0100
0001
,
0230
0000
1000
0001
,
0320
0100
0100
0130
,
1000
0000
0001
0000
1000
0001
0100
0010
,
1000
0000
0001
0000
0010
0100
1000
0001
,
0100
0000
0010
0000
0100
0001
1000
0100
,
0010
1100
0010
0101
,
0010
0000
1000
0000
0100
0001
0100
0010
,
0001
0000
1000
0000
0010
0100
0001
1000
,
0100
0000
0010
0000
0100
1000
0001
0100
,
0010
0101
0010
1100
,
0001
0000
0000
0000
,
0000
0000
0000
0000
;

//---------------dance-single - ----------------
#NOTES:
     dance-single:
     :
     Hard:
     12:
     :
0000
0000
0000
0000
,
0000
0000
0000
0000
,
0000
0000
0000
0000
,
0000
0000
0000
0000
,
0000
0000
0000
0000
,
1000
0000
0001
0000
0000
0000
0100
0000
1000
0000
0000
0100
0010
0000
0001
0000
,
1000
0000
0100
0000
0000
0000
0001
0000
0010
0000
0000
0100
1000
0000
0001
0000
,
0100
0000
0010
0000
0000
0000
1000
0000
0100
0000
0000
0010
0001
0000
1000
0000
,
0010
0200
0000
0000
0001
0000
1300
0000
,
0001
0200
0000
0310
0001
0100
0010
1000
,
0100
0002
0000
1003
0010
0001
1000
0010
,
0100
2000
0000
3001
1000
0001
0010
1000
,
0001
0100
1000
0010
,
0001
0000
1000
0000
0000
0000
0100
0000
0001
0000
0000
0100
0010
0000
1000
0000
,
0001
0000
0100
0000
0000
0000
1000
0000
0010
0000
0000
0100
0001
0000
1000
0000
,
0100
0000
0010
0000
0000
0000
0001
0000
0100
0000
0000
0010
1000
0000
0001
0000
,
0010
0200
0000
0000
1000
0000
0301
0000
,
1000
0200
0000
0310
1000
0100
0010
0001
,
0100
2000
0000
3001
0010
1000
0001
0010
,
0110
0000
1000
0001
0000
0000
0000
0000
0110
0000
0001
1000
0000
0000
0000
0000
,
1100
0000
0000
0000
0000
0000
0000
0000
0000
0100
0000
0000
0010
0000
0000
0000
0000
0000
0000
0000
0000
0001
0000
0000
1000
0000
0000
0000
0010
0000
0000
0000
0100
0000
0000
0000
0001
0000
0000
0000
0000
0000
0000
0000
0000
0000
0000
0000
,
1000
0000
0000
1000
0010
0000
0000
0010
0100
0000
0000
0100
0001
0000
0000
0001
,
0010
0100
1000
0010
0100
0010
0100
0001
,
0010
0000
0000
0010
1000
0000
0000
1000
0010
0000
0000
0010
0100
0000
0000
0100
,
1000
0001
0100
0000
1000
0001
0100
0000
,
0001
0000
0000
0001
0010
0000
0000
0010
0100
0000
0000
0100
1000
0000
0000
1000
,
0010
0100
0001
0010
0100
0010
0100
1000
,
0010
0000
0000
0010
0001
0000
0000
0001
0010
0000
0000
0010
0100
0000
0000
0100
,
0001
1000
0100
0000
0001
1000
0100
0000
,
0010
0000
0000
0010
0001
0000
0000
0001
0010
0000
0000
0010
0001
0000
0000
0001
,
0100
0000
0000
0100
1000
0000
0000
1000
0100
0000
0000
0100
1000
0000
0100
0000
,
0001
0000
0000
0001
1000
0000
0000
1000
0001
0000
0000
0001
1000
0000
0000
1000
,
0100
0000
0000
0100
0010
0000
0000
0010
0001
0000
0000
0001
1000
0000
0100
0000
,
0010
0000
0000
0010
0001
0000
0000
0001
0010
0000
0000
0010
0001
0000
0000
0001
,
0100
0000
0000
0100
1000
0000
0000
1000
0100
0000
0000
0100
1000
0000
0100
0000
,
0001
0000
0000
0001
1000
0000
0000
1000
0001
0000
0000
0001
1000
0000
0000
1000
,
0100
0000
0000
0100
0010
0000
0000
0010
0001
0000
0000
0001
1000
0000
0100
0000
,
0020
0000
0000
0000
0100
0000
0000
0000
0000
0000
0000
0000
0100
0000
0030
1000
,
0002
0000
0000
0000
0100
0000
0000
0000
0000
0000
0000
0000
0100
0000
0003
0010
,
0200
0000
0000
0000
0001
0000
0000
0000
0000
0000
0000
0000
0001
0000
0300
0010
,
2000
0100
0000
3100
,
0020
0000
0000
0000
0100
0000
0000
0000
0001
0000
0000
0000
0100
0000
0030
0001
,
2000
0000
0000
0000
0100
0000
0000
0000
0001
0000
0000
0000
0100
0000
3000
0010
,
0200
0000
0000
0000
1000
0000
0000
0000
0001
0000
0000
0000
1000
0000
0300
0010
,
0002
0100
1000
0103
,
1000
0000
0000
1000
0001
0000
0000
0001
0100
0000
0000
0100
0010
0000
0000
0010
,
0001
0000
0000
0001
0010
0000
0000
0010
1000
0000
0000
1000
0001
0000
0000
0001
,
0010
0000
0000
0010
0100
0000
0000
0100
1000
0000
0000
1000
0010
0000
0000
0010
,
0001
0000
0000
0001
1000
0000
0000
1000
0100
0000
0000
0100
0001
0000
0000
0001
,
0010
0000
0000
0010
1000
0000
0000
1000
0001
0000
0000
0001
0100
0000
0000
0100
,
1000
0000
0000
1000
0010
0000
0000
0010
0001
0000
0000
0001
1000
0000
0000
1000
,
0010
0000
0000
0010
0100
0000
0000
0100
0001
0000
0000
0001
0010
0000
0000
0010
,
1000
0000
0000
1000
0001
0000
0000
0001
0100
0000
0000
0100
1000
0000
0000
1000
,
0010
0000
0000
0000
,
0000
0000
0000
0000
;

//---------------dance-single - ----------------
#NOTES:
     dance-single:
     :
     Challenge:
     14:
     :
0000
0000
0000
0000
,
0000
0000
0000
0000
,
0000
0000
0000
0000
,
0000
0000
0000
0000
,
0000
0000
0000
0000
,
0010
0000
0100
0000
0001
0010
0000
0000
0010
0000
0100
0000
1000
0010
0000
0000
,
0100
0000
0001
0000
0010
0100
0000
0000
0100
0000
1000
0000
0010
0100
0000
0000
,
0001
0000
0010
0000
0100
1000
0000
0000
1000
0000
0010
0000
0100
0001
0000
0000
,
1000
0000
0100
0000
1000
0100
0000
0100
0010
0000
0001
0000
0010
0001
0000
0000
,
0100
0000
0001
0000
0010
1000
0000
0000
0100
0000
1000
0000
0010
0001
0000
0000
,
0010
0000
1000
0000
0100
0001
0000
0000
0010
0000
0001
0000
0100
1000
0000
0000
,
0001
0000
0010
0000
1000
0100
0000
0000
0010
0000
0001
0000
0100
1000
0000
0000
,
0100
0000
0010
0000
0100
0010
0000
0100
0001
0000
1000
0000
0001
1000
0000
0000
,
0010
0000
0100
0000
0010
1000
0000
0100
1000
0000
0010
1000
0000
0100
1000
0000
,
0010
0000
0100
0000
0001
0010
0000
0001
0100
0000
0001
0010
0000
0001
0100
0000
,
0010
0000
1000
0000
0001
0010
0000
1000
0010
0000
0001
0010
0000
1000
0010
0000
,
0001
0000
1000
0000
0001
0100
0000
1000
0100
0000
0001
0100
0000
1000
0100
0000
,
0010
0000
0100
0000
0001
0010
0000
0100
0010
0000
1000
0010
0000
0100
0010
0000
,
0001
0000
1000
0000
0001
0100
0000
0010
0100
0000
1000
0100
0000
0010
0100
0000
,
0110
0000
0001
1000
0000
0000
1000
0000
0110
0000
1000
0001
0000
0000
0001
0000
,
0011
0000
0000
0000
0000
0000
0000
0000
0000
0010
0000
0000
0100
0000
0000
0000
0000
0000
0000
0000
0000
0100
0000
0000
1000
0000
0000
0000
0001
0000
0000
0000
0010
0000
0000
0000
1000
0000
0000
0000
0000
0000
0000
0000
0000
0000
0000
0000
,
0010
0000
0001
0100
1000
0000
1000
0100
0010
0000
1000
0010
0001
0000
0001
0010
,
0100
0000
0000
0100
0001
0000
0000
0001
0010
0000
0100
1000
0010
0000
1000
0000
,
1100
0000
0000
0110
0000
0000
0010
0001
0100
0000
0000
0110
0000
0000
0010
1000
,
0100
0000
0000
0100
0010
0000
0000
0010
0001
0000
0100
0000
1000
0000
0010
0000
,
0100
0000
1000
0010
0001
0000
0001
0010
0100
0000
0001
0100
1000
0000
1000
0100
,
0010
0000
0000
0010
1000
0000
0000
1000
0100
0000
0010
0001
0100
0000
0001
0000
,
0011
0000
0000
0110
0000
0000
0100
1000
0010
0000
0000
0110
0000
0000
0100
0001
,
0010
0000
0000
0010
0100
0000
0000
0100
1000
0000
0001
0000
1000
0000
0001
0000
,
1001
0000
0000
0200
1000
0000
0000
2300
0010
0000
0000
3020
0100
0000
0000
0230
,
0001
0000
0000
0302
0010
0000
0000
0013
0100
0000
1000
0001
0010
0000
0010
0000
,
1001
0000
0000
2000
0100
0000
0000
3200
0001
0000
0000
0302
0010
0000
0000
0023
,
0001
0000
0000
0032
0100
0000
0000
0103
1000
0000
0001
1000
0010
1000
0010
0000
,
0110
0000
0000
0200
0001
0000
0000
0320
1000
0000
0000
2030
0100
0000
0000
3002
,
0010
0000
0000
0203
0010
0000
0000
0301
1000
0000
0001
0100
0010
1000
0100
0000
,
0110
0000
0000
0002
0100
0000
0000
0023
1000
0000
0000
0032
0100
0000
0000
2003
,
0010
0000
0000
3200
0001
0000
0000
0310
0001
0000
1000
0010
0100
0001
0010
0000
,
0002
0000
0000
0000
0100
0000
0000
0010
0000
0000
0103
0000
0010
1000
0001
0000
,
0020
0000
0000
0000
1000
0000
0000
0001
0000
0000
1030
0000
0100
1000
0001
0000
,
0200
0000
0000
0000
1000
0000
0000
0001
0000
0000
1300
0000
0010
0100
0001
0000
,
2000
0000
0000
0000
0010
0000
0000
0001
0000
0000
3010
0000
0001
0010
0100
1000
,
0200
0000
0000
0000
0001
0000
0000
0010
0000
0000
1300
0000
0010
1000
0001
0100
,
0020
0000
0000
0000
0001
0000
0000
0100
0000
0000
1030
0000
0100
1000
0010
0100
,
0002
0000
0000
0000
0010
0000
0000
1000
0000
0000
0103
0000
0010
0100
0001
0010
,
0100
0000
0000
0000
0110
0000
0000
0000
1001
0000
0000
0010
0100
0000
0010
0000
,
0100
0000
0001
0010
0100
0000
0010
0000
0100
0000
1000
0010
0100
0000
0010
0000
,
1000
0000
0000
1000
0100
0000
0010
0000
0001
0000
0000
0001
0100
0000
0010
0000
,
1000
0000
0001
0100
0010
0000
1000
0000
0001
0000
1000
0100
0010
0000
0001
0010
,
0100
0000
0000
0100
1000
0000
0000
1000
0010
0000
0100
0001
0010
0000
0001
0000
,
0010
0000
1000
0100
0010
0000
0100
0000
0010
0000
0001
0100
0010
0000
0100
0000
,
0001
0000
0000
0001
0010
0000
0100
0000
1000
0000
0000
1000
0010
0000
0100
0000
,
0001
0000
1000
0010
0100
0000
0001
0000
1000
0000
0001
0010
0100
0000
1000
0100
,
0010
0000
0001
0000
0010
0001
1000
0000
0001
0100
0010
1000
0001
0010
0100
1000
,
0000
0000
0000
0000
;

//---------------dance-double - ----------------
#NOTES:
     dance-double:
     :
     Easy:
     5:
     :
00000000
00000000
00000000
00000000
,
00000000
00000000
00000000
00000000
,
00000000
00000000
00000000
00000000
,
00000000
00000000
00000000
00000000
,
00000000
00000000
00000000
00000000
,
00100000
01000000
00100000
00000000
,
00001000
00010000
00001000
00000000
,
00000100
00000010
00000100
00000000
,
00000001
00000100
00001000
00000000
,
00010000
01000000
00010000
00000000
,
00001000
00000100
00001000
00000000
,
00010000
00100000
10000000
01000000
,
00010000
00001000
00000100
00000000
,
00000010
00000100
00000010
00000000
,
00010000
00001000
00010000
00000000
,
01000000
00100000
01000000
00000000
,
10000000
01000000
00010000
00000000
,
00001000
00000100
00001000
00000000
,
00010000
01000000
00010000
00000000
,
00011000
00000000
00011000
00000000
,
00000110
00000110
00001001
00000000
,
00000001
00000001
00000100
00001000
,
00010000
00010000
01000000
00000000
,
00100000
00001000
01000000
00000000
,
00100000
10000000
00010000
00000000
,
10000000
10000000
01000000
00010000
,
00001000
00001000
00000100
00000000
,
00000010
00010000
00000100
00000000
,
00000010
00000001
00001000
00000000
,
00000010
00000000
00000100
00000000
,
00001000
00010000
00001000
00100000
,
01000000
00000000
01000000
00000000
,
00100000
00001000
00010000
00000010
,
00000010
00000000
00000100
00000000
,
00001000
00010000
00001000
00100000
,
01000000
00000000
01000000
00000000
,
00100000
00001000
00010000
00000010
,
00000200
00000000
00000010
00000000
,
00000320
00000000
00001000
00000000
,
00002030
00000000
00000100
00000000
,
00003100
00010000
01000000
00000000
,
02000000
00000000
00100000
00000000
,
03200000
00000000
00010000
00000000
,
00320000
00000000
01000000
00000000
,
01030000
00001000
00000100
00000000
,
00000001
00000010
00000001
00000010
,
00000100
00001000
00000100
00000000
,
00010000
00001000
00010000
00001000
,
00100000
01000000
10000000
00000000
,
10000000
00100000
10000000
00100000
,
01000000
00010000
01000000
00000000
,
00001000
00010000
00001000
00010000
,
00000010
00000100
00000001
00000000
,
00000100
00000000
00000000
00000000
,
00000000
00000000
00000000
00000000
;

//---------------dance-double - ----------------
#NOTES:
     dance-double:
     :
     Medium:
     8:
     :
00000000
00000000
00000000
00000000
,
00000000
00000000
00000000
00000000
,
00000000
00000000
00000000
00000000
,
00000000
00000000
00000000
00000000
,
00000000
00000000
00000000
00000000
,
00000001
00000000
00001000
00000000
00000010
00000100
00001000
00000000
,
00010000
00000000
00001000
00000000
00100000
01000000
10000000
00000000
,
00100000
00000000
01000000
00000000
00010000
00100000
10000000
00000000
,
00100000
00001000
00100000
01000000
,
10000000
00100000
00000000
10000000
01000000
00100000
00010000
00000000
,
00100000
00001000
00000000
00100000
00001000
00010000
00000010
00000000
,
00000100
00000001
00000000
00000100
00000010
00001000
00000100
00000000
,
00010000
00001000
00100000
00000000
,
10000000
00000000
00010000
00000000
00100000
01000000
00010000
00000000
,
00001000
00000000
00010000
00000000
00000010
00000100
00000001
00000000
,
00000010
00000000
00000100
00000000
00001000
00000010
00000001
00000000
,
00000010
00010000
00000010
00000100
,
00000001
00000010
00000000
00000001
00000100
00000010
00001000
00000000
,
00000010
00010000
00000000
00000010
00010000
00001000
00100000
00000000
,
01100000
10000000
01100000
00010000
,
00011000
00000000
00000000
00011000
00000000
00000000
00001000
00010000
00001000
00010000
00000000
00000000
,
00000100
00000000
00000010
00000000
00000001
00000010
00000100
00000010
,
00000100
00001100
00010000
00011000
,
01000000
00000000
00100000
00000000
10000000
01000000
10000000
00100000
,
01000000
01010000
00100000
00101000
,
01000000
00000000
00100000
00000000
10000000
00100000
01000000
00100000
,
01000000
01010000
00001000
00011000
,
00000100
00000000
00000010
00000000
00000001
00000100
00000001
00000010
,
00000100
00001100
00000010
00010010
,
00001000
00000000
00010000
00000000
00001000
00100000
00001000
00010000
,
01000000
00000000
00100000
00000000
00001000
00010000
00001000
00010000
,
00000100
00000000
00000010
00000000
00000100
00001000
00000100
00010000
,
00001000
00100000
00010000
01000000
,
00001000
00000000
00010000
00000000
00001000
00100000
00001000
00010000
,
01000000
00000000
00100000
00000000
00001000
00010000
00001000
00010000
,
00000100
00000000
00000010
00000000
00000100
00001000
00000100
00010000
,
00001000
00100000
00010000
01000000
,
00002000
00000000
00100000
00010000
,
00203000
00000000
00001000
00010000
,
00302000
00000000
00100000
01000000
,
00023000
00001000
00031000
00000000
,
00020000
00000000
00000010
00001000
,
00030020
00000000
00010000
00001000
,
00020030
00000000
00000010
00000100
,
00032000
00010000
00013000
00000000
,
00001000
01000000
00100000
00010000
,
00001000
00000000
00000100
00000000
00000001
00000100
00000001
00000100
,
00000010
00001000
00000100
00010000
,
01000000
00100000
00010000
00000000
00100000
00000000
01100000
00000000
,
00010000
00000100
00000010
00001000
,
00010000
00000000
01000000
00000000
10000000
01000000
10000000
01000000
,
00100000
00010000
01000000
00001000
,
00000100
00000010
00001000
00000000
00000010
00000000
00000110
00000000
,
00001000
00000000
00000000
00000000
,
00000000
00000000
00000000
00000000
;

//---------------dance-double - ----------------
#NOTES:
     dance-double:
     :
     Hard:
     11:
     :
00000000
00000000
00000000
00000000
,
00000000
00000000
00000000
00000000
,
00000000
00000000
00000000
00000000
,
00000000
00000000
00000000
00000000
,
00000000
00000000
00000000
00000000
,
01000000
00100000
00000000
10000000
00100000
00010000
00100000
01000000
,
00010000
00100000
00000000
00001000
00010000
00000100
00000001
00000100
,
00001000
00000010
00000000
00010000
00001000
00000100
00000010
00001000
,
00000001
00000100
00001000
00000100
,
00000001
00000000
00000020
00000000
00000000
00000000
00000130
00000000
00001000
00000000
00000100
00000000
00010000
00001000
00000000
00000000
,
01000000
00000000
00200000
00000000
00000000
00000000
10300000
00000000
01000000
00000000
00010000
00000000
00001000
00010000
00000000
00000000
,
01000000
00000000
20000000
00000000
00000000
00000000
30100000
00000000
01000000
00000000
00010000
00000000
00100000
01000000
00000000
00000000
,
00100000
00010000
00001000
00000010
,
00000100
00000010
00000000
00000001
00000010
00001000
00000010
00000100
,
00001000
00000010
00000000
00010000
00001000
01000000
10000000
01000000
,
00010000
00100000
00000000
00001000
00010000
01000000
00100000
00010000
,
10000000
01000000
00010000
01000000
,
10000000
00000000
00200000
00000000
00000000
00000000
01300000
00000000
00010000
00000000
01000000
00000000
00001000
00010000
00000000
00000000
,
00000100
00000000
00000020
00000000
00000000
00000000
00000031
00000000
00000100
00000000
00001000
00000000
00010000
00001000
00000000
00000000
,
00101000
00010000
00010010
00001000
,
00011000
00000000
00000000
01100000
00000000
00000000
10000000
00100000
01000000
00010000
00000000
00000000
,
10000000
00000000
00000000
10000000
00100000
00000000
00000000
00100000
01000000
00000000
00000000
01000000
00010000
00000000
00000000
00010000
,
00100000
00000000
00000000
00100000
00001000
00000000
00000000
00001000
00010000
00000000
00000000
00010000
00000100
00000000
00000000
00000100
,
00001000
00000000
00000000
00001000
00000010
00000000
00000000
00000010
00000001
00000000
00000000
00000001
00001000
00000000
00000000
00001000
,
00000100
00000000
00000000
00000100
00000001
00000000
00000000
00000001
00000010
00000000
00000000
00000000
00000110
00000000
00000000
00000000
,
00000001
00000000
00000000
00000001
00000010
00000000
00000000
00000010
00000100
00000000
00000000
00000100
00001000
00000000
00000000
00001000
,
00000010
00000000
00000000
00000010
00010000
00000000
00000000
00010000
00001000
00000000
00000000
00001000
01000000
00000000
00000000
01000000
,
00010000
00000000
00000000
00010000
00100000
00000000
00000000
00100000
10000000
00000000
00000000
10000000
00010000
00000000
00000000
00010000
,
01000000
00000000
00000000
01000000
10000000
00000000
00000000
10000000
00100000
00000000
00000000
00000000
01100000
00000000
00000000
00000000
,
10000000
00000000
01000000
00000000
00100000
00001000
00100000
00010000
,
01000000
00000000
00000000
01000000
00001000
00000000
00000000
00001000
00010000
00000000
00000000
00010000
00000010
00000000
00000000
00000010
,
00000100
00000000
00000001
00000000
00000100
00001000
00010000
00001000
,
00000100
00000000
00000000
00000100
00010000
00000000
00000000
00010000
00100000
00000000
00000000
00100000
01000000
00000000
00000000
01000000
,
10000000
00000000
00100000
00000000
01000000
00001000
01000000
00010000
,
00100000
00000000
00000000
00100000
00001000
00000000
00000000
00001000
00010000
00000000
00000000
00010000
00000100
00000000
00000000
00000100
,
00000010
00000000
00000001
00000000
00000010
00001000
00010000
00001000
,
00000010
00000000
00000000
00000010
00010000
00000000
00000000
00010000
01000000
00000000
00000000
01000000
00100000
00000000
00000000
00100000
,
20000000
00000000
01000000
00010000
,
30200000
00000000
01000000
10000000
,
00320000
00000000
00100000
00000010
,
00032000
00000000
00000100
00003100
,
00000002
00000000
00000100
00001000
,
00000023
00000000
00000100
00000001
,
00002030
00000000
00000010
00100000
,
00023000
00000000
00001000
01030000
,
10000000
00000000
00000000
10000000
00010000
00000000
00000000
00010000
01000000
00000000
00000000
01000000
00001000
00000000
00000000
00001000
,
00100000
00000000
00000000
00100000
00010000
00000000
00000000
00010000
00001000
00000000
00000000
00001000
00000100
00000000
00000000
00000100
,
00000010
00000000
00000000
00000010
00000001
00000000
00000000
00000001
00001000
00000000
00000000
00001000
00010000
00000000
00000000
00010000
,
00100000
00000000
00000000
00100000
00010000
00000000
00000000
00010000
00001000
00000000
00000000
00000000
00000110
00000000
00000000
00000000
,
00000001
00000000
00000000
00000001
00001000
00000000
00000000
00001000
00000100
00000000
00000000
00000100
00010000
00000000
00000000
00010000
,
00000010
00000000
00000000
00000010
00001000
00000000
00000000
00001000
00010000
00000000
00000000
00010000
01000000
00000000
00000000
01000000
,
00100000
00000000
00000000
00100000
10000000
00000000
00000000
10000000
00010000
00000000
00000000
00010000
00001000
00000000
00000000
00001000
,
00000010
00000000
00000000
00000010
00001000
00000000
00000000
00001000
00010000
00000000
00000000
00000000
01100000
00000000
00000000
00000000
,
10000000
00000000
00000000
00000000
,
00000000
00000000
00000000
00000000
;

//---------------dance-double - ----------------
#NOTES:
     dance-double:
     :
     Challenge:
     14:
     :
00000000
00000000
00000000
00000000
,
00000000
00000000
00000000
00000000
,
00000000
00000000
00000000
00000000
,
00000000
00000000
00000000
00000000
,
00000000
00000000
00000000
00000000
,
00010000
00000000
00001000
00000000
00000100
00000001
00000000
00000000
00000100
00000000
00001000
00000000
00010000
01000000
00000000
00000000
,
10000000
00000000
00100000
00000000
00010000
00001000
00000000
00000000
00000010
00000000
00001000
00000000
00010000
00100000
00000000
00000000
,
00010000
00000000
00001000
00000000
00000100
00000001
00000000
00000000
00000010
00000000
00001000
00000000
00010000
01000000
00000000
00000000
,
00100000
00000000
00010000
00000000
00001000
00000100
00000000
00000010
00001000
00000000
00010000
00000000
01000000
10000000
00000000
00000000
,
00100000
00000000
10000000
00000000
01000000
00010000
00000000
00000000
00001000
00000000
00000100
00000000
00000001
00000010
00000000
00000000
,
00001000
00000000
00000010
00000000
00000001
00000100
00000000
00000000
00000010
00000000
00001000
00000000
00010000
00100000
00000000
00000000
,
01000000
00000000
10000000
00000000
00100000
00010000
00000000
00000000
01000000
00000000
00010000
00000000
00001000
00000010
00000000
00000000
,
00000001
00000000
00000100
00000000
00001000
00010000
00000000
00100000
10000000
00000000
01000000
00000000
00010000
00001000
00000000
00000000
,
00000100
00000000
00000001
00000000
00000010
00000001
00000000
00000100
00000010
00000000
00001000
00000100
00000000
00010000
00001000
00000000
,
01000000
00000000
00010000
00000000
10000000
00100000
00000000
01000000
00010000
00000000
00100000
00001000
00000000
00010000
00000100
00000000
,
00001000
00000000
00000010
00000000
00000001
00000010
00000000
00000100
00001000
00000000
00010000
00001000
00000000
00100000
00010000
00000000
,
00100000
00000000
00010000
00000000
00100000
01000000
00000000
10000000
00010000
00000000
00100000
00001000
00000000
00010000
00000010
00000000
,
00000100
00000000
00000010
00000000
00001000
00000100
00000000
00010000
00000010
00000000
00001000
00000001
00000000
00000010
00000100
00000000
,
00010000
00000000
00001000
00000000
00100000
00010000
00000000
01000000
00001000
00000000
00100000
01000000
00000000
10000000
00010000
00000000
,
10010000
00000000
10000000
01000000
00000000
00000000
00010000
00000000
00011000
00000000
00001000
00000100
00000000
00000000
00000001
00000000
,
00001001
00000000
00000000
00000000
00000000
00000000
00000000
00000000
00000000
00000100
00000000
00000000
00000010
00000000
00000000
00000000
00000000
00000000
00000000
00000000
00000000
00000100
00000000
00000000
00001000
00000000
00000000
00000000
00010000
00000000
00000000
00000000
00100000
00000000
00000000
00000000
10000000
00000000
00000000
00000000
00000000
00000000
00000000
00000000
00000000
00000000
00000000
00000000
,
01000000
00000000
10000000
00100000
00010000
00000000
00001000
00000000
00010000
00000000
00100000
10000000
01000000
00000000
01000000
00100000
,
00010000
00000000
00000000
00010000
00001000
00000000
00000000
00001000
00000100
00000000
00000010
00000001
00000100
00000000
00000001
00000000
,
00000011
00000000
00000000
00000110
00000000
00000000
00001000
00000100
00010000
00000000
00000000
00011000
00000000
00000000
00100000
01000000
,
00010000
00000000
00000000
00010000
00001000
00000000
00000000
00001000
00000100
00000000
00000001
00000000
00001000
00000000
00000100
00000000
,
00000010
00000000
00000001
00000100
00001000
00000000
00010000
00000000
00001000
00000000
00000100
00000001
00000010
00000000
00000010
00000100
,
00001000
00000000
00000000
00001000
00010000
00000000
00000000
00010000
00100000
00000000
01000000
10000000
00100000
00000000
10000000
00000000
,
11000000
00000000
00000000
01100000
00000000
00000000
00010000
00100000
00001000
00000000
00000000
00011000
00000000
00000000
00000100
00000010
,
00001000
00000000
00000000
00001000
00010000
00000000
00000000
00010000
00100000
00000000
10000000
00000000
00010000
00000000
00100000
00000000
,
10010000
00000000
00000000
02000000
10000000
00000000
00000000
23000000
00010000
00000000
00000000
30020000
01000000
00000000
00000000
02030000
,
00001000
00000000
00000000
03002000
00100000
00000000
00000000
00103000
00010000
00000000
01000000
00001000
00010000
00000000
00001000
00000000
,
00011000
00000000
00000000
00002000
00000100
00000000
00000000
00003200
00000010
00000000
00000000
00000320
00010000
00000000
00000000
00020030
,
00000100
00000000
00000000
00030200
00000010
00000000
00000000
00000310
00000001
00000000
00001000
00000001
00000100
00000000
00000001
00000000
,
00001001
00000000
00000000
00000020
00000001
00000000
00000000
00000230
00001000
00000000
00000000
00020300
00000010
00000000
00000000
00032000
,
00000010
00000000
00000000
00023000
00000100
00000000
00000000
00031000
00100000
00000000
00010000
01000000
00100000
10000000
01000000
00000000
,
01100000
00000000
00000000
02000000
00010000
00000000
00000000
23000000
00010000
00000000
00000000
30200000
01000000
00000000
00000000
00320000
,
00001000
00000000
00000000
00030020
00000100
00000000
00000000
00001030
00000100
00000000
00000010
00000001
00000100
00000010
00001000
00000000
,
00000002
00000000
00000000
00000000
00000010
00000000
00000000
00000100
00000000
00000000
00000013
00000000
00000100
00001000
00000010
00000000
,
00002000
00000000
00000000
00000000
00000100
00000000
00000000
00000001
00000000
00000000
00003010
00000000
00000100
00000010
00001000
00000000
,
00000200
00000000
00000000
00000000
00000010
00000000
00000000
00001000
00000000
00000000
00010300
00000000
00001000
00010000
00001000
00000000
,
00020000
00000000
00000000
00000000
00000010
00000000
00000000
00001000
00000000
00000000
01030000
00000000
10000000
01000000
00100000
00010000
,
20000000
00000000
00000000
00000000
00100000
00000000
00000000
01000000
00000000
00000000
30100000
00000000
01000000
00010000
00100000
00000000
,
00020000
00000000
00000000
00000000
01000000
00000000
00000000
10000000
00000000
00000000
00130000
00000000
01000000
00010000
00001000
00000000
,
00020000
00000000
00000000
00000000
00100000
00000000
00000000
00001000
00000000
00000000
00030100
00000000
00000010
00000100
00001000
00000000
,
00000001
00000000
00000000
00000000
00000110
00000000
00000000
00000000
00001001
00000000
00000000
00000001
00000100
00000000
00001000
00000000
,
00010000
00000000
00001000
00000100
00000010
00000000
00000100
00000000
00001000
00000000
00010000
00001000
01000000
00000000
00100000
00000000
,
10000000
00000000
00000000
01000000
00010000
00000000
00100000
00000000
10000000
00000000
00000000
10000000
01000000
00000000
00010000
00000000
,
00001000
00000000
00010000
00000000
00000010
00000100
00000000
00000001
00000010
00000000
00000100
00000000
00001000
00000010
00000100
00000000
,
00001000
00000000
00000000
00010000
00100000
00000000
00000000
10000000
01000000
00000000
00100000
00000000
01000000
00000000
00010000
00000000
,
00001000
00000000
00010000
00100000
01000000
00000000
00100000
00000000
00010000
00000000
00001000
00010000
00000010
00000000
00000100
00000000
,
00000001
00000000
00000000
00000010
00001000
00000000
00000100
00000000
00000001
00000000
00000000
00000001
00000010
00000000
00001000
00000000
,
00010000
00000000
00001000
00000000
01000000
00100000
00000000
10000000
01000000
00000000
00100000
00000000
00010000
01000000
00100000
00000000
,
00010000
00000000
00001000
00010000
00000000
00000100
00001000
00000100
00000010
00000001
00000100
00000010
00001000
00000100
00010000
00001000
,
00000000
00000000
00000000
00000000
;
