#TITLE:Desert Journey;
#ARTIST:dj TAKA;
#BANNER:Desert Journey.png;
#BACKGROUND:Desert Journey-bg.png;
#CDTITLE:./CDTITLES/DanceDanceRevolution HOTTEST PARTY 2.png;
#MUSIC:Desert Journey.ogg;
#SAMPLESTART:15.43;
#SAMPLELENGTH:15;
#BPMS:0=140;
#STAGE:2;

//---------------dance-single - ----------------
#NOTES:
     dance-single:
     :
     Beginner:
     3:
     :
0000
0000
0000
0000
,
0000
0000
0000
0000
,
0000
0000
0000
0000
,
0000
0000
0000
0000
,
0000
0000
0000
0000
,
1000
1000
1000
0000
,
0001
0001
0001
0000
,
1000
1000
1000
0000
,
0000
0000
0000
0000
,
0001
0000
0100
0000
,
0001
0000
0000
0000
,
1000
0000
0010
0000
,
1000
0000
0000
0000
,
0001
0000
1000
0000
,
1000
0000
0001
0000
,
1000
0000
0000
0000
,
0010
0010
0010
0000
,
1000
0000
0010
0000
,
0001
0000
0000
0000
,
1000
0000
0100
0000
,
1000
0000
0000
0000
,
0001
0000
1000
0000
,
1000
0000
0001
0000
,
0001
0000
0000
0000
,
0100
0100
0100
0000
,
1000
0000
0000
0000
,
0100
0000
0000
0000
,
0010
0000
0000
0000
,
0001
0000
0000
0000
,
1001
0000
0000
0000
,
0001
0000
0000
0000
,
1000
0000
0000
0000
,
0001
0000
1000
0000
,
1001
0000
0000
0000
,
0010
0000
0000
0000
,
0100
0000
0000
0000
,
1000
0000
0000
0000
,
1001
0000
0000
0000
,
0110
0000
0000
0000
,
1001
0000
0110
0000
,
1001
0000
0000
0000
,
0000
0000
0000
0000
,
0000
0000
1000
1000
,
0000
0000
0100
0100
,
0000
0000
0001
0001
,
0000
0000
0010
0010
,
0000
0000
0000
1001
,
0000
0000
0000
0110
,
0000
0000
0000
1001
,
0000
0000
0000
0000
,
1000
0000
0100
0000
,
1000
0000
0010
0000
,
1000
0000
1000
0000
,
0001
0000
0001
0000
,
0100
0000
0001
0000
,
1000
0000
0010
0000
,
1001
0000
0000
0000
,
0110
0000
0000
0000
,
1001
0000
0000
0000
,
0110
0000
0000
0000
,
1001
0000
0000
0000
,
0000
0000
0000
0000
;

//---------------dance-single - ----------------
#NOTES:
     dance-single:
     :
     Easy:
     5:
     :
0000
0000
0000
0000
,
0000
0000
0000
0000
,
0000
0000
0000
0000
,
0000
0000
0000
0000
,
0000
0000
0000
0000
,
1000
1000
1000
1000
,
0001
0001
0001
0001
,
1000
1000
1000
1000
,
0001
0000
0000
0000
,
0001
0000
0100
0000
,
0001
0100
0001
0001
,
1000
0000
0010
0000
,
1000
0100
1000
1000
,
0001
0000
0001
0000
,
0001
0000
0001
0000
,
1000
0000
1000
0000
,
0010
0010
0100
0000
,
1000
0000
0010
0000
,
1000
0100
1000
1000
,
0001
0000
0100
0000
,
0001
0010
0001
0001
,
1000
0000
1000
0000
,
1000
0100
1000
0000
,
0001
0000
0001
0000
,
0100
0100
0010
0000
,
1000
0000
0010
0100
,
1000
0000
0010
0001
,
0010
0000
0001
1000
,
1000
0000
0100
0001
,
1001
0000
0010
1000
,
0001
0000
0001
1000
,
0100
0000
0100
0010
,
0010
0000
0100
1000
,
1001
0000
0100
0000
,
1000
0000
0100
0000
,
0100
0000
0000
0000
,
1000
0000
0010
0000
,
1001
0000
0010
0000
,
0001
0000
0010
0000
,
0010
0000
0110
0000
,
1001
0000
0001
1000
,
0000
0000
0000
0000
,
0001
0000
0100
0100
,
0000
0000
0100
0100
,
1000
0000
0100
0100
,
0000
0000
0100
0100
,
1000
0000
0000
1001
,
0000
0000
0000
1001
,
0001
0000
0000
1001
,
1000
0100
0010
0001
,
1000
0010
0100
0000
,
1000
0001
0010
0000
,
1000
0010
1000
0000
,
0100
0001
0100
0000
,
0001
0100
0001
0000
,
1000
0100
1000
0000
,
0110
0000
0100
0010
,
0110
0000
0010
0100
,
0110
0000
1001
0000
,
0220
0000
0000
0330
,
1001
0000
0000
0000
,
0000
0000
0000
0000
;

//---------------dance-single - ----------------
#NOTES:
     dance-single:
     :
     Medium:
     8:
     :
0000
0000
0000
0000
,
0000
0000
0000
0000
,
0000
0000
0000
0000
,
0000
0000
0000
0000
,
0000
0000
0000
0000
,
0100
0100
0100
0100
,
0010
0010
0010
0010
,
0100
0100
0100
0100
,
0100
0000
0000
0000
,
0001
0000
0100
0000
0001
0010
0100
0000
,
1000
0000
0010
0000
1000
0010
1000
0010
,
1000
0000
0100
0000
1000
0010
0100
0000
,
0001
0000
0100
0000
0001
0010
0001
0010
,
0001
0010
0100
1000
,
0001
0110
0010
1100
,
0001
1000
0010
0100
,
0001
0100
0001
0000
1000
0010
1000
0100
,
0001
0000
0010
0000
0001
0100
0010
0000
,
1000
0000
0100
0000
1000
0100
1000
0100
,
1000
0000
0010
0000
1000
0100
0010
0000
,
0001
0000
0010
0000
0001
0100
0001
0100
,
0001
0100
0010
1000
,
0001
0110
0100
1010
,
0001
1000
0100
0010
,
0001
0010
0001
0000
1000
0100
1000
0010
,
1000
0000
0001
0010
,
0101
1000
1010
0001
,
0010
0000
1000
0010
,
0100
0110
0010
1001
,
1000
0000
0001
0100
,
1010
1000
0101
0001
,
0100
0000
1000
0100
,
0010
0110
0100
1001
,
0011
0000
0000
0000
0001
0000
0100
1000
,
0100
0000
0000
0000
0011
0000
0100
1000
,
0100
0000
0001
1000
,
0010
0000
1000
0001
,
1010
0000
0000
0000
0100
0000
1000
0010
,
1010
0000
0000
0000
0100
0000
1000
0010
,
1010
0000
0110
0000
,
1001
0000
0000
0000
1000
0010
0100
0001
,
0010
0000
0000
0000
,
0020
0000
1030
1100
,
0020
0000
0130
0110
,
0200
0000
0301
0011
,
0200
0000
0310
0110
,
0002
0000
0000
0000
0000
0000
0000
0100
0000
0000
0103
0000
0010
0000
0000
0000
,
0002
0000
0000
0000
0000
0000
0000
0010
0000
0000
0013
0000
0100
0000
0000
0000
,
2000
0000
0000
0000
0000
0000
0000
0010
0000
0000
3010
0000
0100
0000
0000
0000
,
1000
0100
1000
0010
0100
0001
0100
0001
,
0010
0100
1000
0001
,
1000
0000
0010
0000
1000
0010
1000
0100
,
0010
0100
0001
1000
,
0001
0000
0100
0000
0001
0010
0100
0000
,
0001
0000
0100
0000
0001
0010
0001
0100
,
0001
0100
1000
0000
,
1001
0010
0010
0000
,
1001
0010
0010
0000
,
1100
0110
0011
0100
,
0020
0000
0000
0030
,
0110
0000
0000
0000
,
0000
0000
0000
0000
;

//---------------dance-single - ----------------
#NOTES:
     dance-single:
     :
     Hard:
     12:
     :
0000
0000
0000
0000
,
0000
0000
0000
0000
,
0000
0000
0000
0000
,
0000
0000
0000
0000
,
0000
0000
0000
0000
,
1000
1000
1000
1000
,
0001
0000
0001
0000
0001
0000
0001
0001
,
0010
0000
0010
0000
0010
0000
0010
0010
,
0100
0000
0000
0000
,
1000
0000
0000
0000
1000
0100
0000
0000
1000
0100
1000
0000
0010
0000
0100
0000
,
0001
0100
0000
0000
0001
0100
0000
0000
0001
0000
0010
0000
0110
0000
1010
0000
,
0001
0100
0000
0000
0010
0100
0000
0000
0010
1000
0010
0000
0001
0000
0100
0000
,
0001
0010
0000
0000
0001
0010
0000
0000
0001
0000
0010
0000
0101
0000
1010
0000
,
0001
0000
0100
0000
1000
0100
1000
0010
,
0002
0010
0103
0000
1000
0010
1000
0100
,
0002
0100
1003
0000
1000
0001
1000
0100
,
1000
0000
0010
0000
1000
0000
0000
0000
0001
0010
0000
0000
0100
0000
1000
0000
,
1001
0000
0000
0000
1000
0010
0000
0000
1000
0010
1000
0000
0100
0000
0010
0000
,
1000
0100
0000
0000
1000
0100
0000
0000
0001
0000
0100
0000
0011
0000
1010
0000
,
1000
0010
0000
0000
0100
0010
0000
0000
0100
0001
0100
0000
1000
0000
0010
0000
,
1000
0010
0000
0000
1000
0010
0000
0000
1000
0000
0010
0000
1100
0000
0011
0000
,
1001
0000
0010
0000
0001
0100
0001
0010
,
2000
0010
3100
0000
0001
0010
0001
0100
,
2000
0100
3001
0000
0001
1000
0001
0100
,
0001
0001
0100
0000
1000
1000
0100
0100
,
1000
0000
0100
0000
1000
0100
0001
0100
,
0010
0000
0010
0001
0100
0010
0001
0010
,
0100
0000
0001
0000
0010
0100
0001
1000
,
2000
0000
3001
0010
0100
0000
1000
1000
,
0001
0000
0010
0000
0001
0010
1000
0010
,
0100
0000
0100
1000
0010
0100
1000
0100
,
0010
0000
1000
0000
0100
0010
1000
0001
,
0001
0010
1000
0100
0010
0100
0010
0001
,
0011
0000
0000
0010
0001
0010
1000
0010
,
0100
1000
0100
0010
0001
0010
0001
0010
,
2000
0000
0200
0000
3000
1300
0100
0010
,
0001
0010
0100
0010
0001
0010
1000
0010
,
0200
0000
0002
0000
0300
1000
0013
0100
,
1000
0100
0001
0010
1000
0010
0100
0010
,
2000
0000
0020
0000
3000
0001
1030
0010
,
1000
0001
0100
0010
1000
0010
0100
0010
,
0100
0000
0000
0000
,
2000
0000
0000
0000
0010
0000
0000
0100
0000
0000
3001
0000
0001
0000
1000
0000
,
0100
0000
0100
0000
0001
0000
0000
0010
0000
0000
0100
0000
0110
0000
0000
0000
,
1000
0000
0100
0000
1100
0000
0000
0010
0000
0000
1000
0000
0001
0000
1000
0000
,
0001
1000
0010
0000
0100
0000
1000
0000
,
0002
0000
0010
0000
0010
0000
0000
0100
0000
0000
1003
0000
0001
0000
1000
0000
,
0100
0000
0010
0000
1000
0000
0000
0100
0000
0000
0010
0000
0110
0000
0000
0000
,
0001
0000
0100
0000
0101
0000
0000
0010
0000
0000
1000
0000
0001
0000
1000
0000
,
0001
0010
0100
0010
1000
0100
0010
0001
,
1000
0100
1000
0000
0010
0000
0100
0000
0001
0000
0010
0000
0100
0000
0010
0000
,
0001
0100
0001
0010
0001
1000
0100
0010
,
1000
0100
0001
0010
0001
0100
1000
0010
,
0100
0010
0100
0000
0010
0000
0001
0000
0010
0000
0100
0000
1000
0000
0000
0000
,
0010
1000
0010
0000
1000
0000
0010
0000
0100
0000
0001
0000
0010
0000
0100
0000
,
1000
0001
0200
0020
0000
0000
0330
0000
,
1000
0100
0002
0020
0000
0000
0033
0000
,
0001
0100
2000
0020
0000
0000
3030
0000
,
1000
0100
1000
0000
0001
0010
0001
0000
1000
0000
0001
0000
0010
0000
0001
0000
,
0200
0000
0000
0300
,
1001
0000
0000
0000
,
0000
0000
0000
0000
;

//---------------dance-single - ----------------
#NOTES:
     dance-single:
     :
     Challenge:
     15:
     :
0000
0000
0000
0000
,
0000
0000
0000
0000
,
0000
0000
0000
0000
,
0000
0000
0000
0000
,
0000
0000
0000
0000
,
1000
0010
1000
0010
0001
0010
1000
0010
,
0001
0100
0001
0100
1000
0100
0001
0100
,
0010
1000
0100
1000
0010
0001
0100
0001
,
MMMM
0000
0000
0000
,
1000
0001
0010
0001
0000
1000
0100
0000
0010
0100
1000
0100
0010
0000
MMMM
0000
,
0100
0001
0010
0001
0000
0100
0001
0000
0010
0100
1000
0100
0010
0001
0100
0000
,
0001
1000
0100
1000
0000
0001
0010
0000
0001
0010
0100
0010
0001
0000
MMMM
0000
,
0010
0100
1000
0100
0000
0010
1000
0000
0100
0010
0001
0010
0100
1000
0010
0000
,
0100
0001
0100
0000
MMMM
0000
0000
0000
0001
0010
0001
0010
0100
0000
0010
0000
,
0001
0100
0001
0000
MMMM
0000
0000
0000
1000
0010
1000
0010
0100
0000
0010
0000
,
2000
0010
3010
MMMM
0002
0010
0013
MMMM
,
0100
0001
0100
0000
0010
0000
1000
0000
0100
0001
0100
1000
0100
0000
0010
0000
,
0001
0010
0100
1000
0000
0001
0010
0000
0100
0010
1000
0010
0100
0000
MMMM
0000
,
0010
0001
1000
0100
0000
0010
0001
0000
0100
0010
1000
0010
0100
0001
0010
0000
,
0001
0100
0010
1000
0000
0010
0100
0000
0001
0100
0010
0100
0001
0000
MMMM
0000
,
0010
1000
0001
0100
0000
0010
0100
0000
0010
1000
0001
1000
0010
0100
0001
0000
,
0010
0100
0010
0000
MMMM
0000
0000
0000
1000
0100
0010
0100
0010
0000
0001
0000
,
1000
0001
1000
0000
MMMM
0000
0000
0000
0001
0100
0010
0100
0010
0000
1000
0000
,
0002
1000
1003
MMMM
0020
0100
0130
MMMM
,
0010
0001
0010
0001
0100
0000
0001
0000
0010
0001
0010
0100
1000
0000
0100
0000
,
0110
0000
0000
0000
MMMM
0000
0000
0000
0010
0001
0010
0000
1000
0000
0100
0000
,
0001
0000
0100
0000
1000
0000
0010
0000
0100
0001
0010
0000
0100
0000
1000
0000
,
1100
0000
0000
0000
MMMM
0000
0000
0000
0010
1000
0010
0000
0001
0000
0100
0000
,
1000
0000
0100
0000
0001
0000
0010
0000
0001
0100
0010
0000
1000
0000
0001
0000
,
0101
0000
0000
0000
MMMM
0000
0000
0000
0100
1000
0100
0000
0001
0000
0010
0000
,
1000
0100
MMMM
0100
1000
0010
0001
0100
,
0010
0000
MMMM
0010
0100
0001
1000
0100
,
MMMM
0000
1000
0000
0100
0000
0010
0000
0001
0100
0010
0000
0100
0000
0001
0000
,
1001
0000
0000
0000
MMMM
0000
0100
0000
0010
1000
0100
0000
0001
0000
0010
0000
,
1000
0000
0000
0000
MMMM
0000
0100
0000
0010
0001
0100
0000
1000
0000
0010
0000
,
0001
0000
0101
0000
MMMM
1000
0100
0010
,
0001
0000
0100
0000
0001
0000
0010
0000
0001
0100
0010
0000
1000
0000
0100
0000
,
2100
0000
3010
0000
MMMM
0001
0100
1000
,
1001
0000
0000
0000
MMMM
0000
0100
0000
0001
0010
0100
0000
1000
0000
0010
0000
,
0102
0000
0013
0000
MMMM
1000
0100
0001
,
1001
0000
0100
0000
MMMM
0000
0100
0000
0001
0010
0100
0010
0100
1000
0001
0000
,
MMMM
0000
0000
0000
,
0102
0000
0000
0000
0013
0000
0000
1100
0000
0000
1010
0000
0100
0000
0001
0010
,
1000
0000
0001
0010
1000
0000
0010
0000
0010
0000
0100
0000
0110
0000
0000
0000
,
0002
0000
0100
0000
0103
0000
0000
1010
0000
0000
0101
0000
1000
0000
0100
0000
,
0010
0000
0100
0010
0100
1000
0000
1000
0001
0010
0000
0001
0100
0010
0000
0100
,
0001
0000
0100
0000
0010
1000
0100
0010
0001
0000
0010
0000
0001
0000
0100
0010
,
0100
0000
0001
0000
1000
0000
0010
1000
0000
0000
1000
0000
1001
0000
0010
0000
,
1000
0100
0010
0001
0010
0000
1000
0100
0010
0001
0010
0000
0001
0010
0100
1000
,
0010
0100
0010
1000
0001
0010
0100
1000
0010
0000
0100
0000
1001
0000
0000
0000
,
0001
0010
0001
0000
0010
1000
0010
0000
1000
0100
1000
0000
0100
0001
0100
0000
,
0001
0010
0100
1000
MMMM
1000
0100
0010
,
0001
0100
0001
0000
0100
1000
0100
0000
1000
0010
1000
0000
0010
0001
0010
0000
,
0100
1000
0001
0000
0100
0000
MMMM
0000
0010
0000
0001
0000
0200
0000
0000
0000
,
0310
1000
0100
0000
MMMM
0000
MMMM
0000
1000
0000
0010
0000
0001
0000
0100
0000
,
1020
1000
0100
0002
0000
0033
MMMM
0000
,
0012
0010
1000
0200
0000
0303
MMMM
0000
,
2010
0010
0001
0200
0000
3300
MMMM
0000
,
0001
1000
0010
0000
1000
0001
0010
0000
0001
1000
0100
1000
0001
0010
0001
0000
,
0120
0000
0000
0000
0100
0100
0130
MMMM
,
1001
0000
0000
0000
,
0000
0000
0000
0000
;

//---------------dance-double - ----------------
#NOTES:
     dance-double:
     :
     Easy:
     5:
     :
00000000
00000000
00000000
00000000
,
00000000
00000000
00000000
00000000
,
00000000
00000000
00000000
00000000
,
00000000
00000000
00000000
00000000
,
00000000
00000000
00000000
00000000
,
00010000
00010000
10000000
00010000
,
00100000
00100000
00010000
00100000
,
00001000
00001000
00010000
00001000
,
00000000
00000000
00000000
00000000
,
00001000
00000000
00000100
00000000
,
00000001
00001000
00000010
00000010
,
00000100
00000000
00001000
00000000
,
00010000
00001000
00100000
00100000
,
00010000
00000000
01000000
00000000
,
00100000
00100000
01000000
00100000
,
10000000
00000000
01000000
00000000
,
00100000
00100000
00010000
00000000
,
10000000
00000000
01000000
00000000
,
00010000
00010000
00001000
00010000
,
00001000
00000000
00000100
00000000
,
00000010
00001000
00000010
00000010
,
00000100
00000000
00000001
00000000
,
00000010
00000010
00000100
00000010
,
00000001
00000000
00000100
00000000
,
00001000
00001000
00010000
00000000
,
00001000
00000000
00010000
00001000
,
00010000
00000000
00001000
00100000
,
00001000
00000000
01000000
00100000
,
01000000
00000000
00010000
10000000
,
10010000
00000000
10000000
01000000
,
00100000
00000000
01000000
00010000
,
00001000
00000000
00010000
00001000
,
00000100
00000000
00000100
00000001
,
00001001
00000000
00000100
00000000
,
00001000
00000000
00010000
00000000
,
00200000
00000000
00000000
00300000
,
10000000
00000000
01000000
00000000
,
10010000
00000000
00100000
00000000
,
01100000
00000000
00010000
00000000
,
00011000
00000000
00011000
00000000
,
00022000
00000000
00000000
00000000
,
00033000
00000000
00000000
00000000
,
00000010
00000000
00000100
00000100
,
00000001
00000000
00000100
00000100
,
00001000
00000000
00000100
00000100
,
00000001
00000000
00000100
00000100
,
00001000
00000000
00010000
00001000
,
00011000
00000000
01000000
01000000
,
00010000
00000000
01000000
01000000
,
10000000
01000000
00100000
00010000
,
10000000
01000000
00010000
00000000
,
00001000
00010000
00001000
00000000
,
00001000
00000100
00000001
00000000
,
00000001
00001000
00000001
00000000
,
00000001
00000010
00001000
00000000
,
00010000
00001000
00010000
00000000
,
00011000
00000000
00010000
00100000
,
10000000
00000000
00010000
10000000
,
10010000
00000000
01000000
01000000
,
20020000
00000000
00000000
30030000
,
10010000
00000000
00000000
00000000
,
00000000
00000000
00000000
00000000
;

//---------------dance-double - ----------------
#NOTES:
     dance-double:
     :
     Medium:
     8:
     :
00000000
00000000
00000000
00000000
,
00000000
00000000
00000000
00000000
,
00000000
00000000
00000000
00000000
,
00000000
00000000
00000000
00000000
,
00000000
00000000
00000000
00000000
,
00000001
00000001
00000100
00000100
,
00001000
00001000
00000010
00000010
,
00001000
00000000
00001000
00000000
00010000
00000000
00010000
00010000
,
00000000
00000000
00000000
00000000
,
00100000
00000000
10000000
00000000
00100000
10000000
01000000
00000000
,
00010000
00000000
01000000
00000000
00010000
01000000
00010000
01000000
,
00100000
00000000
00010000
00000000
00100000
00001000
00010000
00000000
,
01000000
00000000
00010000
00000000
00001000
00010000
00001000
00010000
,
00000100
00000010
00000001
00000100
,
00001000
00000110
00000001
00000110
,
00001000
00010000
00100000
00010000
,
00001000
00000100
00001000
00000000
00010000
00001000
00010000
00100000
,
01000000
00000000
10000000
00000000
01000000
00010000
00100000
00000000
,
10000000
00000000
00100000
00000000
00010000
00100000
00010000
00100000
,
00001000
00000000
00100000
00000000
01000000
00010000
00001000
00000000
,
00000010
00000000
00000100
00000000
00001000
00000010
00001000
00000010
,
00000100
00000001
00000010
00001000
,
00010000
00010100
00001000
00101000
,
00010000
00001000
00000100
00001000
,
00010000
00100000
00010000
00000000
00001000
00010000
01000000
00010000
,
00001000
00000000
00100000
00010000
,
11000000
00100000
01100000
00010000
,
00100000
00000000
00001000
00010000
,
00000100
00001100
00000010
00001001
,
00000001
00000000
00001000
00000100
,
00000011
00000001
00000110
00000100
,
00001000
00000000
00010000
00001000
,
00010000
00010010
00001000
01001000
,
01010000
00000000
00000000
00000000
00100000
00000000
00100000
10000000
,
01000000
00000000
00000000
00000000
11000000
00000000
00010000
00001000
,
00100000
00000000
01000000
00100000
,
00010000
00000000
00001000
00000100
,
00001100
00000000
00000000
00000000
00000010
00000000
00000001
00000100
,
00000101
00000000
00000000
00000000
00000010
00000000
00001000
00000100
,
00001100
00000000
00000110
00000000
,
00011000
00000000
00000000
00000000
00001000
00010000
00100000
01000000
,
10000000
00000000
00000000
00000000
,
02000000
00000000
03010000
00100000
,
00120000
00000000
00031000
00100000
,
00102000
00000000
00013000
00001000
,
00000210
00000000
00000301
00001001
,
00002100
00000000
00000000
00000000
00003010
00000100
00000010
00000000
,
00000002
00000000
00000000
00000000
00000103
00000010
00000100
00000000
,
00002000
00000000
00000000
00000000
00003010
00000100
00000010
00000000
,
00000100
00001000
00010000
00001000
00100000
00010000
00100000
01000000
,
10000000
00100000
00010000
01000000
,
10000000
00000000
00100000
00000000
01000000
00010000
00100000
00001000
,
00010000
00000100
00000001
00000010
,
00001000
00000000
00000100
00000000
00000001
00000010
00000100
00000000
,
00001000
00000000
00000001
00000000
00001000
00000010
00000100
00001000
,
00010000
00100000
10000000
00000000
,
10100000
00010000
00001000
00000000
,
00000011
00001000
00010000
00000000
,
00010100
00011000
00101000
00110000
,
20020000
00000000
00000000
30030000
,
01000000
00000000
00000000
00000000
,
00000000
00000000
00000000
00000000
;

//---------------dance-double - ----------------
#NOTES:
     dance-double:
     :
     Hard:
     12:
     :
00000000
00000000
00000000
00000000
,
00000000
00000000
00000000
00000000
,
00000000
00000000
00000000
00000000
,
00000000
00000000
00000000
00000000
,
00000000
00000000
00000000
00000000
,
01000000
01000000
00010000
00001000
,
00000100
00000000
00000100
00000000
00001000
00000000
00010000
00010000
,
01000000
00000000
01000000
00000000
01000000
00000000
00010000
00010000
,
00001000
00000000
00000000
00000000
,
00000010
00000000
00000000
00000000
00000001
00000010
00000000
00000000
00000001
00000010
00000001
00000000
00000100
00000000
00000010
00000000
,
00001000
00000010
00000000
00000000
00001000
00000010
00000000
00000000
00010000
00000000
00001000
00000000
00011000
00000000
00101000
00000000
,
00010000
00001000
00000000
00000000
00010000
00001000
00000000
00000000
00100000
00010000
00100000
00000000
00010000
00000000
01000000
00000000
,
10000000
01000000
00000000
00000000
10000000
01000000
00000000
00000000
10000000
00000000
01000000
00000000
10100000
00000000
01010000
00000000
,
00100000
00000000
00010000
00000000
00000100
00010000
01000000
10000000
,
00200000
00010000
00301000
00000000
00000100
00001000
00000100
00000010
,
00000002
00000100
00001003
00000000
00000010
00000100
00000010
00000001
,
00000010
00000000
00000100
00000000
00001000
00000000
00000000
00000000
00010000
00000100
00000000
00000000
00001000
00000000
01000000
00000000
,
01100000
00000000
00000000
00000000
10000000
00100000
00000000
00000000
10000000
00100000
10000000
00000000
01000000
00000000
00100000
00000000
,
00010000
00100000
00000000
00000000
00010000
00100000
00000000
00000000
00001000
00000000
00010000
00000000
00011000
00000000
00010010
00000000
,
00001000
00000100
00000000
00000000
00001000
00000100
00000000
00000000
00000010
00001000
00000010
00000000
00001000
00000000
00000100
00000000
,
00000001
00000100
00000000
00000000
00000001
00000100
00000000
00000000
00000001
00000000
00000100
00000000
00000011
00000000
00001100
00000000
,
00000010
00000000
00001000
00000000
00010000
00001000
00000100
00000001
,
00000020
00001000
00010030
00000000
01000000
00010000
01000000
00100000
,
20000000
01000000
30010000
00000000
00100000
01000000
00100000
10000000
,
00100000
00010000
00001000
00000000
00000100
00000100
00000001
00000001
,
00000010
00000000
00000100
00000000
00001000
00000001
00000010
00000100
,
00001000
00000000
00000100
00010000
00001000
00000100
00000010
00000001
,
00000010
00000000
00001000
00000000
00010000
01000000
00010000
00100000
,
20000000
00000000
30100000
00010000
01000000
00001000
00010000
00010000
,
00001000
00000000
01000000
00000000
10000000
01000000
00100000
00010000
,
00001000
00010000
00000000
00001000
00000100
00000010
00000001
00000010
,
00000100
00000000
00000001
00000000
00000010
00001000
00000010
00000001
,
00000001
00000100
00000001
00000010
00000100
00001000
00000100
00010000
,
00010100
00000000
00000000
00001000
00100000
01000000
10000000
01000000
,
00010000
00000000
00000000
00001000
00100000
01000000
10000000
01000000
,
00020000
00000000
00002000
00000000
00030000
00013000
00001000
00000100
,
00000001
00000100
00000010
00010000
00000010
00000100
00000001
00000100
,
00000020
00000000
00002000
00000000
00000030
00003010
00001000
00000010
,
00000001
00000010
00000100
00001000
00100000
01000000
10000000
01000000
,
00020000
00000000
00002000
00000000
00030000
00013000
00001000
00000100
,
00000001
00000100
00000010
00001000
00100000
01000000
10000000
01000000
,
00010000
00000000
00000000
00000000
,
00020000
00000000
00000000
00000000
00000100
00000000
00000000
00000010
00000000
00000000
00031000
00000000
00001000
00000000
00000100
00000000
,
00000001
00000000
00000001
00000000
00001000
00000000
00000000
00000100
00000000
00000000
00000010
00000000
00000011
00000000
00000000
00000000
,
00000100
00000000
00001000
00000000
00011000
00000000
00000000
00000100
00000000
00000000
00010000
00000000
00001000
00000000
00010000
00000000
,
00100000
01000000
00010000
00000000
00100000
00000000
10000000
00000000
,
02000000
00000000
10000000
00000000
10000000
00000000
00000000
00100000
00000000
00000000
03010000
00000000
00001000
00000000
00010000
00000000
,
00001000
00000000
00000100
00000000
00000001
00000000
00000000
00000010
00000000
00000000
00000001
00000000
00000101
00000000
00000000
00000000
,
00000010
00000000
00001000
00000000
00001010
00000000
00000000
00000100
00000000
00000000
00000010
00000000
00000100
00000000
00001000
00000000
,
00010000
00001000
00000100
00000010
00000100
00001000
00010000
00100000
,
01000000
00010000
01000000
00000000
00100000
00000000
10000000
00000000
00010000
00000000
01000000
00000000
00001000
00000000
00100000
00000000
,
00010000
10000000
01000000
00100000
00001000
00010000
00000100
00001000
,
00000001
00000100
00000010
00001000
00000100
00010000
00001000
00100000
,
00001000
00010000
00001000
00000000
00010000
00000000
00000010
00000000
00001000
00000000
00000001
00000000
00000100
00000000
00000000
00000000
,
00000001
00000010
00000001
00000000
00000100
00000000
00000010
00000000
00001000
00000000
00000100
00000000
00010000
00000000
00001000
00000000
,
00100000
01000000
20000000
02000000
00000000
00000000
33000000
00000000
,
00010000
00001000
00000200
00000002
00000000
00000000
00000303
00000000
,
00001000
00010000
00200000
20000000
00000000
00000000
30300000
00000000
,
01000000
10000000
01000000
00000000
00100000
00010000
00100000
00000000
00010000
00000000
00001000
00000000
00000100
00000000
00000010
00000000
,
00000002
00000000
00000000
00000003
,
00001001
00000000
00000000
00000000
,
00000000
00000000
00000000
00000000
;

//---------------dance-double - ----------------
#NOTES:
     dance-double:
     :
     Challenge:
     15:
     :
00000000
00000000
00000000
00000000
,
00000000
00000000
00000000
00000000
,
00000000
00000000
00000000
00000000
,
00000000
00000000
00000000
00000000
,
00000000
00000000
00000000
00000000
,
00010000
00001000
00010000
00000100
00001000
00000100
00000001
00000100
,
00001000
00000010
00010000
00000010
00010000
00001000
00010000
00100000
,
10000000
00100000
00010000
00100000
01000000
00010000
01000000
00100000
,
MMMMMMMM
00000000
00000000
00000000
,
00001000
00000100
00001000
00000100
00000000
00010000
00001000
00010000
00000000
MMMMMMMM
00000000
00100000
01000000
00100000
01000000
00000000
,
10000000
01000000
10000000
00000000
10000000
00100000
00000000
00100000
01000000
00010000
01000000
00000000
10000000
00000000
01000000
00000000
,
00010000
00001000
00010000
00001000
00000000
00010000
00000100
00001000
00000000
MMMMMMMM
00000000
00000010
00000001
00000010
00000001
00000000
,
00000100
00000010
00000100
00000000
00000001
00000010
00000000
00000001
00000100
00000001
00000100
00000000
00001000
00000000
00010000
00000000
,
00011000
00000000
00000000
00000000
MMMMMMMM
00000000
00000000
00000000
00100000
01000000
00100000
01000000
10000000
00000000
01000000
00000000
,
01100000
00000000
00000000
00000000
MMMMMMMM
00000000
00000000
00000000
00010000
00001000
00010000
00001000
00000010
00000000
00000100
00000000
,
00002000
00000100
00003100
MMMMMMMM
00000002
00000100
00000103
MMMMMMMM
,
00010000
00000100
00010000
00000000
00001000
00000000
00010000
00000000
00001000
00100000
00010000
00100000
00010000
00000000
01000000
00000000
,
00010000
00100000
01000000
10000000
00000000
MMMMMMMM
00000000
00100000
00010000
00100000
01000000
00000000
00010000
00000000
00001000
00000000
,
00000010
00000001
00000010
00000100
00000000
00000000
MMMMMMMM
00000000
00000001
00001000
00000001
00000000
00001000
00000001
00001000
00000000
,
00000001
00000010
00000100
00001000
00000000
MMMMMMMM
00000000
00000000
00020000
00000000
00030100
00001000
00000100
00000000
00000010
00000000
,
00000001
00000100
00000001
00000000
00000010
00000000
00000100
00000000
00001000
00000100
00010000
00000000
00001000
00000000
00010000
00000000
,
00011000
00000000
00000000
00000000
MMMMMMMM
00000000
00000000
00000000
00100000
01000000
00100000
01000000
10000000
00000000
01000000
00000000
,
01100000
00000000
00000000
00000000
MMMMMMMM
00000000
00000000
00000000
00010000
00001000
00010000
00001000
00000010
00000000
00000100
00000000
,
00000020
00000001
00000031
MMMMMMMM
00000200
00001000
00001300
MMMMMMMM
,
00010000
00001000
00010000
00000000
00001000
00000000
00100000
00000000
01000000
10000000
01000000
10000000
00100000
00000000
01000000
00000000
,
01100000
00000000
MMMMMMMM
00000000
00001000
00010000
00100000
10000000
,
01000000
00000000
00010000
00000000
01000000
00000000
10000000
00000000
00100000
01000000
00010000
00000000
10000000
00000000
01000000
00000000
,
01100000
00000000
MMMMMMMM
00000000
00001000
00000100
00000001
00000010
,
00000001
00000000
00000100
00000000
00001000
00000000
00000010
00000000
00000100
00000001
00000010
00000000
00001000
00000000
00010000
00000000
,
00011000
00000000
MMMMMMMM
00000000
00100000
10000000
00010000
00100000
,
10000000
00100000
MMMMMMMM
00010000
00001000
00000010
00000001
00000100
,
00000100
00000000
MMMMMMMM
00000010
00001000
00010000
00100000
01000000
,
MMMMMMMM
00000000
10000000
00000000
01000000
00000000
00100000
00000000
00010000
00100000
00001000
00000000
00010000
00000000
00000100
00000000
,
00001100
00000000
00000000
00000000
MMMMMMMM
00000000
00000001
00000000
00000010
00000001
00000010
00000000
00000100
00000000
00001000
00000000
,
00001001
00000000
00000000
00000000
MMMMMMMM
00000000
00001000
00000000
00010000
00001000
00010000
00000000
00100000
00000000
01000000
00000000
,
01100000
00000000
11000000
00000000
MMMMMMMM
00010000
01000000
10000000
,
00100000
00000000
00010000
00000000
00001000
00000000
00000100
00000000
00000010
00000100
00000010
00000000
00000100
00000000
00001000
00000000
,
00021000
00000000
00130000
00000000
MMMMMMMM
00010000
00100000
10000000
,
01000000
00000000
00010000
00000000
MMMMMMMM
00000000
00001000
00000000
00000010
00000100
00000010
00000000
00000001
00000000
00001000
00000000
,
00002001
00000000
00003100
00000000
MMMMMMMM
00001000
00000010
00000001
,
00000100
00000000
00000010
00000000
00001000
00000000
00000100
00000000
00000010
00000001
00000010
00000001
00000100
00000000
00000010
00000000
,
MMMMMMMM
00000000
00000000
00000000
,
00100000
00000000
00000000
00000000
01000000
00000000
00000000
10000000
00000000
00000000
01000000
00000000
00100000
00000000
00010000
00100000
,
01000000
00000000
00100000
01000000
10000000
00000000
00010000
00000000
00010000
00000000
00100000
00000000
00001000
00000000
00000000
00000000
,
00000010
00000000
00000010
00000100
00000100
00001000
00000010
00000001
,
00000010
00000000
00000100
00000000
00000001
00000010
00000000
00001000
00000100
00010000
00000000
00001000
00100000
00010000
00000000
00100000
,
01000000
00000000
00100000
00000000
01000000
10000000
01000000
00100000
00010000
00000000
00100000
00000000
00000000
00000000
00001000
00010000
,
00001000
00000000
00010000
00000000
00001000
00000000
00010000
00000010
00001000
00000000
00000100
00000000
00000010
00000000
00000001
00000000
,
00001000
00000100
00000010
00000001
00000010
00000000
00000100
00001000
00000100
00010000
00001000
00000000
00100000
00001000
00010000
00001000
,
00100000
00010000
00100000
01000000
10000000
01000000
10000000
01000000
00100000
00000000
00001000
00010000
01000000
00000000
00000000
00000000
,
10000000
01000000
10000000
00000000
10000000
01000000
00010000
00000000
00010000
00001000
00010000
00000000
00001000
00000100
00000001
00000000
,
00001000
00000100
00000010
00000001
MMMMMMMM
00000010
00000100
00001000
,
00000001
00000010
00000001
00000000
00000001
00000010
00001000
00000000
00001000
00010000
00001000
00000000
00010000
00100000
10000000
00000000
,
10000000
00100000
10000000
00000000
01000000
00000000
MMMMMMMM
00000000
00100000
00000000
00010000
00000000
00002000
00000000
00000000
00000000
,
00003100
00000010
00000100
00000000
MMMMMMMM
00000000
MMMMMMMM
00000000
00010000
00000000
00100000
00000000
01000000
00000000
10000000
00000000
,
00020000
10000000
00100000
00002000
00000000
00033000
MMMMMMMM
00000000
,
00002000
00000001
00000010
00020000
00000000
00033000
MMMMMMMM
00000000
,
00020000
10000000
00100000
00002000
00000000
00033000
MMMMMMMM
00000000
,
00000100
00000010
00000100
00000000
00001000
00000000
00010000
00000000
01000000
00100000
01000000
00000000
00010000
00000000
10000000
00000000
,
10020000
00000000
00000000
00000000
00100000
00100000
00130000
MMMMMMMM
,
00011000
00000000
00000000
00000000
,
00000000
00000000
00000000
00000000
;
