#TITLE:Condor;
#ARTIST:Remo-con;
#BANNER:Condor.png;
#BACKGROUND:Condor-bg.png;
#CDTITLE:./CDTitles/DanceDanceRevolution 2013.png;
#MUSIC:Condor.ogg;
#SAMPLESTART:42.26;
#SAMPLELENGTH:15;
#BPMS:0=142;
#STAGE:2;

//---------------dance-single - ----------------
#NOTES:
     dance-single:
     :
     Beginner:
     2:
     :
0000
0000
0000
0000
,
0000
0000
0000
0000
,
0000
0000
0000
0000
,
0000
0000
0000
0000
,
0000
0000
0000
0000
,
0010
0000
0010
0000
,
1000
0000
1000
0000
,
0001
0000
0001
0000
,
0100
0000
0100
0000
,
0010
0000
0010
0000
,
0100
0100
0000
0000
,
1001
0000
0000
0000
,
1000
1000
0000
0000
,
1001
0000
0000
0000
,
1000
0000
0000
0000
,
0001
0000
0000
0000
,
0100
0000
0000
0000
,
0001
0000
0001
0000
,
0100
0000
0100
0000
,
0010
0000
0010
0000
,
1000
0000
1000
0000
,
0001
0000
1001
0000
,
0001
0000
1001
0000
,
1000
0000
0001
0000
,
1000
0000
0001
0000
,
0010
0000
0000
0000
,
0100
0000
0000
0000
,
0001
0000
0000
0000
,
1000
0000
0000
0000
,
0010
0000
0010
0000
,
0100
0000
0000
0000
,
0001
0000
0001
0000
,
1000
0000
0000
0000
,
0010
0000
0010
0000
,
0100
0000
0100
0000
,
0001
0000
0001
0000
,
1000
0000
1000
0000
,
0100
0000
0100
0000
,
0010
0000
0010
0000
,
1000
0000
0000
0000
,
1001
0000
0000
0000
,
0010
0000
0010
0000
,
1000
0000
1000
0000
,
0001
0000
0001
0000
,
0100
0000
0100
0000
,
0010
0000
0100
0000
,
0010
0000
0000
0000
,
0001
0000
1000
0000
,
0001
0000
0000
0000
,
0010
0000
0010
0000
,
0100
0100
0000
0000
,
0100
0000
0000
0000
,
0010
0010
0000
0000
,
0100
0000
1000
0000
,
0100
0000
0001
0000
,
0010
0000
0010
0000
,
0010
0010
0010
0010
,
0010
0000
0000
0000
,
0000
0000
0000
0000
;

//---------------dance-single - ----------------
#NOTES:
     dance-single:
     :
     Easy:
     6:
     :
0000
0000
0000
0000
,
0000
0000
0000
0000
,
0000
0000
0000
0000
,
0000
0000
0000
0000
,
0000
0000
0000
0000
,
0001
0000
1000
0000
,
0010
0100
1001
0000
,
0001
0010
0100
1000
,
0010
0100
1001
0000
,
0002
0000
1003
0010
,
1001
0000
0010
0100
,
1001
0000
0010
0100
,
0001
0000
0010
0000
0100
1000
0100
1000
,
0200
0000
2300
0000
,
3002
0000
0203
0000
,
0301
0010
0100
0010
,
0001
1000
0200
0000
,
1300
1000
0100
0100
,
0010
0001
0100
0010
,
1000
1000
0100
0100
,
0010
0001
0100
0010
,
0100
0010
1001
0000
,
0010
0100
1001
0000
,
0100
0110
0001
1001
,
0110
1001
0220
0330
,
1000
0010
1000
0010
,
0100
0001
0100
0001
,
0010
0001
0010
0001
,
2000
0000
0000
0000
0001
0001
3001
0000
,
0001
0100
0001
0100
,
0010
1000
0010
1000
,
0100
1000
0100
1000
,
0002
0000
0000
0000
1000
1000
1003
0000
,
0001
1000
0010
1001
,
1000
0001
0010
1001
,
0100
0010
1000
0110
,
0010
0100
0001
0110
,
0001
0001
0100
1001
,
1000
1000
0010
1001
,
0001
1000
0001
0110
,
2000
0000
0000
0000
0001
0001
3001
0000
,
0010
1000
0001
0000
,
0100
0001
0010
0000
,
0001
0010
0100
0000
,
1000
0010
0100
0000
,
0010
1000
0100
0000
,
0010
0001
0010
0000
,
0001
0100
0010
0000
,
0200
0000
0000
0000
0010
0010
0310
0000
,
2000
0000
3001
0100
,
1001
0000
0100
0010
,
1001
0000
0100
0010
,
1000
0000
0100
0000
0010
0001
0010
0001
,
0020
0000
0032
0000
,
2003
0000
3020
0000
,
1030
0100
0010
0100
,
1000
0001
0020
0000
,
0031
0100
1000
0020
,
0000
0000
0000
0000
0000
0030
0000
0000
,
0000
0000
0000
0000
;

//---------------dance-single - ----------------
#NOTES:
     dance-single:
     :
     Medium:
     9:
     :
0000
0000
0000
0000
,
0000
0000
0000
0000
,
0000
0000
0000
0000
,
0000
0000
0000
0000
,
0000
0000
0000
0000
,
2000
0000
3002
0000
,
1003
0000
0010
0000
0100
0000
0001
0010
,
1000
0010
0001
1000
,
0100
0000
1000
0000
0100
1000
0100
0000
0000
1001
0000
0000
,
0002
0000
0000
0000
0000
0000
1003
0000
0000
0000
0100
0000
0000
0010
0000
0000
,
0100
0000
0000
0000
2000
0000
0000
0000
0000
0000
3001
0000
0000
0100
0000
0000
,
0020
0000
0000
0100
0030
0000
0010
0000
0000
0000
0110
0000
0000
0000
1000
0000
,
0001
0000
0000
0100
0000
0000
0010
0000
1000
0000
0100
0000
0010
0000
0001
0000
,
2000
0000
3010
0001
,
1000
0000
0010
0000
0100
0000
0001
0010
,
0200
1000
0010
0001
,
1300
0000
0001
0000
0100
0010
1000
0001
,
1000
0000
0000
0001
0000
0000
0100
0000
,
0000
0010
0000
0000
1000
0000
0100
0000
,
0010
0000
0000
0001
0000
0000
1000
0000
,
0000
0010
0000
0000
0100
0000
0000
0001
,
1000
0000
0010
0000
0101
0000
0000
0010
,
0100
0000
0001
0000
1010
0000
0000
0100
,
0010
1010
0100
0011
,
1001
0000
0110
0000
2002
0000
0000
3003
,
0100
1000
0100
0000
0001
0000
0110
0000
,
0100
0001
0100
0000
1000
0000
0110
0000
,
0010
0001
0010
0000
1000
0000
0110
0000
,
0010
1000
0000
0010
0000
0000
0000
0000
0001
0000
0000
0000
0110
0000
0000
0000
,
0010
1000
0100
0000
0001
0000
1100
0000
,
0010
0001
0100
0000
1000
0000
0101
0000
,
0100
1000
0010
0000
0001
0000
1010
0000
,
0100
0001
0000
0010
0000
0000
0000
0000
1000
0000
0000
0000
0011
0000
0000
0000
,
0002
0000
1003
0010
0100
0001
0010
0000
,
0200
0000
1300
0100
0010
0100
1000
0000
,
0020
0000
0130
0010
1000
0010
0100
0000
,
0002
0000
0013
0100
1000
0001
0001
0000
,
2000
0000
3001
0010
0100
1000
0010
0000
,
0200
0000
0301
0100
0010
0100
0001
0000
,
0020
0000
0130
0010
0001
0010
0100
0000
,
2000
0000
0000
0000
0001
0001
0001
3001
,
0100
0010
1000
0000
0001
0010
0100
0000
,
0010
0001
0100
0000
0010
1000
0100
0000
,
1000
0001
0100
0000
0001
1000
0100
0000
,
1000
0001
0010
0000
0001
1000
0010
0000
,
0100
0001
0010
0100
1000
0000
1100
0000
,
1000
0100
0010
0001
0010
0000
0011
0000
,
0001
0100
0010
0000
1000
0100
0010
0000
,
0011
0101
1010
1100
,
2000
0000
0000
0000
0000
0000
3001
0000
0000
0000
0010
0000
0000
0100
0000
0000
,
0010
0000
0000
0000
0002
0000
0000
0000
0000
0000
1003
0000
0000
0010
0000
0000
,
0200
0000
0000
0010
0300
0000
0100
0000
0000
0000
0110
0000
0000
0000
0001
0000
,
1000
0000
0000
0010
0000
0000
0100
0000
0001
0000
0010
0000
0100
0000
1000
0000
,
0002
0000
0103
1000
,
0001
0000
0100
0000
0010
0000
1000
0100
,
0020
0001
0100
1000
,
0031
0000
1000
0000
0010
0100
0001
1000
,
0200
0000
0000
0000
,
0300
0000
0000
0000
,
0000
0000
0000
0000
;

//---------------dance-single - ----------------
#NOTES:
     dance-single:
     :
     Hard:
     13:
     :
0000
0000
0000
0000
,
0000
0000
0000
0000
,
0000
0000
0000
0000
,
0000
0000
0000
0000
,
0000
0000
0000
0000
,
0001
0000
0000
0000
0000
0000
0010
0000
0000
0000
0000
0001
,
0100
0000
0010
0100
0000
0000
0010
0000
0000
1000
0100
0010
,
0001
0000
0000
0010
0000
0000
0001
0000
1000
0000
0000
0000
,
0100
0000
1000
0000
0001
1000
0100
0000
0000
1001
0000
0000
,
2000
0000
0000
0000
0000
0000
3001
0000
0000
0000
0100
0000
0000
0001
0000
0000
,
1100
0000
0000
0000
0001
0100
0001
0100
0001
0000
1000
0000
0100
1000
0000
0001
,
1000
0000
0000
0002
0000
0000
0103
0000
0000
0000
0110
0000
0000
0000
1000
0001
,
1000
0000
0000
0000
0000
0000
0001
0000
0000
0100
0000
0000
0000
0000
0000
0001
0000
0000
1000
0000
0000
0000
0000
0000
0010
0000
0000
0000
1000
0000
0000
0000
0100
0000
0000
0000
1000
0000
0000
0001
0000
0000
1000
0000
0000
0001
0000
0000
,
2000
0000
0000
0000
0000
0000
3010
0000
0000
0100
0000
0001
,
1000
0000
0001
0200
0000
0000
0302
0000
0000
2003
0000
0000
,
3100
0000
0000
1000
0000
0000
0001
0000
1000
0001
0000
0100
,
0010
0000
0000
0000
0000
0000
0000
0000
1000
0000
0000
0000
0000
0000
0000
0000
0100
0000
0000
0000
0000
0000
0000
0000
1000
0000
0000
0000
0100
0000
0000
0000
0010
0000
0000
0000
0001
0000
0000
0100
0000
0000
0001
0000
0000
1000
0000
0000
,
0100
0000
0000
0001
0000
0000
0100
0000
,
0000
0010
0000
0000
1000
0000
0100
0000
,
0010
0000
0000
0001
0000
0000
1000
0000
,
0000
0010
0000
0000
0100
0000
0000
0001
,
1000
0010
1000
0001
1000
0100
0010
0100
,
1000
0010
1000
0001
1000
0100
0001
0100
,
1000
0010
0100
0001
0100
1000
0001
0010
,
1000
0001
1100
0000
1100
0000
2002
3003
,
0100
1000
0001
0100
1000
0100
0010
1000
,
0100
0010
1000
0001
0100
1000
0010
0100
,
0001
1000
0010
0001
1000
0100
0010
1000
,
0000
0010
0000
1000
0010
0000
0100
0000
0000
0000
0100
0000
0100
0000
0001
0000
,
1000
0100
0010
1000
0010
0001
0100
1000
,
0100
0010
1000
0100
0001
0100
0010
0001
,
0100
0001
0010
1000
0001
0100
1000
0001
,
0100
0001
0000
0001
0000
0000
0010
0000
0001
0000
0100
0000
0220
0000
0330
0000
,
1000
0000
0100
0010
0000
0010
0100
0000
0001
0000
0100
0000
1000
0000
0010
0000
,
1000
0000
0001
0100
0000
0100
0001
0000
0010
0000
0001
0000
0100
0000
0010
0000
,
1000
0000
0001
0100
0000
0100
1000
0000
0100
0000
0001
0000
1000
0000
0100
0000
,
0000
0010
0101
0000
0001
1000
0010
1000
,
0100
0000
0010
0001
0000
0001
1000
0000
0100
0000
0001
0000
0100
0000
0010
0000
,
0001
0000
0100
0010
0000
0010
1000
0000
0001
0000
0100
0000
1000
0000
0100
0000
,
0010
0000
1000
0100
0000
0100
0010
0000
0001
0000
0100
0000
1000
0000
0100
0000
,
0001
0000
0020
0000
0000
0000
0000
0000
0000
0000
0000
0000
0030
0000
0100
0010
,
0001
0100
1000
0001
0010
1000
0010
0100
,
0001
0100
1000
0001
0010
1000
0010
0100
,
0001
0010
1000
0010
0001
0100
0010
0001
,
0000
1000
0100
0001
0100
1000
0001
0010
,
1000
0100
0001
0100
0010
1000
0010
0100
,
1000
0010
0100
1000
0001
0010
0100
0001
,
0010
0100
0001
0100
1000
0001
0100
1000
,
0000
0100
0000
0001
0100
0000
0100
0000
0001
0000
0010
0000
0220
0000
0330
0000
,
0001
0000
0000
0000
0000
0000
0001
0000
1000
0000
0100
0000
0000
0010
0000
0000
,
0100
0000
0000
0000
1000
0100
1000
0100
1000
0000
0001
0000
0000
0100
0000
0000
,
0010
0000
0000
1001
0000
0000
0101
0000
0000
0000
1000
0000
0000
0000
0001
1000
,
0100
0000
0000
0000
0000
0000
0010
0000
0000
0001
0000
0000
0000
0000
0000
0100
0000
0000
0010
0000
0000
0000
0000
0000
1000
0000
0000
0000
0100
0000
0000
0000
0010
0000
0000
0000
0001
0000
0000
1000
0000
0000
0001
0000
0000
1000
0000
0000
,
0002
0000
0000
0000
0013
0100
1000
0000
,
0020
0000
0000
0000
0100
0000
0130
0000
0000
0000
1000
0000
0001
0100
0001
0100
,
0002
0000
0000
0000
,
1003
0000
0000
0000
0000
0000
0001
0000
0000
1000
0000
0000
0000
0000
0000
0100
0000
0000
1000
0000
0000
0000
0000
0000
0010
0000
0000
0000
0100
0000
0000
0000
0010
0000
0000
0000
1000
0000
0000
0100
0000
0000
0010
0000
0000
0001
0000
0000
,
0200
0000
0000
0000
,
0300
0000
0000
0000
,
0000
0000
0000
0000
;

//---------------dance-single - ----------------
#NOTES:
     dance-single:
     :
     Challenge:
     15:
     :
0000
0000
0000
0000
,
0000
0000
0000
0000
,
0000
0000
0000
0000
,
0000
0000
0000
0000
,
0000
0000
0000
0000
,
1001
0000
0000
0000
0000
0000
0000
0000
0000
0000
0000
0000
0000
0000
0000
0000
0000
0000
0000
0000
0000
0000
0000
0000
1001
0000
0000
0000
0000
0000
0000
0000
0000
0000
0000
0000
0000
0000
0000
0000
0000
0000
0000
0001
0000
0000
0000
0000
,
0010
0000
0010
0100
0000
0000
0001
0000
0000
1000
0010
0001
,
0110
0000
0000
0010
0000
0000
0001
0000
1000
0000
0000
0000
,
0100
0000
0000
0000
1000
0000
0000
0000
0001
0000
1000
0010
0100
0000
0000
0000
0000
0000
1001
0000
0000
0000
0000
0000
,
0020
0000
0000
0000
0000
0000
1030
0000
0000
0000
0100
0000
0000
0001
0000
0000
,
0110
0000
0000
0000
0001
0010
1000
0010
0100
0000
0001
0000
0100
1000
0000
0001
,
0010
0000
0000
1100
0000
0000
0101
0000
0000
0000
0220
0000
0330
0000
0001
0010
,
1000
0000
0000
0000
0000
0000
0001
0000
0000
0100
0000
0000
0000
0000
0000
1000
0000
0000
0010
0000
0000
0000
0000
0000
0002
0000
0000
0000
0203
0000
0000
0000
0302
0000
0000
0000
0023
0000
0000
0032
0000
0000
0203
0000
0000
0320
0000
0000
,
2030
0000
0000
0000
0000
0000
0000
0000
0000
0000
0000
0000
3010
0000
0000
1000
0000
0000
0100
0000
0000
0000
0001
0000
,
1000
0000
0000
0000
0000
0000
0000
0000
0001
0000
0000
0000
0200
0000
0000
0000
0000
0000
0000
0000
0000
0000
0000
0000
0302
0000
0000
0000
0000
0000
0000
0000
0000
0000
0000
0000
1003
0000
0000
0010
0000
0000
0001
0000
0000
0000
0000
0000
,
0020
0000
0000
0000
0000
0000
1030
0000
1000
0001
0000
0100
,
0010
0000
0000
0000
0000
0000
0000
0000
1100
0000
0000
0000
0000
0000
0000
0000
0011
0000
0000
0000
0000
0000
0000
0000
1000
0000
0000
0000
0100
0000
0000
0000
0010
0000
0000
0000
0001
0000
0000
0010
0000
0000
0100
0000
0000
0010
0000
0000
,
1000
0020
0032
2003
,
3200
2300
3020
0230
,
0302
0023
2030
3002
,
0203
0000
0000
0000
2300
0000
0000
0000
3020
0000
0000
0000
1030
0000
0000
2000
,
0200
3000
0300
0200
0020
0300
0030
0020
0002
0030
0003
0002
0020
0003
0030
0020
,
0200
0030
0300
0200
0002
0300
0003
0002
0200
0003
0300
0100
1000
0000
0001
0000
,
1000
0100
1000
0100
0010
0001
0010
0001
1000
0100
1000
0100
0010
0001
0010
0001
,
0200
0000
0000
0301
0120
0000
0000
0130
2010
0000
0000
3010
0100
0001
0010
0100
,
1000
0000
0001
0010
0100
0000
0100
1000
0010
0000
0010
0100
0001
0000
0001
0010
,
0100
0000
0100
1000
0010
0000
0010
0100
0010
0000
0010
0100
0001
0000
0001
1000
,
0001
0000
0001
0010
0100
0000
0100
1000
0010
0000
0010
0100
0001
0000
0001
0010
,
0100
1000
0000
0100
1000
0000
0100
1000
0100
1000
0001
0000
0110
0000
0010
0100
,
0001
0000
1000
0010
0100
0000
0100
0001
0010
0000
0010
0100
1000
0000
1000
0010
,
0100
0000
0100
0001
0010
0000
0010
0100
0010
0000
0010
0100
1000
0000
1000
0001
,
1000
0000
1000
0010
0100
0000
0100
0001
0010
0000
0010
0100
1000
0000
1000
0010
,
0100
0001
0000
0100
0001
0000
0100
0001
0100
0001
1000
0000
0110
0000
1001
0000
,
0002
0000
0000
0013
0001
0000
0100
0000
0010
1000
0010
0000
1000
0100
2000
0000
,
3200
0000
0000
0301
0100
0000
1000
0000
0001
0010
0001
0000
0010
1000
0020
0000
,
0230
0000
0000
0310
0001
0000
0100
0000
1000
0100
1000
0000
0100
0001
0100
0000
,
0220
0000
0330
0000
1000
0000
0001
0000
0010
0100
1000
0001
0010
0100
1000
0000
,
2000
0000
0000
3100
1000
0000
0010
0000
0100
0001
0100
0000
0001
0010
0001
0000
,
0020
0000
0000
1030
0010
0000
0001
0000
1000
0100
1000
0000
0100
0001
0100
0000
,
0020
0000
0000
0130
1000
0000
0010
0000
0001
0010
0001
0000
0010
1000
0010
0000
,
0220
0000
0000
0000
0000
0000
0330
0000
0100
0010
1000
0001
0100
0010
1000
0001
,
0001
0000
1000
0010
0001
0000
0110
0000
1000
0010
0100
0010
1000
0001
0010
0100
,
0020
0000
0031
0010
1000
0000
0110
0000
0001
0010
0100
0010
0001
1000
0010
0100
,
0020
0000
1030
0010
0001
0000
0110
0000
0001
0010
1000
0010
0100
1000
0010
0000
,
0000
0200
0000
0320
0000
0230
0310
0000
0100
0001
0100
0010
1000
0010
0100
0010
,
2000
0000
3010
1000
0100
0000
0110
0000
0010
0001
0100
0010
0000
0010
0100
0000
,
0002
0000
0013
0001
0100
0000
0110
0000
0010
1000
0100
0010
0000
0100
1000
0000
,
0001
0100
1000
0100
0000
0001
0010
0100
1000
0000
0001
0000
0010
0000
1000
0000
,
0000
0011
0000
1100
0000
0000
0110
0000
0002
0000
1000
0000
0100
0000
0013
0000
,
0020
0000
0000
0000
0000
0000
1030
0000
0001
0000
0100
0000
0000
1100
0000
0000
,
0101
0000
0000
0000
1000
0100
1000
0100
1000
0000
0001
0000
0010
0100
1000
0100
,
0110
0000
0000
1001
0000
0000
0101
0000
0000
0000
1000
0000
0000
0000
0001
1000
,
0100
0000
0000
0000
0000
0000
0010
0000
0000
0001
0000
0000
0000
0000
0000
0100
0000
0000
0010
0000
0000
0000
0000
0000
1000
0000
0000
0000
0100
0000
0000
0000
0010
0000
0000
0000
0001
0000
0000
1000
0000
0000
0001
0000
0000
1000
0000
0000
,
0002
0000
0000
1000
0000
0000
0100
0000
0013
0000
0100
0000
1000
0100
1000
0100
,
0020
0000
0000
0000
0130
0000
0000
0000
0000
0000
1000
0000
0001
0100
0001
0100
,
0002
0000
0000
0100
0000
0000
1000
0000
0100
0000
0010
0000
0100
0000
1000
0000
,
0103
0000
0000
0000
0000
0000
0001
0000
0000
1000
0000
0000
0000
0000
0000
0100
0000
0000
1000
0000
0000
0000
0000
0000
0010
0000
0000
0000
0100
0000
0000
0000
0010
0000
0000
0000
1000
0000
0000
0100
0000
0000
0010
0000
0000
0001
0000
0000
,
0200
0000
0000
0010
0000
0000
1000
0000
0001
0000
0010
0000
1000
0000
0010
0000
,
0300
0000
0000
0000
,
0000
0000
0000
0000
;

//---------------dance-double - ----------------
#NOTES:
     dance-double:
     :
     Easy:
     6:
     :
00000000
00000000
00000000
00000000
,
00000000
00000000
00000000
00000000
,
00000000
00000000
00000000
00000000
,
00000000
00000000
00000000
00000000
,
00000000
00000000
00000000
00000000
,
00000001
00000000
00001000
00000000
,
00010000
01000000
10010000
00000000
,
10000000
01000000
00100000
00010000
,
00000010
00000100
00001001
00000000
,
00000002
00000000
00001003
00010000
,
00011000
00000000
00001000
01000000
,
01100000
00000000
00100000
01000000
,
00010000
00000000
00001000
00000000
00000010
00000100
00000010
00000100
,
00000020
00000000
00002030
00000000
,
00023000
00000000
02030000
00000000
,
03010000
00100000
01000000
00100000
,
00010000
10000000
02000000
00000000
,
13000000
10000000
01000000
00010000
,
00001000
00001000
00000100
00000001
,
00000010
00000010
00001000
00010000
,
00100000
00100000
10000000
01000000
,
00100000
00001000
00011000
00000000
,
00000010
00000100
00001001
00000000
,
00000001
00000110
00001000
00011000
,
01100000
10010000
02200000
03300000
,
10000000
00100000
10000000
00100000
,
01000000
00010000
01000000
00010000
,
00100000
00001000
00100000
00001000
,
00000020
00000000
00000000
00000000
00000100
00000100
00000130
00000000
,
00000001
00000100
00000001
00000100
,
00000010
00001000
00000010
00001000
,
00000100
00010000
00000100
00010000
,
02000000
00000000
00000000
00000000
00100000
00100000
03100000
00000000
,
10000000
00010000
01000000
10010000
,
01000000
00001000
00100000
00011000
,
00001000
00000100
00000010
00001001
,
00000100
00000001
00000010
00001001
,
00000001
00001000
00000100
00001001
,
00000100
00010000
00000010
00011000
,
00010000
01000000
00100000
10010000
,
02000000
00000000
00000000
00000000
00100000
00100000
03100000
00000000
,
01000000
10000000
00010000
00000000
,
00100000
00010000
00001000
00000000
,
00001000
00000100
00000010
00000000
,
00000001
00001000
00000100
00000000
,
00000010
00000100
00001000
00000000
,
00000100
00010000
00001000
00000000
,
00010000
01000000
00100000
00000000
,
02000000
00000000
00000000
00000000
00100000
00100000
03100000
00000000
,
20000000
00000000
30010000
00001000
,
00011000
00000000
00010000
00000100
,
00000110
00000000
00000010
00000100
,
00001000
00000000
00010000
00000000
00100000
01000000
00100000
01000000
,
00200000
00000000
00320000
00000000
,
00032000
00000000
00003200
00000000
,
00001300
00000010
00000100
00000010
,
00001000
00000001
00000200
00000000
,
00000301
00000100
00000001
00000020
,
00000000
00000000
00000000
00000000
00000000
00000030
00000000
00000000
,
00000000
00000000
00000000
00000000
;

//---------------dance-double - ----------------
#NOTES:
     dance-double:
     :
     Medium:
     9:
     :
00000000
00000000
00000000
00000000
,
00000000
00000000
00000000
00000000
,
00000000
00000000
00000000
00000000
,
00000000
00000000
00000000
00000000
,
00000000
00000000
00000000
00000000
,
20000000
00000000
30020000
00000000
,
00031000
00000000
00000100
00000000
00000110
00000000
00000001
00000010
,
00000100
00000010
00000001
00000100
,
00001000
00000000
00010000
00000000
00001000
00010000
00001000
00000000
00000000
00011000
00000000
00000000
,
00020000
00000000
00000000
00000000
00000000
00000000
00031000
00000000
00000000
00000000
00000100
00000000
00000000
00000001
00000000
00000000
,
00000100
00000000
00000000
00000000
00002000
00000000
00000000
00000000
00000000
00000000
00013000
00000000
00000000
00001000
00000000
00000000
,
02000000
00000000
00000000
00100000
03000000
00000000
01000000
00000000
00000000
00000000
01100000
00000000
00000000
00000000
10000000
00000000
,
00010000
00000000
00000000
01000000
00000000
00000000
00100000
00000000
00010000
00000000
00001000
00000000
00000100
00000000
00000010
00000000
,
00000200
00000000
00000310
00000100
,
00000001
00000010
00010100
00101000
,
02000000
10000000
00010000
10000000
,
03100000
00000000
00010000
00000000
00001000
00000100
00000001
00000010
,
00000100
00000000
00000000
00001000
00000000
00000000
00000100
00000000
,
00000000
00010000
00000000
00000000
00011000
00000000
00110000
00000000
,
10000000
00000000
00000000
00010000
00000000
00000000
00100000
00000000
,
00000000
00001000
00000000
00000000
00000100
00000000
00000000
00000010
,
00000100
00000000
00000010
00000000
00000101
00000000
00000000
00001000
,
00010000
00000000
00001000
00000000
00011000
00000000
00000000
01000000
,
00100000
10100000
01000000
00110000
,
00011000
00000000
00001010
00000000
00022000
00000000
00000000
00033000
,
00001000
00000100
00000001
00000000
00000010
00000000
00000011
00000000
,
00000001
00000010
00001000
00000000
00000010
00000000
00001100
00000000
,
00010000
00001000
00100000
00000000
00001000
00000000
00011000
00000000
,
00100000
00010000
00000000
00100000
00000000
00000000
00001000
00000000
00010000
00000000
00000000
00000000
00011000
00000000
00000000
00000000
,
00010000
00100000
10000000
00000000
01000000
00000000
11000000
00000000
,
10000000
01000000
00010000
00000000
01000000
00000000
00110000
00000000
,
00001000
00010000
00000100
00000000
00010000
00000000
00011000
00000000
,
00000100
00001000
00000000
00000100
00000000
00000000
00010000
00000000
00001000
00000000
00000000
00000000
00011000
00000000
00000000
00000000
,
00002000
00000000
00003100
00000001
00000010
00000100
00001000
00000000
,
00020000
00000000
01030000
10000000
00100000
01000000
00010000
00000000
,
00200000
00000000
01300000
00100000
00010000
10000000
01000000
00000000
,
00002000
00000000
00003100
00001000
00000010
00000100
00000001
00000000
,
00002000
00000000
00003010
00001000
00000010
00000100
00000001
00000000
,
00020000
00000000
00031000
00000100
00001000
00010000
00001000
00000000
,
00002000
00000000
00013000
00100000
00010000
00001000
00010000
00000000
,
00020000
00000000
00000000
00000000
00001000
00001000
00001000
00031000
,
01000000
00100000
10000000
00000000
00010000
00100000
01000000
00000000
,
00100000
00001000
00010000
00000000
00001000
00000100
00000010
00000000
,
00001000
00000010
00001000
00000000
00000001
00001000
00000100
00000000
,
00000010
00000001
00000100
00000000
00000010
00001000
00000001
00000000
,
00001000
00000100
00010000
01000000
00100000
00000000
00110000
00000000
,
10000000
01000000
00100000
00010000
00100000
00000000
11000000
00000000
,
00010000
01000000
10000000
00000000
01000000
00010000
00100000
00000000
,
00100000
00001000
00010000
00000000
00110000
00000000
00011000
00000000
,
00002000
00000000
00000000
00000000
00000000
00000000
00013000
00000000
00000000
00000000
00100000
00000000
00000000
10000000
00000000
00000000
,
00100000
00000000
00000000
00000000
00020000
00000000
00000000
00000000
00000000
00000000
00031000
00000000
00000000
00010000
00000000
00000000
,
00000020
00000000
00000000
00000100
00000030
00000000
00000010
00000000
00000000
00000000
00000110
00000000
00000000
00000000
00000001
00000000
,
00001000
00000000
00000000
00000010
00000000
00000000
00000100
00000000
00001000
00000000
00010000
00000000
00100000
00000000
01000000
00000000
,
00200000
00000000
01300000
00100000
,
10000000
01000000
00101000
00010100
,
00000020
00000001
00001000
00000001
,
00000130
00000000
00001000
00000000
00010000
00100000
10000000
01000000
,
00200000
00000000
00000000
00000000
,
00300000
00000000
00000000
00000000
,
00000000
00000000
00000000
00000000
;

//---------------dance-double - ----------------
#NOTES:
     dance-double:
     :
     Hard:
     13:
     :
00000000
00000000
00000000
00000000
,
00000000
00000000
00000000
00000000
,
00000000
00000000
00000000
00000000
,
00000000
00000000
00000000
00000000
,
00000000
00000000
00000000
00000000
,
00000100
00000000
00000000
00000000
00000000
00000000
00010000
00000000
00000000
00000000
00000000
00001000
,
01000000
00000000
00100000
10000000
00000000
00000000
00100000
00000000
00000000
00100000
00010000
00001000
,
00000100
00000000
00000000
00000010
00000000
00000000
00001000
00000000
00000001
00000000
00000000
00000000
,
00000100
00000000
00000010
00000000
00001000
00100000
00010000
00000000
00000000
00011000
00000000
00000000
,
00002000
00000000
00000000
00000000
00000000
00000000
00003100
00000000
00000000
00000000
00000010
00000000
00000000
00000001
00000000
00000000
,
00000110
00000000
00000000
00000000
00001000
00010000
00001000
00010000
00001000
00000000
00100000
00000000
01000000
10000000
00000000
00010000
,
10000000
00000000
00000000
00020000
00000000
00000000
01030000
00000000
00000000
00000000
00011000
00000000
00000000
00000000
00001000
00010000
,
00001000
00000000
00000000
00000000
00000000
00000000
00010000
00000000
00000000
00001000
00000000
00000000
00000000
00000000
00000000
00000100
00000000
00000000
00000010
00000000
00000000
00000000
00000000
00000000
00000010
00000000
00000000
00000000
00001000
00000000
00000000
00000000
00000001
00000000
00000000
00000000
00001000
00000000
00000000
00000010
00000000
00000000
00001000
00000000
00000000
00000010
00000000
00000000
,
00000200
00000000
00000000
00000000
00000000
00000000
00000301
00000000
00000000
00000011
00000000
00000001
,
00001000
00000000
00000100
00020000
00000000
00000000
00032000
00000000
00000000
00203000
00000000
00000000
,
01300000
00000000
00000000
10000000
00000000
00000000
00010000
00000000
10000000
00010000
00000000
01000000
,
00100000
00000000
00000000
00000000
00000000
00000000
00000000
00000000
10000000
00000000
00000000
00000000
00000000
00000000
00000000
00000000
01000000
00000000
00000000
00000000
00000000
00000000
00000000
00000000
00010000
00000000
00000000
00000000
00001000
00000000
00000000
00000000
00000100
00000000
00000000
00000000
00000001
00000000
00000000
00000100
00000000
00000000
00000010
00000000
00000000
00001000
00000000
00000000
,
00000100
00000000
00000000
00000010
00000000
00000000
00000001
00000000
,
00000000
00000100
00000000
00000000
00001000
00000000
00101000
00000000
,
00110000
00000000
00000000
10000000
00000000
00000000
00100000
00000000
,
00000000
01000000
00000000
00000000
00001000
00000000
00000000
00010000
,
00100000
10000000
01000000
00010000
01000000
00000000
00000000
00010000
,
00001000
00000100
00000001
00000010
00000100
00000000
00001000
00100000
,
10000000
00100000
01000000
00010000
01000000
10000000
00010000
00100000
,
00010000
00001000
00001100
00000000
00000101
00000000
00002002
00003003
,
00000100
00000001
00000100
00001000
00000100
00000010
00001000
00010000
,
00100000
10000000
00100000
01000000
00010000
00100000
00010000
00001000
,
00000100
00000001
00000100
00001000
00000010
00001000
00010000
01000000
,
00000000
00010000
00000000
10000000
00100000
00000000
01000000
00000000
00000000
00000000
00011000
00000000
00011000
00000000
00000000
00000000
,
01000000
10000000
01000000
00010000
01000000
00100000
00010000
00001000
,
00000010
00000001
00000010
00000100
00001000
00000010
00001000
00010000
,
01000000
10000000
01000000
00010000
00100000
00010000
00001000
00000100
,
00001000
00000100
00000000
00010000
00000000
00000000
00011000
00000000
00011000
00000000
00000000
00000000
02200000
00000000
03300000
00000000
,
10000000
00000000
01000000
00100000
00000000
00000000
01000000
00000000
00010000
00000000
00001000
00000000
00000100
00000000
00000010
00000000
,
00000001
00000000
00000010
00000100
00000000
00000000
00000010
00000000
00001000
00000000
00010000
00000000
00100000
00000000
10000000
00000000
,
00010000
00000000
01000000
10000000
00000000
00000000
01000000
00000000
00010000
00000000
00001000
00000000
00000100
00000000
00000001
00000000
,
00000000
00000010
00000011
00000000
00000010
00000001
00000100
00001000
,
00010000
00000000
00001000
00010000
00000000
00010000
00001000
00000000
00010000
00000000
00001000
00000000
00000100
00000000
00000010
00000000
,
00001000
00000000
00000100
00000010
00000000
00000010
00000100
00000000
00010000
00000000
01000000
00000000
00100000
00000000
00010000
00000000
,
00100000
00000000
00010000
01000000
00000000
01000000
00010000
00000000
00010000
00000000
00000100
00000000
00000010
00000000
00001000
00000000
,
00000100
00000000
00020000
00000000
00000000
00000000
00000000
00000000
00000000
00000000
00000000
00000000
00030000
00000000
00001000
00010000
,
00001000
00000100
00000001
00000010
00001000
00000010
00000001
00000100
,
00000010
00000001
00000010
00001000
00100000
10000000
00100000
01000000
,
00010000
00100000
10000000
00100000
00001000
00010000
00000010
00000100
,
00000000
00010000
00001000
00100000
01000000
00010000
00100000
10000000
,
00100000
00010000
01000000
10000000
01000000
00010000
00001000
00000100
,
00000001
00000100
00001000
00000010
00001000
00010000
01000000
00010000
,
00100000
00001000
00000100
00000001
00000010
00000100
00001000
00010000
,
00000000
01000000
00000000
00001000
00010000
00000000
00001000
00000000
00010000
00000000
00001000
00000000
00022000
00000000
00033000
00000000
,
00020000
00000000
00000000
00000000
00000000
00000000
00130000
00000000
00000000
00000000
01000000
00000000
00000000
10000000
00000000
00000000
,
01100000
00000000
00000000
00000000
00010000
00001000
00010000
00001000
00010000
00000000
00000100
00000000
00000010
00000001
00000000
00001000
,
00000001
00000000
00000000
00002000
00000000
00000000
00003010
00000000
00000000
00000000
00011000
00000000
00000000
00000000
00010000
00001000
,
00010000
00000000
00000000
00000000
00000000
00000000
00001000
00000000
00000000
00010000
00000000
00000000
00000000
00000000
00000000
00100000
00000000
00000000
01000000
00000000
00000000
00000000
00000000
00000000
01000000
00000000
00000000
00000000
00010000
00000000
00000000
00000000
10000000
00000000
00000000
00000000
00010000
00000000
00000000
01000000
00000000
00000000
00010000
00000000
00000000
01000000
00000000
00000000
,
00200000
00000000
00000000
00000000
00000000
00000000
10300000
00000000
00000000
11000000
00000000
10000000
,
00010000
00000000
00100000
00002000
00000000
00000000
00023000
00000000
00000000
00030200
00000000
00000000
,
00000310
00000000
00000000
00000001
00000000
00000000
00001000
00000000
00000001
00001000
00000000
00000010
,
00000100
00000000
00000000
00000000
00000000
00000000
00000000
00000000
00000001
00000000
00000000
00000000
00000000
00000000
00000000
00000000
00000010
00000000
00000000
00000000
00000000
00000000
00000000
00000000
00001000
00000000
00000000
00000000
00010000
00000000
00000000
00000000
00100000
00000000
00000000
00000000
10000000
00000000
00000000
00100000
00000000
00000000
01000000
00000000
00000000
00010000
00000000
00000000
,
00200000
00000000
00000000
00000000
,
00300000
00000000
00000000
00000000
,
00000000
00000000
00000000
00000000
;

//---------------dance-double - ----------------
#NOTES:
     dance-double:
     :
     Challenge:
     15:
     :
00000000
00000000
00000000
00000000
,
00000000
00000000
00000000
00000000
,
00000000
00000000
00000000
00000000
,
00000000
00000000
00000000
00000000
,
00000000
00000000
00000000
00000000
,
10010000
00000000
00000000
00000000
00000000
00000000
00000000
00000000
00000000
00000000
00000000
00000000
00000000
00000000
00000000
00000000
00000000
00000000
00000000
00000000
00000000
00000000
00000000
00000000
00011000
00000000
00000000
00000000
00000000
00000000
00000000
00000000
00000000
00000000
00000000
00000000
00000000
00000000
00000000
00000000
00000000
00000000
00000000
00001000
00000000
00000000
00000000
00000000
,
00000100
00000000
00000001
00000010
00000000
00000000
00001000
00000000
00000000
00010000
01000000
10000000
,
11000000
00000000
00000000
00100000
00000000
00000000
00010000
00000000
10000000
00000000
00000000
00000000
,
01000000
00000000
00000000
00000000
00010000
00000000
00000000
00000000
00100000
00000000
00001000
00010000
00001000
00000000
00000000
00000000
00000000
00000000
00011000
00000000
00000000
00000000
00000000
00000000
,
00002000
00000000
00000000
00000000
00000000
00000000
00003100
00000000
00000000
00000000
00000001
00000000
00000000
00000011
00000000
00000000
,
00001100
00000000
00000000
00000000
00000100
00001000
00000100
00010000
00001000
00000000
00010000
00000000
01000000
10000000
00000000
00100000
,
01000000
00000000
00000000
01010000
00000000
00000000
00101000
00000000
00000000
00000000
00022000
00000000
00033000
00000000
00010000
00000100
,
00001000
00000000
00000000
00000000
00000000
00000000
00000001
00000000
00000000
00000100
00000000
00000000
00000000
00000000
00000000
00000100
00000000
00000000
00000010
00000000
00000000
00000000
00000000
00000000
00002000
00000000
00000000
00000000
00203000
00000000
00000000
00000000
00320000
00000000
00000000
00000000
00230000
00000000
00000000
20300000
00000000
00000000
32000000
00000000
00000000
03200000
00000000
00000000
,
00320000
00000000
00000000
00000000
00000000
00000000
00000000
00000000
00000000
00000000
00000000
00000000
00130000
00000000
00000000
00001000
00000000
00000000
00000100
00000000
00000000
00000000
00000001
00000000
,
00000100
00000000
00000000
00000000
00000000
00000000
00000000
00000000
00000010
00000000
00000000
00000000
00000200
00000000
00000000
00000000
00000000
00000000
00000000
00000000
00000000
00000000
00000000
00000000
00000302
00000000
00000000
00000000
00000000
00000000
00000000
00000000
00000000
00000000
00000000
00000000
00001003
00000000
00000000
00000100
00000000
00000000
00000010
00000000
00000000
00000000
00000000
00000000
,
00000200
00000000
00000000
00000000
00000000
00000000
00010300
00000000
01000000
00100000
00000000
00010000
,
01000000
00000000
00000000
00000000
00000000
00000000
00000000
00000000
00110000
00000000
00000000
00000000
00000000
00000000
00000000
00000000
00011000
00000000
00000000
00000000
00000000
00000000
00000000
00000000
00001000
00000000
00000000
00000000
00000100
00000000
00000000
00000000
00000010
00000000
00000000
00000000
00001000
00000000
00000000
00000100
00000000
00000000
00010000
00000000
00000000
00001000
00000000
00000000
,
00200000
00000000
00301000
00020000
00000000
00031000
00000200
00000000
,
00000310
00000200
00000000
00000301
00000011
00000000
00001100
00000000
,
00000200
00000000
00010300
00002000
00000000
00103000
00020000
00000000
,
01030000
00000000
00200000
00000000
00000000
00000000
01300000
00000000
10100000
00000000
00000000
00000000
01010000
00000000
00000000
20000000
,
02000000
30000000
03000000
02000000
00200000
03000000
00300000
00200000
00020000
00300000
00030000
00020000
00002000
00030000
00003000
00002000
,
00000200
00003000
00000300
00000200
00000020
00000300
00000030
00000020
00000002
00000030
00000003
00000001
00000100
00000000
00000001
00000000
,
00000100
00000001
00000100
00000001
00000100
00001000
00000100
00001000
00010000
01000000
00010000
01000000
10000000
01000000
10000000
01000000
,
00200000
00010000
00010000
00010000
,
00310000
00000000
00010000
00100000
01000000
00000000
01000000
10000000
00100000
00000000
00100000
01000000
00010000
00000000
00010000
00100000
,
00001000
00000000
00001000
00010000
00000100
00000000
00000100
00001000
00000010
00000000
00000010
00000100
00000001
00000000
00000001
00000010
,
00000100
00000000
00000100
00001000
00000010
00000000
00000010
00000100
00000001
00000000
00000001
00000100
00001000
00000000
00001000
00000100
,
00000001
00000010
00000000
00000100
00001000
00000000
00000100
00010000
00000010
00010000
00001000
00000000
00010000
00000000
01000000
00000000
,
00100000
00000000
00100000
00010000
01000000
00000000
01000000
00010000
00100000
00000000
00100000
01000000
10000000
00000000
10000000
00100000
,
01000000
00000000
01000000
00010000
00100000
00000000
00100000
00001000
00010000
00000000
00010000
00000100
00001000
00000000
00001000
00000010
,
00000100
00000000
00000100
00000001
00000010
00000000
00000010
00000001
00001000
00000000
00001000
00000100
00000001
00000000
00000001
00000100
,
00001000
00000010
00000000
00001000
00000100
00000000
00001000
00000100
00010000
00000010
00001000
00000000
00000100
00000000
00011000
00000000
,
00020000
00000000
00000000
00130000
00010000
00000000
00100000
00000000
01000000
00100000
10000000
00000000
00100000
10000000
01000000
00000000
,
00200000
00000000
00000000
00310000
00001000
00000000
00000100
00000000
00000001
00000100
00000001
00000000
00000100
00001000
00000020
00000000
,
00002030
00000000
00000000
00003010
00001000
00000000
00000010
00000000
00000100
00000010
00001000
00000000
00000010
00001000
00000100
00000000
,
00000020
00000000
00000000
00000030
00000110
00000000
00001000
00000000
00000100
00010000
00001000
00000000
01000000
00000000
10000000
00000000
,
00200000
00000000
00000000
01300000
10000000
00000000
01000000
00000000
00010000
00100000
00001000
00000000
00010000
00100000
01000000
00000000
,
00200000
00000000
00000000
10300000
00100000
00000000
00010000
00000000
00001000
00000100
00000001
00000000
00000010
00000100
00000010
00000000
,
00000200
00000000
00000000
00000310
00000001
00000000
00000100
00000000
00000010
00000001
00000010
00000000
00001000
00000100
00000010
00000000
,
00000220
00000000
00000000
00000000
00000000
00000000
00000330
00000000
00000001
00000100
00000010
00001000
00010000
01000000
00100000
10000000
,
10000000
00000000
00010000
00100000
00010000
00000000
01100000
00000000
10000000
00100000
01000000
00100000
10000000
00010000
00100000
00001000
,
00200000
00000000
00310000
00100000
00010000
00000000
00011000
00000000
00001000
00010000
00100000
00010000
00001000
00000100
00000010
00001000
,
00000200
00000000
00001300
00000100
00001000
00000000
00000110
00000000
00000001
00000100
00000010
00000100
00000001
00001000
00000100
00000000
,
00000000
00002000
00000000
00003200
00000000
00020300
00031000
00000000
00010000
01000000
10000000
00100000
00010000
00100000
01000000
00100000
,
10000000
00000000
00010000
00100000
00010000
00000000
01100000
00000000
10000000
00100000
01000000
00100000
00000000
10000000
00010000
00000000
,
00200000
00000000
00310000
00100000
00010000
00000000
00011000
00000000
00001000
00010000
00100000
00010000
00000000
00000010
00001000
00000000
,
00000200
00000000
00001300
00000100
00001000
00000000
00000110
00000000
00000001
00000100
00000010
00000100
00000000
00001000
00000100
00000000
,
00000000
00002000
00000000
00003200
00000000
00020300
00031000
00000000
00022000
00000000
00000000
00000000
00000000
00000000
00033000
00000000
,
00020000
00000000
00000000
00000000
00000000
00000000
01030000
00000000
00000000
00000000
10000000
00000000
00000000
10100000
00000000
00000000
,
01010000
00000000
00000000
00000000
01000000
00010000
01000000
00001000
00010000
00000000
00001000
00000000
00000100
00000001
00000000
00000010
,
00000100
00000000
00000000
00001100
00000000
00000000
00010010
00000000
00000000
00000000
00022000
00000000
00033000
00000000
00001000
01000000
,
00010000
00000000
00000000
00000000
00000000
00000000
10000000
00000000
00000000
01000000
00000000
00000000
00000000
00000000
00000000
01000000
00000000
00000000
00100000
00000000
00000000
00000000
00000000
00000000
00020000
00000000
00000000
00000000
00030020
00000000
00000000
00000000
00002030
00000000
00000000
00000000
00003020
00000000
00000000
00000032
00000000
00000000
00000203
00000000
00000000
00000320
00000000
00000000
,
00002030
00000000
00000000
00000000
00000000
00000000
00000000
00000000
00000000
00000000
00000000
00000000
00003010
00000000
00000000
00010000
00000000
00000000
01000000
00000000
00000000
00000000
10000000
00000000
,
01000000
00000000
00000000
00000000
00000000
00000000
00000000
00000000
00100000
00000000
00000000
00000000
02000000
00000000
00000000
00000000
00000000
00000000
00000000
00000000
00000000
00000000
00000000
00000000
23000000
00000000
00000000
00000000
00000000
00000000
00000000
00000000
00000000
00000000
00000000
00000000
30010000
00000000
00000000
01000000
00000000
00000000
00100000
00000000
00000000
00000000
00000000
00000000
,
02000000
00000000
00000000
00000000
00000000
00000000
03001000
00000000
00000100
00000010
00000000
00001000
,
00000100
00000000
00000000
00000000
00000000
00000000
00000000
00000000
00001010
00000000
00000000
00000000
00000000
00000000
00000000
00000000
00011000
00000000
00000000
00000000
00000000
00000000
00000000
00000000
00010000
00000000
00000000
00000000
01000000
00000000
00000000
00000000
00100000
00000000
00000000
00000000
00010000
00000000
00000000
01000000
00000000
00000000
00001000
00000000
00000000
00010000
00000000
00000000
,
00000020
00000000
00000000
00000230
00000000
00000000
00000001
00000000
00001000
00000000
00000010
00000000
00000001
00000000
00000310
00000000
,
00000000
00000000
00000000
00000000
;
