#TITLE:Children of the Beat;
#ARTIST:Harmony Machine;
#BANNER:Children of the Beat.png;
#BACKGROUND:Children of the Beat-bg.png;
#CDTITLE:./CDTitles/DanceDanceRevolution 2013.png;
#MUSIC:Children of the Beat.ogg;
#SAMPLESTART:85.05;
#SAMPLELENGTH:15;
#BPMS:0=160;
#STAGE:2;

//---------------dance-single - ----------------
#NOTES:
     dance-single:
     :
     Beginner:
     3:
     :
0000
0000
0000
0000
,
0000
0000
0000
0000
,
0000
0000
0000
0000
,
0000
0000
0000
0000
,
0000
0000
0000
0000
,
0000
0000
0000
0000
,
0000
0000
0000
0000
,
0000
0000
0000
0000
,
0000
0000
0000
0000
,
0010
0000
0000
0000
,
0010
0000
0000
0000
,
0100
0000
0000
0000
,
0100
0000
0000
0000
,
0001
0000
0000
0000
,
0001
0000
0000
0000
,
1000
0000
0000
0000
,
1000
0000
0000
0000
,
0100
0000
0100
0000
,
0000
0000
0000
0000
,
0100
0000
0100
0000
,
0000
0000
0000
0000
,
0010
0000
0010
0000
,
0100
0000
0000
0000
,
0001
0000
0001
0000
,
1000
0000
0000
0000
,
1000
0000
1000
0000
,
0001
0000
0000
0000
,
0100
0000
0100
0000
,
0010
0000
0000
0000
,
0100
0000
0100
0000
,
0000
0000
0000
0000
,
0100
0000
0100
0000
,
0000
0000
0000
0000
,
1000
0000
0000
0000
,
0000
0000
0000
0000
,
0100
0000
0000
0000
,
0000
0000
0000
0000
,
0010
0000
0000
0000
,
0000
0000
0000
0000
,
0001
0000
0000
0000
,
0000
0000
0000
0000
,
1000
0000
0000
0000
,
1000
0000
0000
0000
,
0100
0000
0000
0000
,
0100
0000
0000
0000
,
0010
0000
0000
0000
,
0010
0000
0000
0000
,
0001
0000
0000
0000
,
0001
0000
0000
0000
,
0010
0000
0000
0000
,
0100
0000
0000
0000
,
0001
0000
0000
0000
,
1000
0000
0000
0000
,
0010
0000
0000
0000
,
0100
0000
0000
0000
,
0001
0000
0000
0000
,
1000
0000
0000
0000
,
0010
0000
0010
0000
,
0100
0000
0000
0000
,
0001
0000
0001
0000
,
1000
0000
0000
0000
,
1000
0000
1000
0000
,
0001
0000
0000
0000
,
0100
0000
0100
0000
,
0010
0000
0000
0000
,
0100
0000
0100
0000
,
0010
0000
0000
0000
,
1000
0000
1000
0000
,
0001
0000
0000
0000
,
0001
0000
0001
0000
,
1000
0000
0000
0000
,
0010
0000
0010
0000
,
0100
0000
0000
0000
,
0010
0000
0100
0000
,
0010
0000
0000
0000
,
0001
0000
1000
0000
,
0001
0000
0000
0000
,
1000
0000
0001
0000
,
1000
0000
0000
0000
,
0100
0000
0010
0000
,
0100
0000
0000
0000
,
1001
0000
0000
0000
,
0000
0000
0000
0000
;

//---------------dance-single - ----------------
#NOTES:
     dance-single:
     :
     Easy:
     7:
     :
0000
0000
0000
0000
,
0000
0000
0000
0000
,
0000
0000
0000
0000
,
0000
0000
0000
0000
,
0000
0000
0000
0000
,
0000
0000
0000
0000
,
0000
0000
0000
0000
,
0000
0000
0000
0000
,
0000
0000
0000
0000
,
0001
0010
0100
1000
,
0010
0100
0100
0000
,
1000
0010
0100
0000
,
0001
0100
0010
0000
,
0010
1000
0001
0100
,
0010
1000
0100
0000
,
1000
1000
0001
0001
,
1000
1000
0200
0300
,
0001
1000
0100
0000
,
1000
0001
0100
0000
,
0001
1000
0010
0000
,
1000
0001
0010
0000
,
1001
1001
1001
0000
,
0110
0110
0110
0000
,
1001
1001
1001
0000
,
0110
0110
0110
0000
,
0001
0100
0110
0000
,
1000
0100
0110
0000
,
0001
0010
1000
0100
,
0001
0010
0100
0000
,
0100
1000
0010
0000
,
1000
1000
0001
0001
,
0100
0001
0010
0000
,
0100
0001
0010
0100
,
0020
0000
0000
0000
,
0000
0000
0000
0000
,
0230
0000
0000
0000
,
0000
0000
0000
0000
,
2300
0000
0000
0000
,
0000
0000
0000
0000
,
3002
0000
0000
0000
,
0000
0000
0000
0000
,
1003
0100
0010
0001
,
0010
0100
1000
0000
,
0001
0001
0100
0000
,
1000
1000
0100
0000
,
0010
0010
0001
0000
,
0100
0100
0010
0000
,
0001
0001
1000
1000
,
0001
0001
1000
1000
,
0010
0010
1001
0000
,
0100
0100
1001
0000
,
1000
1000
0110
0000
,
0001
0001
0110
0000
,
0001
0010
0100
0000
,
1000
0010
0100
0000
,
0001
0100
1000
0000
,
1000
0100
0001
0000
,
1001
1001
1001
0000
,
0110
0110
0110
0000
,
1001
1001
1001
0000
,
0110
0110
0110
0000
,
0001
0100
0110
0000
,
1000
0100
0110
0000
,
0010
0001
0100
1000
,
0010
0001
0100
0000
,
0110
0110
0110
0000
,
1001
1001
1001
0000
,
0110
0110
0110
0000
,
1001
1001
1001
0000
,
0010
1000
1001
0000
,
0010
0001
1001
0000
,
0100
1000
0010
0001
,
0100
1000
0010
0000
,
1001
0110
1001
0000
,
0110
1001
0110
0000
,
1001
0110
1001
0000
,
0110
1001
0110
0000
,
1001
0100
0110
0000
,
1001
0100
0110
0000
,
0010
0001
0100
1000
,
0010
0001
0100
0000
,
1001
0000
0000
0000
,
0000
0000
0000
0000
;

//---------------dance-single - ----------------
#NOTES:
     dance-single:
     :
     Medium:
     9:
     :
0000
0000
0000
0000
,
0000
0000
0000
0000
,
0000
0000
0000
0000
,
0000
0000
0000
0000
,
0000
0000
0000
0000
,
0000
0002
0000
0000
2000
0000
0000
0000
,
0000
0000
3003
0110
,
0000
2000
0000
0000
0002
0000
0000
0000
,
0000
0000
3003
0110
,
0010
1000
0001
0100
,
0010
0000
0100
0000
0001
0100
0001
0000
,
0020
0001
0100
0031
,
0200
1000
0010
1300
,
0001
0000
0001
0000
1000
0100
0100
0000
,
1000
0000
1000
0000
0001
0100
0100
0000
,
0010
1000
0010
0001
,
0010
0100
0010
0000
0110
0000
1001
0000
,
0001
0010
1000
0100
,
1000
0100
1000
0000
0001
0100
0001
0000
,
1000
0010
0001
0100
,
0001
0100
0001
0000
1000
0100
1000
0000
,
0010
0000
0010
0000
0010
0100
1000
0001
,
0100
0000
0100
0000
0100
0010
1000
0001
,
0010
0100
2000
3002
,
1003
1100
0101
0010
,
0110
0000
1001
0000
0110
0000
0010
1000
,
0001
0100
0010
0000
0010
0000
0100
0010
,
0000
0100
0010
0000
1000
0000
0001
0000
,
0100
0010
0100
0001
,
0000
1001
0000
0000
1001
0000
0000
0000
,
1000
1000
0001
0001
,
0000
0110
0000
0000
0110
0000
0000
0000
,
0001
0001
1000
1000
,
0002
0000
0000
0000
,
0203
0000
0000
0000
,
2300
0000
0000
0000
,
3200
0000
0000
0000
,
0302
0000
0000
0000
,
0203
0000
0000
0000
,
0320
0000
0000
0000
,
2030
0000
0000
0000
,
3001
0001
1000
1000
,
0100
0100
0010
0010
,
0001
0001
1000
1000
,
0010
0100
0010
0000
0100
0010
0100
0000
,
0001
0001
1000
1000
,
0010
0010
0100
0100
,
0002
0103
2000
3100
,
0002
0103
2000
3100
,
0010
0110
1000
1001
,
0100
0110
0001
1001
,
0010
1000
0100
0001
,
0010
0001
0100
1000
,
0001
0010
0001
0000
0010
0000
1100
0000
,
1000
0010
1000
0000
0010
0000
0101
0000
,
1000
0100
1000
0000
0100
0000
1010
0000
,
0001
0100
0001
0000
0100
0000
0011
0000
,
0010
0000
0010
0000
0010
0100
1000
0001
,
0100
0000
0100
0000
0100
0010
1000
0001
,
0010
0100
2000
3002
,
1003
1100
0101
0010
,
0110
0000
1001
0000
0110
0000
0010
1000
,
0001
0100
0010
0000
0010
0000
0100
0010
,
0000
0100
0010
0000
1000
0000
0001
0000
,
0100
0000
0010
0100
0010
0000
1001
0000
,
0100
0000
0100
0000
0100
0010
0001
1000
,
0010
0000
0010
0000
0010
0100
0001
1000
,
0100
0010
0002
2003
,
3001
0011
1010
0100
,
0110
0000
1001
0000
0110
0000
0100
0001
,
1000
0010
0100
0000
0100
0000
0010
0100
,
0000
0010
0100
0000
0001
0000
1000
0000
,
0010
0000
0100
0010
0100
0000
1001
0000
,
0010
0100
0010
0000
0100
0010
1000
0001
,
0100
0000
0100
0000
0100
0010
1000
0001
,
0010
0100
2000
3002
,
1003
0100
0001
0100
1000
0000
0010
0000
,
0110
0000
1001
0000
0110
0000
0010
1000
,
0001
0100
0010
1000
0100
0000
0100
0010
,
0000
0001
0010
0000
1000
0000
0001
0000
,
0100
1000
0010
0100
0001
0000
1001
0000
,
0110
0000
0000
0000
,
0000
0000
0000
0000
;

//---------------dance-single - ----------------
#NOTES:
     dance-single:
     :
     Hard:
     11:
     :
0000
0000
0000
0000
,
0000
0000
0000
0000
,
0000
0000
0000
0000
,
0000
0000
0000
0000
,
0000
0000
0000
0000
,
0000
0002
0000
0000
2000
0000
0000
3003
,
0000
0010
0000
0100
0000
0001
0000
1000
,
0000
0200
0000
0000
0020
0000
0000
0330
,
0000
0001
0000
1000
0000
0100
0000
0010
,
0001
0000
0001
0000
1000
0100
0010
0000
,
1000
0100
0010
0000
0011
0000
0011
0000
,
1000
0000
1000
0000
0001
0100
0010
0000
,
0001
0100
0010
0000
1010
0000
1010
0000
,
0100
0000
0010
0000
0100
1000
0010
0000
,
0100
1000
0010
0000
0101
0000
0101
0000
,
0100
0010
1000
0001
0100
0001
0010
0100
,
1000
0001
0010
0100
1100
0000
2100
0000
,
0000
0001
0000
0000
3001
0000
0000
0000
,
1000
0010
0001
0102
,
0000
1000
0000
0000
1003
0000
0000
0000
,
0001
0000
0010
0000
1000
0000
0100
1000
,
1100
0000
1100
0000
1100
0000
0100
0001
,
0101
0000
0101
0000
0101
0000
0100
0010
,
0110
0000
0110
0000
0110
0000
0010
0001
,
1001
1001
1001
0100
,
1010
0000
1100
0000
1010
0000
0100
0010
,
0001
0010
0100
0000
1001
0000
0100
0020
,
0000
0130
0010
0000
1000
0100
0010
0000
,
0001
0100
0010
0000
1010
0000
0101
0000
,
0000
0110
0000
0000
0110
0000
0000
0000
,
1000
0100
0010
0000
0001
0100
0010
0000
,
0000
1001
0000
0000
1001
0000
0000
0000
,
0001
1000
0100
0000
1000
0001
0100
0000
,
2010
0001
0010
0001
,
3200
0001
1000
0001
,
0320
0100
1000
0100
,
0032
0100
1000
0100
,
0023
0001
1000
0001
,
0230
0001
0010
0001
,
2300
0001
0100
0001
,
3020
1000
0001
1000
,
0130
0001
0010
0100
,
1000
0001
0100
0010
,
1000
0001
0100
0010
,
1000
1000
0001
0100
,
0010
1000
0100
0000
0001
0000
0100
0000
,
0010
0001
0100
0000
1000
0000
0100
0000
,
0001
0100
0010
1000
0100
0000
0010
0000
,
0001
1000
0100
0000
0001
1000
0100
0000
,
1100
1100
0101
0101
,
0011
0011
1010
1010
,
1000
0010
0100
0000
1000
0100
0010
0000
,
0001
0010
0100
0000
0001
0100
0010
0000
,
1000
1000
0100
0000
1000
0010
0100
0000
,
0001
0001
0100
0000
0001
0010
0100
0000
,
1000
0010
0100
1000
0100
0001
1000
0000
,
0001
0010
0100
0001
0100
1000
0100
1000
,
1100
0000
1100
0000
1100
0000
0100
0001
,
0101
0000
0101
0000
0101
0000
0100
0010
,
0110
0000
0110
0000
0110
0000
0010
0001
,
1001
1001
1001
0100
,
1010
0000
1100
0000
1010
0000
0100
0010
,
0001
0010
0100
0000
1001
0000
0100
0020
,
0000
0130
0010
0000
1001
0000
0110
0000
,
0001
0010
0100
1000
0001
0000
0010
0001
,
0011
0000
0011
0000
0011
0000
0010
1000
,
1010
0000
1010
0000
1010
0000
0010
0100
,
0110
0000
0110
0000
0110
0000
0100
1000
,
1001
1001
1001
0010
,
0101
0000
0011
0000
0101
0000
0010
0100
,
1000
0100
0010
0000
1001
0000
0010
0200
,
0000
0310
0100
0000
0110
0000
1001
0000
,
0001
0010
0100
1000
0001
0000
0100
1000
,
1100
0000
1100
0000
0100
1000
0100
0001
,
0101
0000
0101
0000
0100
0010
0100
0010
,
0110
0000
0110
0000
0010
0001
0010
0001
,
1001
0000
1001
0000
0001
0010
0100
1000
,
1010
0000
1100
0000
1010
0000
0100
0010
,
0001
0010
0100
0000
1001
0000
0100
0020
,
0000
0130
0010
0000
0001
0010
0100
0000
,
1010
0101
0011
1100
,
1001
0000
0000
0000
,
0000
0000
0000
0000
;

//---------------dance-single - ----------------
#NOTES:
     dance-single:
     :
     Challenge:
     12:
     :
0000
0000
0000
0000
,
0000
0000
0000
0000
,
0000
0000
0000
0000
,
0000
0000
0000
0000
,
0000
0000
0000
0000
,
0000
0002
0000
0000
1003
0000
0000
0000
,
0000
0010
0100
0000
0001
1000
0110
0000
,
0000
0200
0000
0000
0020
0000
0000
0330
,
0000
0001
1000
0000
0010
0100
1001
0000
,
1000
0000
0001
0000
1000
0100
0010
0001
,
0000
0010
0100
1000
0110
0000
0101
0000
,
0010
1000
0100
0000
1000
0010
0100
0001
,
0000
0010
0100
1000
0101
0000
0110
0000
,
0010
1000
0100
0000
0010
0001
0100
0010
,
0000
0100
0001
0010
0101
0000
1001
0000
,
0001
0001
0010
0100
1000
1000
0010
0100
,
0001
0001
0010
0100
0110
0000
1001
0000
,
0010
0100
0000
0100
0010
0000
1001
0000
,
0001
0100
1000
0000
0001
0100
1010
0000
,
0100
0010
0000
0010
0100
0000
1001
0000
,
1000
0100
0001
0000
1000
0100
0010
0001
,
0011
0000
1100
0000
0011
0000
0100
0010
,
1010
0000
0101
0000
1010
0000
0100
0010
,
0110
0000
1001
0000
0110
0100
0001
0010
,
1000
0010
0001
0100
1100
0000
0101
0000
,
0110
0000
1100
0000
0110
0000
0001
0010
,
1000
0010
0001
0100
0101
0000
0010
0100
,
0000
0100
0020
0000
2030
0000
3002
0000
,
0103
0010
1000
0001
0100
0000
0110
0000
,
0100
0010
0000
0010
0100
0000
0001
0000
,
1000
0100
0001
0000
1000
0100
0001
0000
,
0100
0010
0000
0010
0100
0000
1000
0000
,
0001
0100
1000
0000
0001
0100
1000
0000
,
0001
0010
0001
0010
0001
0010
0001
0010
,
0001
0100
0001
0100
0001
0100
0001
0100
,
0010
1000
0010
1000
0010
1000
0010
1000
,
0100
1000
0100
1000
0100
1000
0100
1000
,
0010
0100
0010
0100
0010
0100
0010
0100
,
0001
0100
0001
0100
0001
0100
0001
0100
,
0010
0001
0010
0001
0010
0001
0010
0001
,
0010
1000
0010
1000
0010
1000
0010
1000
,
0020
1000
0001
0100
,
1000
0001
0100
0001
,
2030
3100
0002
0103
,
2000
3010
0002
0013
,
0200
0010
1000
0301
,
0020
0001
1000
0130
,
0001
0010
0001
0100
0001
0010
0001
1000
,
0010
1000
0100
1000
0010
0100
0001
0000
,
0010
0101
0010
1100
,
0100
0110
0010
1100
,
0010
0001
0100
0000
0010
1000
0100
0000
,
0010
0001
0010
0000
0100
1000
0100
0000
,
0010
0001
0100
0000
0010
1000
0100
0000
,
0010
0001
1000
0000
0010
1000
0001
0000
,
0100
0001
1000
0000
0100
1000
0001
0000
,
0010
0100
0001
0000
0010
0100
0010
0001
,
0011
0000
1100
0000
0011
0000
0100
0010
,
1010
0000
0101
0000
1010
0000
0100
0010
,
0110
0000
1001
0000
0110
0100
0001
0010
,
1000
0010
0001
0100
1100
0000
0101
0000
,
0110
0000
1100
0000
0110
0000
0001
0010
,
1000
0010
0001
0100
0101
0000
0010
0100
,
0000
0100
0010
0000
0010
1000
0100
0010
,
0011
0000
0110
0000
1100
0000
0100
1000
,
1100
0000
0011
0000
1100
0000
0010
0100
,
0101
0000
1010
0000
0101
0000
0010
0100
,
0110
0000
1001
0000
0110
0010
1000
0100
,
0001
0100
1000
0010
0011
0000
1010
0000
,
0110
0000
0011
0000
0110
0000
1000
0100
,
0001
0100
1000
0010
1010
0000
0100
0010
,
0000
0010
0100
0000
1000
0010
0001
0100
,
1000
0100
0001
0010
0110
0000
0010
0001
,
0011
0000
1100
0000
0011
0010
0001
0100
,
1010
0000
0101
0000
1000
0001
0100
0010
,
0110
0000
1001
0000
0110
0100
0001
0010
,
1000
0010
0001
0100
1100
0000
0101
0000
,
0110
0000
1100
0000
0110
0100
0001
0010
,
1000
0010
0001
0100
0101
0000
0100
0010
,
1000
0001
0100
0000
0001
0010
1000
0010
,
0001
0100
0010
0010
0200
0000
0310
0000
,
1001
0000
0000
0000
,
0000
0000
0000
0000
;

//---------------dance-double - ----------------
#NOTES:
     dance-double:
     :
     Easy:
     7:
     :
00000000
00000000
00000000
00000000
,
00000000
00000000
00000000
00000000
,
00000000
00000000
00000000
00000000
,
00000000
00000000
00000000
00000000
,
00000000
00000000
00000000
00000000
,
00000000
00000000
00000000
00000000
,
00000000
00000000
00000000
00000000
,
00000000
00000000
00000000
00000000
,
00000000
00000000
00000000
00000000
,
10000000
01000000
00010000
00001000
,
00010000
01000000
10000000
00000000
,
10000000
01000000
00010000
00000000
,
00001000
00000100
00000001
00000000
,
00000001
00000100
00001000
00010000
,
00001000
00000100
00000001
00000000
,
00000010
00001000
00000100
00010000
,
00001000
00100000
00020000
00030000
,
00100000
00010000
01000000
00000000
,
00100000
00001000
00010000
00000000
,
00001000
00000100
00000001
00000000
,
00000100
00000001
00000010
00000000
,
00001001
00001001
00001001
00000000
,
00011000
00011000
00011000
00000000
,
10010000
10010000
10010000
00000000
,
01100000
10010000
01100000
00000000
,
00010000
00001000
00011000
00000000
,
00010000
00001000
00011000
00000000
,
00001000
00000100
00000001
00000010
,
00000100
00001000
00000100
00000000
,
00001000
00000010
00000100
00000000
,
00001000
00001000
00010000
00010000
,
01000000
10000000
00100000
00000000
,
00010000
00010000
00001000
00001000
,
00000200
00000000
00000000
00000000
,
00000000
00000000
00000000
00000000
,
00000320
00000000
00000000
00000000
,
00000000
00000000
00000000
00000000
,
00020030
00000000
00000000
00000000
,
00000000
00000000
00000000
00000000
,
00032000
00000000
00000000
00000000
,
00000000
00000000
00000000
00000000
,
00013000
01000000
10000000
00100000
,
01000000
00100000
01000000
00000000
,
00100000
00001000
00010000
00000000
,
00001000
00010000
00000010
00000000
,
00000100
00000001
00001000
00000000
,
00000001
00001000
00000100
00000000
,
00000001
00000100
00001000
00001000
,
00010000
00010000
01000000
10000000
,
00100000
00100000
10010000
00000000
,
00010000
00010000
00011000
00000000
,
00001000
00001000
00011000
00000000
,
00000100
00000100
00001001
00000000
,
00000001
00000010
00000100
00000000
,
00001000
00000010
00000100
00000000
,
00000001
00000100
00001000
00000000
,
00000100
00000001
00001000
00000000
,
00001001
00001001
00001001
00000000
,
00011000
00011000
00011000
00000000
,
10010000
10010000
10010000
00000000
,
01100000
10010000
01100000
00000000
,
00010000
00001000
00011000
00000000
,
00010000
00001000
00011000
00000000
,
00001000
00000100
00000001
00000010
,
00001000
00010000
01000000
00000000
,
10010000
10010000
10010000
00000000
,
00011000
00011000
00011000
00000000
,
00001001
00001001
00001001
00000000
,
00000110
00001001
00000110
00000000
,
00001000
00010000
00011000
00000000
,
00001000
00010000
00011000
00000000
,
00010000
00100000
10000000
01000000
,
00010000
00001000
00000100
00000000
,
00001001
00001001
00011000
00000000
,
00011000
00011000
10010000
00000000
,
10010000
10010000
00011000
00000000
,
00011000
00011000
10010000
00000000
,
01100000
10010000
01100000
00000000
,
10010000
01100000
10010000
00000000
,
10000000
00100000
00010000
00001000
,
00000100
00000001
00000010
00000000
,
00001001
00000000
00000000
00000000
,
00000000
00000000
00000000
00000000
;

//---------------dance-double - ----------------
#NOTES:
     dance-double:
     :
     Medium:
     9:
     :
00000000
00000000
00000000
00000000
,
00000000
00000000
00000000
00000000
,
00000000
00000000
00000000
00000000
,
00000000
00000000
00000000
00000000
,
00000000
00000000
00000000
00000000
,
00000000
00020000
00000000
00000000
00002000
00000000
00000000
00000000
,
00000000
00000000
00033000
00011000
,
00000000
00002000
00000000
00000000
00020000
00000000
00000000
00000000
,
00000000
00000000
00033000
00011000
,
01000000
10000000
00010000
00100000
,
00010000
00000000
01000000
00000000
00010000
00100000
00010000
00000000
,
00200000
00010000
00001000
00310000
,
00002000
00010000
00100000
00013000
,
00001000
00000000
00000100
00000000
00000001
00000010
00000010
00000000
,
00000100
00000000
00001000
00000000
00000010
00000100
00000100
00000000
,
00000001
00000100
00001000
00010000
,
01000000
00100000
01000000
00000000
01100000
00000000
10010000
00000000
,
00100000
00001000
00010000
00001000
,
00000100
00000010
00001000
00000000
00000001
00000010
00000100
00000000
,
00000001
00000100
00001000
00000100
,
00010000
00001000
01000000
00000000
00010000
01000000
00100000
00000000
,
00100000
10000000
00100000
00000000
00100000
00010000
00001000
00010000
,
00001000
00000000
00001000
00000000
00000100
00000000
00000001
00000010
,
00000100
00000010
00000002
00002003
,
00003001
00001010
00011000
00001000
,
00101000
00000000
10010000
00000000
01100000
00000000
00100000
10000000
,
00010000
01000000
00100000
00000000
01000000
00000000
00001000
00010000
,
00000000
00010000
00001000
00000000
00000100
00000000
00000001
00000000
,
00000010
00000100
00001000
00000001
,
00000000
00001001
00000000
00000000
00001001
00000000
00000000
00000000
,
00001000
00001000
00010000
00010000
,
00000000
10010000
00000000
00000000
10010000
00000000
00000000
00000000
,
00010000
00010000
00001000
00001000
,
00000002
00000000
00000000
00000000
,
00000203
00000000
00000000
00000000
,
00002300
00000000
00000000
00000000
,
00023000
00000000
00000000
00000000
,
00230000
00000000
00000000
00000000
,
20300000
00000000
00000000
00000000
,
32000000
00000000
00000000
00000000
,
03020000
00000000
00000000
00000000
,
00031000
00001000
00000100
00000100
,
00000001
00000001
00000010
00000010
,
00000100
00001000
00000010
00000000
00000100
00000001
00000010
00000000
,
00000001
00000100
00001000
00000000
00000100
00001000
00010000
00000000
,
00100000
00100000
10000000
10000000
,
00010000
00010000
01000000
01000000
,
20000000
31000000
00020000
01030000
,
00002000
00003100
00000002
00000103
,
00000010
00000110
00001000
00011000
,
00010000
00110000
00010000
10010000
,
00100000
10000000
01000000
00010000
,
00000100
00000010
00000001
00000100
,
00000001
00000100
00000001
00000000
00000010
00000000
00001100
00000000
,
00010000
00001000
00010000
00000000
00001000
00000000
00110000
00000000
,
10000000
01000000
10000000
00000000
01000000
00000000
10100000
00000000
,
01000000
00100000
01000000
00000000
10000000
00010000
10000000
00000000
,
00100000
10000000
00100000
00000000
00100000
00010000
00001000
00010000
,
00001000
00000000
00001000
00000000
00000100
00000000
00000001
00000010
,
00000100
00000010
00000002
00002003
,
00003001
00001010
00011000
00001000
,
00101000
00000000
10010000
00000000
01100000
00000000
00100000
10000000
,
00010000
01000000
00100000
00000000
01000000
00000000
00001000
00010000
,
00000000
00010000
00001000
00000000
00000100
00000000
00000001
00000000
,
00000010
00000100
00001000
00000001
,
00000010
00000001
00000010
00000000
00000010
00001000
00010000
00001000
,
00010000
00000000
00010000
00000000
01000000
00000000
10000000
00100000
,
01000000
00100000
20000000
30020000
,
10030000
00110000
00011000
00010000
,
00010010
00000000
00001001
00000000
00000110
00000000
00000010
00000001
,
00001000
00000100
00000010
00000000
00000100
00000000
00010000
00001000
,
00000000
00001000
00010000
00000000
01000000
00000000
10000000
00000000
,
00100000
01000000
00010000
10000000
,
00100000
10000000
00100000
00000000
00100000
00010000
00001000
00000100
,
00000010
00000000
00001000
00000000
00000100
00000000
00001000
00000100
,
00000010
00000000
00000100
00001000
00000002
00000000
00002003
00000000
,
00003001
00001010
00011000
00001000
,
00101000
00000000
10010000
00000000
01100000
00000000
00100000
10000000
,
00010000
01000000
00100000
00000000
01000000
00000000
00001000
00010000
,
00000000
00010000
00001000
00000000
00000100
00000000
00000001
00000000
,
00000010
00000100
00001000
00000001
,
00000110
00000000
00000000
00000000
,
00000000
00000000
00000000
00000000
;

//---------------dance-double - ----------------
#NOTES:
     dance-double:
     :
     Hard:
     10:
     :
00000000
00000000
00000000
00000000
,
00000000
00000000
00000000
00000000
,
00000000
00000000
00000000
00000000
,
00000000
00000000
00000000
00000000
,
00000000
00000000
00000000
00000000
,
00000000
00020000
00000000
00000000
00002000
00000000
00000000
00033000
,
00000000
00000100
00000000
00000001
00000000
00000010
00000000
00000100
,
00000000
00002000
00000000
00000000
00020000
00000000
00000000
00033000
,
00000000
01000000
00000000
10000000
00000000
00100000
00000000
01000000
,
00001000
00000000
00010000
00000000
00100000
00010000
00001000
00000000
,
00100000
00010000
00001000
00000000
00011000
00000000
00011000
00000000
,
00010000
00000000
00001000
00000000
00000010
00001000
00010000
00000000
,
00000010
00001000
00010000
00000000
00011000
00000000
00011000
00000000
,
00000100
00000000
00000001
00000000
00000010
00000001
00000100
00000000
,
00000001
00000010
00000100
00000000
00000011
00000000
00000011
00000000
,
00000001
00000100
00001000
00000000
00000100
00001000
00010000
00000000
,
00001000
00010000
00100000
00000000
01100000
00000000
01020000
00000000
,
00000000
10000000
00000000
00000000
10030000
00000000
00000000
00000000
,
10000000
00100000
00010000
00002000
,
00000000
00010000
00000000
00000000
00013000
00000000
00000000
00000000
,
00001000
00000010
00000001
00000100
,
00000101
00001100
00000101
00001000
,
00011000
00000000
00010100
00000000
00011000
00000000
01000000
00010000
,
01010000
01001000
01010000
01000000
,
11000000
01010000
11000000
01000000
,
10100000
00000000
00110000
00000000
10100000
00000000
00100000
00010000
,
00001000
00000010
00000100
00000000
00001001
00000000
00000100
00000020
,
00000000
00000130
00000010
00000000
00000001
00000100
00001000
00000000
,
00000100
00001000
00010000
00000000
00022000
00000000
00033000
00000000
,
00000000
00011000
00000000
00000000
00011000
00000000
00000000
00000000
,
00010000
01000000
00100000
00000000
00010000
01000000
00100000
00000000
,
00000000
10010000
00000000
00000000
10010000
00000000
00000000
00000000
,
00010000
10000000
01000000
00000000
10000000
00010000
01000000
00000000
,
20100000
00010000
00100000
00010000
,
32000000
00010000
10000000
00010000
,
03200000
01000000
00001000
01000000
,
00320000
01000000
00001000
01000000
,
00032000
00010000
00000010
00010000
,
00003200
00000010
00001000
00000010
,
00000320
00000001
00000100
00000001
,
00000032
00000100
00001000
00000100
,
00000013
00000001
00001000
00010000
,
00000100
00010000
00001000
00000100
,
00000010
00001000
00010000
00001000
,
00010000
00100000
00010000
00001000
,
00010000
00001000
01000000
00000000
00010000
00000000
01000000
00000000
,
00100000
10000000
01000000
00000000
10000000
00000000
01000000
00000000
,
00010000
01000000
10000000
00100000
00010000
00000000
00100000
00000000
,
01000000
00010000
00100000
00000000
00010000
10000000
01000000
00000000
,
11000000
11000000
01010000
01010000
,
00101000
00101000
00011000
00011000
,
00001000
00000100
00000001
00000000
00000100
00000001
00000010
00000000
,
00000001
00000010
00001000
00000000
00000010
00001000
00010000
00000000
,
00001000
00010000
01000000
00000000
00010000
01000000
10000000
00000000
,
00100000
10000000
01000000
00000000
10000000
00100000
01000000
00000000
,
00100000
10000000
01000000
00010000
00001000
00010000
01000000
00000000
,
00010000
01000000
00010000
00001000
00000100
00000001
00000010
00000000
,
00000101
00001100
00000101
00001000
,
00011000
00000000
00010100
00000000
00011000
00000000
01000000
00010000
,
01010000
01001000
01010000
01000000
,
11000000
01010000
11000000
01000000
,
10100000
00000000
00110000
00000000
10100000
00000000
00100000
00010000
,
00001000
00000010
00000100
00000000
00001001
00000000
00000100
00000020
,
00000000
00000130
00000010
00000000
00000001
00000100
00001000
00000000
,
00000100
00001000
00010000
00000000
00022000
00000000
00033000
00000000
,
10100000
00110000
10100000
00010000
,
00011000
00000000
00101000
00000000
00011000
00000000
00000010
00001000
,
00001010
00010010
00001010
00000010
,
00000011
00001010
00000011
00000010
,
00000101
00000000
00001100
00000000
00000101
00000000
00000100
00001000
,
00010000
01000000
00100000
00000000
10010000
00000000
00100000
02000000
,
00000000
03100000
01000000
00000000
10000000
00100000
00010000
00000000
,
00100000
00010000
00001000
00000000
00022000
00000000
00033000
00000000
,
00100000
00000000
00010000
00000000
01000000
10000000
01000000
00010000
,
01010000
01010000
01100000
00000000
,
00110000
00000000
00011000
00000000
00010000
00001000
00000100
00000001
,
00001001
00000000
00001001
00000000
00000110
00000000
00000010
00001000
,
00001010
00000000
00011000
00000000
00110000
00000000
00100000
00010000
,
00001000
00000100
00000010
00000000
00001001
00000000
00000100
00000020
,
00000000
00000130
00000010
00000000
00001000
00000010
00000100
00000000
,
00000100
00001000
00010000
00000000
00001000
00010000
00100000
00000000
,
10010000
00000000
00000000
00000000
,
00000000
00000000
00000000
00000000
;

//---------------dance-double - ----------------
#NOTES:
     dance-double:
     :
     Challenge:
     13:
     :
00000000
00000000
00000000
00000000
,
00000000
00000000
00000000
00000000
,
00000000
00000000
00000000
00000000
,
00000000
00000000
00000000
00000000
,
00000000
00000000
00000000
00000000
,
00000000
00020000
00000000
00000000
00031000
00000000
00000000
00000000
,
00000000
00000100
00000010
00000000
00000001
00000100
00000011
00000000
,
00000000
00002000
00000000
00000000
00000200
00000000
00000000
00003300
,
00000000
01000000
00100000
00000000
10000000
01000000
10100000
00000000
,
00010000
00000000
10000000
00000000
00100000
01000000
00100000
10000000
,
00000000
01000000
00100000
00010000
00101000
00000000
00110000
00000000
,
00100000
00010000
01000000
00000000
00100000
00010000
00001000
00000100
,
00000000
00000100
00000010
00001000
00001010
00000000
00000110
00000000
,
00000010
00001000
00000100
00000000
00000010
00001000
00010000
01000000
,
00000000
01000000
10000000
00100000
01010000
00000000
01100000
00000000
,
10000000
10000000
00100000
00010000
00100000
00100000
00010000
00001000
,
00010000
00010000
00001000
00000100
00000010
00000000
00001001
00000000
,
00000100
00001000
00000000
00001000
00010000
00000000
00011000
00000000
,
00100000
00010000
00001000
00000000
00100000
00010000
00001000
00000000
,
00000100
00001000
00000000
00001000
00010000
00000000
00011000
00000000
,
00000010
00001000
00010000
00000000
00000010
00001000
00010000
00001000
,
00011000
00000000
00110000
00000000
01100000
00000000
01000000
00100000
,
00110000
00000000
01010000
00000000
00011000
00000000
00001000
00000100
,
00000110
00000000
00000011
00000000
00000110
00000100
00000010
00001000
,
00010000
00001000
00000010
00000001
00001000
00000000
00001000
00000100
,
00000101
00000000
00001010
00000000
00011000
00000000
00010000
01000000
,
10000000
01000000
00010000
01000000
11000000
00000000
00100000
01000000
,
00000000
01000000
00200000
00000000
02300000
00000000
03002000
00000000
,
00013000
00100000
00010000
00001000
00100000
00000000
00101000
00000000
,
01000000
00100000
00000000
00100000
00010000
00000000
00011000
00000000
,
00100000
00010000
00001000
00000000
00100000
00010000
00001000
00000000
,
00000100
00000010
00000000
00000010
00001000
00000000
00011000
00000000
,
00000010
00001000
00010000
00000000
00000010
00001000
00010000
00000000
,
00010000
00100000
00010000
00100000
10000000
00100000
10000000
00100000
,
01000000
00010000
01000000
00010000
00100000
00001000
00100000
00001000
,
00000100
00000001
00000100
00000001
00000010
00001000
00000010
00001000
,
00000010
00000001
00000010
00000001
00000100
00000001
00000100
00000001
,
00000100
00010000
00000100
00010000
00001000
00100000
00001000
00100000
,
01000000
00010000
01000000
00010000
00100000
10000000
00100000
10000000
,
00100000
00010000
00100000
00010000
01000000
00001000
01000000
00001000
,
00000100
00000001
00000100
00000001
00001000
00000010
00001000
00000010
,
00000002
00001000
00000010
00001003
,
00000020
00001000
00000001
00000130
,
00002000
00103000
00020000
00030010
,
00002000
01003000
00020000
00030100
,
00000200
00010000
00000010
00000301
,
00000200
00000001
00000010
00001300
,
00010000
00001000
00000100
00001000
00010000
00000100
00000010
00001000
,
00010000
01000000
00100000
00010000
00001000
00000100
00000010
00000000
,
00001000
00010100
00001000
00000011
,
00000100
00000110
00001000
00001100
,
00010000
00001000
01000000
00000000
00100000
10000000
01000000
00000000
,
01000000
00010000
00001000
00000000
00010000
00001000
00000010
00000000
,
00000100
00001000
00000010
00000000
00000100
00000001
00000010
00000000
,
00000001
00000100
00001000
00000000
00000001
00000010
00001000
00000000
,
00010000
00001000
00000010
00000000
00000100
00000001
00000010
00000000
,
00000100
00001000
00000010
00000000
00000010
00010000
00000100
00010000
,
00011000
00000000
00110000
00000000
01100000
00000000
01000000
00100000
,
00110000
00000000
01010000
00000000
00011000
00000000
00001000
00000100
,
00000110
00000000
00000011
00000000
00000110
00000100
00000010
00001000
,
00010000
00001000
00000010
00000001
00001000
00000000
00001000
00000100
,
00000101
00000000
00001010
00000000
00011000
00000000
00010000
01000000
,
10000000
01000000
00010000
01000000
11000000
00000000
00100000
01000000
,
00000000
01000000
00100000
00000000
00100000
10000000
01000000
00100000
,
00110000
00000000
01100000
00000000
11000000
00000000
00100000
00001000
,
00011000
00000000
00001100
00000000
00000110
00000000
00000010
00000100
,
00001100
00000000
00001010
00000000
00011000
00000000
00010000
00100000
,
01100000
00000000
11000000
00000000
01100000
00100000
01000000
00010000
,
00001000
00010000
01000000
10000000
00010000
00000000
00010000
00100000
,
10100000
00000000
01010000
00000000
00011000
00000000
00001000
00000010
,
00000001
00000010
00001000
00000010
00000011
00000000
00000100
00000010
,
00000000
00000010
00000100
00000000
00000100
00000001
00000010
00000100
,
00001100
00000000
00000110
00000000
00000011
00000000
00000010
00000001
,
00000011
00000000
00000110
00000000
00000011
00000001
00000100
00001000
,
00010000
01000000
10000000
00100000
10100000
00000000
01000000
00010000
,
01100000
00000000
10010000
00000000
01100000
01000000
00010000
00100000
,
10000000
00100000
00001000
00000100
00000101
00000000
00000100
00000001
,
00000011
00000000
00001100
00000000
00001010
00000100
00000001
00000010
,
00001000
00010000
00100000
10000000
01000000
00000000
01000000
00100000
,
00010000
01000000
00100000
00000000
00010000
00100000
10000000
00100000
,
00010000
00001000
00000100
00000010
00000200
00000000
00000310
00000000
,
00001001
00000000
00000000
00000000
,
00000000
00000000
00000000
00000000
;
