
//----- song id: ckpp
#TITLE:ちくわパフェだよ☆CKP;
#ARTIST:日向美ビタースイーツ♪;
#TITLETRANSLIT:Chikuwa parfait da yo☆CKP;
#ARTISTTRANSLIT:Hinatabi Bittersweets♪;
#BANNER:Chikuwa parfait da yo CKP.png;
#BACKGROUND:Chikuwa parfait da yo CKP-bg.png;
#CDTITLE:./CDTitles/DDR (2013).png;
#MUSIC:Chikuwa parfait da yo CKP.ogg;
#SAMPLESTART:76.612;
#SAMPLELENGTH:15;
#BPMS:0=205;
#NOTES:
     dance-single:
     :
     Beginner:
     4:
     :
0000
0000
0000
0000
,
0000
0000
0000
0000
,
0000
0000
0000
0000
,
0000
0000
0000
0000
,
0000
0000
0000
0000
,
0000
0000
0000
0000
,
0000
0000
0000
0000
,
0001
0000
0000
0001
,
0000
0000
1000
0000
,
0000
1000
0000
0000
,
0001
0000
0000
1000
,
0000
0000
0001
0000
,
0000
1000
0000
0000
,
0010
0000
0000
0000
,
1000
0000
0100
0000
,
0010
0000
0000
0000
,
0001
0000
0100
0000
,
1000
0000
1000
0000
,
0001
0000
0001
0000
,
1000
0000
0001
0000
,
1001
0000
0000
0000
,
0010
0000
0000
0000
,
0000
0000
0000
0000
,
0000
0000
0000
0000
,
0010
0000
0000
0000
,
1000
0000
0000
0000
,
0001
0001
0001
0000
,
0001
0000
0000
0000
,
1000
0000
0000
0000
,
0010
0000
0000
0000
,
0000
0000
0000
0000
,
0000
0000
0000
0000
,
0100
0000
0000
0000
,
0001
0000
0000
0000
,
0010
0010
0010
0000
,
1000
0000
0000
0000
,
0010
0000
0000
0000
,
0000
0000
1000
0000
,
1000
0000
0001
0000
,
0001
0001
0000
1000
,
0000
0001
0000
0000
,
0000
1000
0000
1000
,
0000
0001
0000
0001
,
0001
0000
1000
0000
,
0000
0000
0000
0000
,
0000
0000
0010
0000
,
0000
1000
1000
1000
,
0000
0000
0001
0001
,
0001
0000
0000
0010
,
0010
0010
0000
0000
,
0100
0100
0100
0000
,
0000
1000
0000
0000
,
0000
0010
0000
0000
0000
0000
0000
0000
,
0000
0001
0000
0000
0000
0000
0000
0000
,
0000
1000
0000
0000
,
0000
0000
0001
0000
,
0001
0000
1000
0000
,
1000
0000
0001
0000
,
1000
0000
0001
0000
,
1000
0000
0001
0000
,
0000
0000
0000
0000
,
0000
0000
0000
0000
,
0010
0000
0000
0000
,
0100
0000
0000
0000
,
0001
0000
1000
0000
,
0001
0001
0000
0000
,
0010
0000
1000
0000
,
0001
0001
0001
0000
,
0010
0000
0001
0000
,
1000
1000
1000
0000
,
0001
0000
0010
0000
,
1000
0000
0010
0000
,
0001
0000
0000
0000
,
1000
0000
0000
0000
,
0100
0000
0001
0000
,
1000
1000
1000
0000
,
0100
0000
1000
0000
,
0001
0001
0001
0000
,
0010
0000
0001
0000
,
0100
0000
1000
0000
,
1001
0000
0000
0000
,
0000
0000
0000
0000
,
1001
0000
0000
0000
,
0000
0000
0000
0000
,
0001
0000
0001
0000
,
0010
0000
0010
0000
,
1000
0000
1000
0000
,
0100
0000
0000
0000
,
0001
0000
0000
1000
,
0000
0000
0001
0000
,
0000
1000
0000
0000
,
0010
0000
0000
0100
,
0000
0000
0010
0000
,
0000
0100
0000
0000
,
0000
0000
0000
0000
,
1001
0000
0000
0000
,
0010
0010
0010
0000
,
0000
0000
0000
0000
;
#NOTES:
     dance-single:
     :
     Easy:
     7:
     :
0000
0000
0000
0000
,
0000
0000
0000
0000
,
0000
0000
0000
0000
,
0000
0000
0000
0000
,
0000
0000
0000
0000
,
0000
0000
0000
0000
,
0000
0000
0000
0000
,
0001
0001
0001
1000
,
1000
1000
0010
0010
,
0010
0100
0100
0100
,
1000
1000
1000
0001
,
0001
0001
0010
0010
,
0010
0001
0001
0000
,
1000
0001
0100
0000
,
0001
1000
0100
0000
,
0010
0001
0100
0000
,
0010
1000
0100
0000
,
1000
0000
0001
0000
,
0010
0000
0100
0000
,
1000
0000
0000
0000
0001
0000
0000
1000
,
0000
0000
0000
0000
,
1001
0000
0000
0000
,
0000
0000
0000
0000
,
0000
0000
0000
0000
,
1000
0000
0000
1000
0000
0000
0000
0000
,
0001
1000
0100
0000
,
0010
0000
0010
0000
,
1000
0000
0001
0000
1000
0000
0000
0010
,
0000
0000
0000
0000
,
1001
0000
0010
0000
,
0000
0000
0010
0000
,
0000
0000
0010
0000
,
0001
0000
0000
0001
0000
0000
0000
0000
,
0010
0100
0001
0000
,
0010
1000
0001
0000
,
1000
0000
0100
0000
0010
0000
0000
0100
,
0000
0000
0001
0000
,
0000
0000
1000
0000
,
0001
0000
1000
0000
,
0010
0010
0000
1000
,
0000
0001
0000
0000
,
0000
1000
0000
0001
,
0000
1000
0000
0010
,
0010
0000
1000
0000
,
0000
0000
0000
0000
,
0000
0000
2000
0000
,
3000
0100
0100
0002
,
0000
0003
0100
0100
,
2000
0000
3000
0100
,
0100
0002
0000
0003
,
0100
0000
0100
0000
0001
0000
0000
1000
,
0000
0001
0001
1000
,
0000
0001
0000
0001
0000
0000
1000
0000
,
0000
0001
0000
0001
0000
0001
0000
1000
,
0000
0001
0001
0001
,
0000
1000
0000
0000
1000
0000
0000
0000
,
0010
0000
0001
0000
,
0100
0000
0000
0001
0000
0000
0001
0000
,
0000
1000
0000
0000
1000
0000
0001
0000
,
0010
1000
0100
0010
,
0200
0000
0000
0000
,
0000
0000
0000
0300
,
1000
0000
0000
0000
,
0010
0000
0000
0000
,
0100
0000
0001
0000
,
1000
1000
0000
0000
,
0010
1000
0010
0000
,
1000
0100
0010
0000
,
0010
0010
0001
1000
,
0001
0000
0100
0100
,
0010
0000
0010
0000
,
0010
0001
0100
0000
,
0001
0000
1000
0000
,
0001
0000
1000
1000
,
0010
0001
0010
0000
,
0001
0100
0010
0000
,
0010
0010
1000
0001
,
1000
0000
0100
0100
,
0010
0000
0010
0000
,
0010
1000
0200
0000
,
0020
0330
0001
0000
,
0100
0000
0100
0000
,
0010
0000
0100
0000
,
1000
0000
1000
0000
,
0200
0000
0000
0000
,
0300
0000
0000
0000
,
0000
0000
0000
0000
,
0020
0000
0000
0030
,
0001
0001
0001
1000
,
1000
1000
0010
0010
,
0010
0100
0100
0100
,
1000
1000
1000
0001
,
0001
0001
0010
0010
,
0010
0001
0001
0000
,
1001
0000
0000
0000
,
0010
0000
0000
0001
0000
0001
0000
0001
,
0000
1000
0001
2000
0000
0000
0000
0000
,
0000
0000
0000
0000
,
3000
0000
0000
0000
,
0000
0000
0000
0000
;
#NOTES:
     dance-single:
     :
     Medium:
     9:
     :
0000
0000
0000
0000
,
0000
0000
0000
0000
,
0000
0000
0000
0000
,
0000
0000
0000
0000
,
0000
0000
0000
0000
,
0000
0000
0000
0000
,
0000
0000
0000
0000
,
0010
1000
0100
0010
,
0001
0100
0101
0101
,
0101
1100
1100
1100
,
0010
0001
0100
0010
,
1000
0100
0110
0110
,
0110
1000
0001
1000
,
0010
0001
0100
0001
,
0000
0100
0010
0100
,
0010
1000
0100
1000
,
0000
0100
0010
0100
,
0001
0010
1000
0010
,
0001
0100
1000
0100
,
0001
0000
0000
0000
1000
0000
0000
2002
,
0000
0000
0000
3003
,
0010
0010
0000
0000
1000
0000
0000
0000
,
0000
0000
1000
0000
,
0000
0000
1000
0000
,
0001
1000
0000
0001
0000
0000
0010
0000
,
1000
0000
0001
0000
0100
0000
0000
0010
,
0000
0001
1000
0100
,
0001
0000
0001
0000
1000
0000
0000
0010
,
0000
0001
1000
0000
,
0010
0010
0000
0000
0100
0000
0000
0000
,
1000
0100
0010
0000
,
0001
0100
0010
0000
,
1000
0001
0000
1000
0000
0000
0001
0000
,
0010
0000
0100
0000
1000
0000
0000
0010
,
0000
0001
1000
1000
,
0001
0000
0100
0000
0010
0100
0000
0200
,
0000
0300
0010
1000
,
1000
0100
0010
0001
,
0010
0100
1000
0100
,
0010
0010
0001
1000
,
0010
0001
0100
0010
,
1000
0100
0001
0010
,
1000
0100
0010
0001
,
0001
0100
0010
1000
,
0000
0000
0000
0000
,
0000
0000
0000
0000
0010
0000
0000
1000
,
0000
0001
1001
0010
,
0000
0001
0000
0000
1000
0000
1001
0000
,
0100
0000
0000
1000
0000
0000
0001
0000
,
1001
0000
0100
0000
0000
0001
0000
0000
,
1000
0000
1001
0000
0010
0000
0100
0010
,
0000
0000
0100
0000
0010
0100
0010
0000
,
0000
0100
0000
0100
0000
0010
0100
0000
,
0000
0010
0000
0010
0000
0100
0010
0100
,
0000
0010
0010
0010
,
0100
0010
0000
0000
0001
0000
0000
0000
,
0010
0000
1000
0000
,
0100
0000
0000
1000
0000
0000
1000
0000
,
0000
0001
0000
0000
0001
0000
1000
0000
,
0010
0001
0100
0010
,
0200
0000
0000
0000
,
0000
0000
0000
0300
,
0001
0000
0000
0010
0000
0000
0100
0000
,
0010
0000
0000
0100
0000
0000
1000
0000
,
0100
0001
0010
1000
,
0001
1000
0001
0000
0000
0000
0000
0000
,
0010
0001
0010
1000
,
0001
0000
0100
0000
0010
1000
0200
0000
,
0010
0000
0310
0000
1000
0000
0001
1000
,
0000
1000
0100
0001
,
0010
0001
0010
0100
,
0010
0000
1000
0000
0100
0000
0000
1000
,
0000
0001
1000
0000
0010
0000
0100
0010
,
0000
1000
0001
1000
,
0010
1000
0010
0001
,
1000
0000
0100
0000
0010
0001
0200
0000
,
0010
0000
0310
0000
0001
0000
1000
0001
,
0000
0001
0100
1000
,
0010
1000
0010
0100
,
0010
0001
0200
0000
,
0020
0330
1000
0010
,
0100
0001
0100
0000
,
0010
0000
0100
0010
,
0001
1000
0001
0010
,
0100
0000
1000
0000
,
0010
0000
0001
0000
,
0100
0000
1000
0000
,
0020
0000
0000
0030
,
0010
1000
0100
0010
,
0001
0100
0101
0101
,
0101
1100
1100
1100
,
0010
0001
0100
0010
,
1000
0100
0110
0110
,
0110
1000
0001
1000
,
0002
0000
2000
3003
,
0010
0000
0000
1000
0000
0100
0000
0010
,
0000
0001
1000
0002
0000
0000
0000
0000
,
0000
0000
0000
0000
,
0003
0000
0000
0000
,
0000
0000
0000
0000
;
#NOTES:
     dance-single:
     :
     Hard:
     12:
     :
0000
0000
0000
0000
,
0000
0000
0000
0000
,
0000
0000
0000
0000
,
0000
0000
0000
0000
,
0000
0000
0000
0000
,
0000
0000
0000
0000
,
0000
0000
0000
0000
,
1010
1001
1100
0011
,
1001
0101
1100
0110
,
0101
1100
0110
0101
,
0011
1001
0101
1010
,
1001
1100
0101
0110
,
1100
0001
1000
0001
,
0010
0000
1000
0000
0100
1000
0000
1000
,
0000
0001
0100
0000
0010
1000
0100
0000
,
0010
0000
0001
0000
0100
0001
0000
0001
,
0000
1000
0100
0000
0010
0001
0100
0000
,
1000
0010
0001
0010
,
1000
0100
0001
0100
,
1000
0000
0000
0000
0001
0000
0000
2002
,
0000
0000
0000
3003
,
0010
0010
0000
0000
0100
0000
0000
0000
,
0000
0000
0100
0000
,
0000
0000
0100
0000
,
0010
1000
0000
0001
0000
0000
0010
0000
,
0001
0000
1000
0000
0100
0010
0000
0010
,
0000
0001
1000
0100
0001
0000
0100
0000
,
1000
0000
1000
0000
0001
0010
0000
0001
,
0000
0000
1000
0001
0100
0000
0000
0000
,
0010
0010
0000
0000
0100
0000
0000
0000
,
0001
0100
0010
0000
,
1000
0100
0010
0000
,
0001
1000
0000
0001
0000
0000
1000
0000
,
0010
0000
0100
0000
0001
0100
0000
0010
,
0000
1000
0001
0010
,
1000
0000
0100
0000
0010
0001
0100
0020
,
0000
0030
0110
0001
,
1000
0000
0100
0010
0100
0000
0010
0001
,
0010
0000
0001
1000
0001
0000
0100
0010
,
0100
0000
0100
0000
0010
1000
0010
0000
,
1000
0001
1000
0000
1000
0000
0001
0010
,
0001
0000
0110
0000
1000
0010
1000
0000
,
0001
0100
0001
0000
1000
0100
1000
0000
,
1000
0000
0100
0010
0100
0000
0010
0001
,
0000
0000
0000
0000
,
0000
0000
0000
0000
1000
0000
0100
0010
,
0000
0001
0010
0000
0110
0000
0001
0000
,
0100
0010
0000
1000
0010
0000
0110
0000
,
1000
0000
0100
0010
0000
0001
1000
0000
,
0110
0000
0001
0000
0100
0010
0000
1000
,
0001
0000
0110
0000
1000
0001
0100
0010
,
0000
0000
0001
1000
0001
0100
0010
0000
,
0000
1000
0001
1000
0001
0100
0010
0000
,
0000
0001
1000
0001
1000
0001
0100
0010
,
0000
0000
1000
0001
1000
0001
1000
0001
,
0100
0010
0000
0000
1000
0000
0000
0000
,
0010
0000
0001
0000
,
0100
0000
0000
0001
0000
0000
0010
0000
,
0000
0100
0000
0000
1000
0000
0001
0000
,
0010
0000
0000
1000
0000
0000
0100
0000
0010
0000
0010
0000
,
0100
0100
0010
0000
0001
0000
1000
0100
,
1000
0100
1000
0000
0001
0010
0100
0000
,
1000
0000
0100
0010
0000
0001
0100
0000
,
0010
0000
1000
0100
0000
0010
0001
0000
,
0100
1000
0010
0001
,
1000
0001
1000
0000
0000
0000
0000
0000
,
0010
0000
1000
0001
0000
0010
0001
1000
,
0000
0001
0100
0000
0010
1000
0200
0000
,
0001
0000
1300
0000
0001
0010
0100
1000
,
0000
0001
0100
1000
,
0010
0000
1000
0100
0000
0010
0100
0000
,
0010
0000
0001
0000
0100
0000
0000
0001
,
0000
1000
0001
1000
0010
0100
0010
0100
,
0000
0001
0010
1001
,
0010
0000
0001
1000
0000
0010
1000
0001
,
0000
1000
0100
0000
0010
0001
0200
0000
,
1000
0000
0301
0000
1000
0010
0100
0001
,
0000
1000
0100
0001
,
0010
0000
0001
0100
0000
0010
0100
0000
,
0010
1000
0200
0000
,
0020
0330
0001
0010
,
0100
0000
1000
0100
0000
0010
0100
0000
,
0010
0000
0001
0000
0100
0000
0010
1000
,
0000
0001
1000
0010
,
0100
0100
0001
0001
,
0010
0010
1000
1000
,
0100
0100
0001
0001
,
0020
0000
0000
0030
,
1010
1001
1100
0011
,
1001
0101
1100
0110
,
0101
1100
0110
0101
,
0011
1001
0101
1010
,
1001
1100
0101
0110
,
1100
0001
0100
0001
,
2000
0000
0002
3003
,
0010
0001
0000
0100
0000
0010
0000
1000
,
0000
0001
1000
0002
0000
0000
0000
0000
,
0000
0000
0000
0000
,
0003
0000
0000
0000
,
0000
0000
0000
0000
;
#NOTES:
     dance-single:
     :
     Challenge:
     14:
     :
0000
0000
0000
0000
,
0000
0000
0000
0000
,
0000
0000
0000
0000
,
0000
0000
0000
0000
,
0000
0000
0000
0000
,
0000
0000
0000
0000
,
0000
0000
0000
0000
,
0101
1010
0110
0101
,
1010
0110
0101
0110
,
1010
0101
0110
1010
,
1100
0011
0110
1100
,
0011
0110
1100
0110
,
0011
1100
1001
0000
,
1000
0100
1000
0001
0000
0010
0000
0001
,
0000
0000
1000
0010
1000
0000
0001
0000
1000
0000
0010
0000
0100
0000
0001
0000
,
1000
0100
1000
0001
0000
1010
0000
1100
,
0000
0000
0001
0000
0100
0000
0001
0000
1000
0000
0010
0100
0010
0000
0001
0000
,
0010
0100
0001
0100
0000
0001
1000
0100
,
0000
0000
1000
0000
0100
0000
0010
0000
0001
0010
0001
0010
0001
0000
0010
0000
,
0011
0000
0000
0000
1010
0000
0000
1001
,
0000
1000
0010
0100
0001
0000
0110
0000
,
1000
0100
1000
0001
0010
0001
0100
0010
,
1000
0100
1000
0001
0010
0001
0100
0010
,
0100
0001
0100
0010
0100
1000
0100
0010
,
1000
1000
0000
0100
0000
0000
1001
0000
,
1000
0000
0100
1000
0100
1000
0000
0001
,
0000
1000
0100
1000
0010
0100
0001
0010
,
0001
1000
0000
0001
0000
0110
0000
0110
,
0000
1000
0001
0100
0000
0000
1001
0000
,
0001
0100
0001
1000
0010
1000
0100
0010
,
0001
0100
0001
1000
0010
1000
0100
0010
,
0100
1000
0100
0010
0100
0001
0100
0010
,
0001
0001
0000
0100
0000
0000
1001
0000
,
1000
0000
0100
0000
1000
0001
0000
1000
,
0000
0000
0100
0000
0010
0100
1000
0010
,
1000
0000
0001
1000
0000
0110
0000
0110
,
0000
0001
1000
0000
0110
0000
0001
0000
,
0001
0000
0010
0100
0010
0000
0100
1000
,
0100
0000
1000
0001
1000
0000
0010
0100
,
0010
0000
0110
0000
0100
0001
0100
0000
,
0001
1000
0001
0000
1001
0000
1000
0100
,
1000
0000
0110
0000
0001
0100
0001
0000
,
1000
0010
1000
0000
0001
0010
0001
0000
,
0011
0000
0010
0100
0010
0000
0100
1000
,
0000
0000
0000
0000
0000
0000
1000
0100
,
1000
0100
1000
0010
1000
0000
0100
0010
,
0000
0001
0010
0000
0110
0000
0001
0000
,
0100
0010
0000
1000
0010
0000
0110
0000
,
1000
0000
0100
0010
0000
0001
1000
0000
,
0110
0000
0001
0000
0100
0010
0000
1000
,
0001
0000
0110
0000
1000
0001
0100
0010
,
0000
0000
0001
1000
0001
0100
0010
0000
,
0000
1000
0001
1000
0001
0100
0010
0000
,
0000
0001
1000
0001
1000
0001
0100
0010
,
0000
0000
1000
0001
1000
0001
1000
0001
,
0100
0010
0000
0000
1000
0100
0000
0000
,
0010
0100
0000
0000
0001
0010
0000
0000
,
0100
0010
0000
0011
0000
0000
0110
0000
,
0000
1100
0000
0000
0110
0000
0011
0000
,
0110
0000
1100
0000
1000
0100
1000
0001
,
0100
0010
0100
0010
0100
0000
0000
0000
0011
0000
0000
0000
1000
0000
0100
0000
,
1000
0100
1000
0000
0001
0010
0100
0000
,
1000
0100
1000
0001
0000
0010
0001
0100
,
0010
0001
0010
0100
0000
0001
0010
0100
,
1100
0011
0110
1001
,
1000
0000
0001
0000
1000
0100
1000
0000
0100
0000
1000
0000
0100
0000
1000
0000
,
0001
0000
1000
0100
0000
1000
0010
0100
,
0000
0001
1000
0000
0001
0100
0010
0100
,
0001
0000
1000
0000
0001
0010
0100
1000
,
0100
1000
0100
0010
0100
1000
0100
1000
,
0001
0000
0010
0001
0000
1000
0100
1000
,
0011
0000
0110
0000
1100
0000
1000
0001
,
0000
0000
1000
0000
0010
0000
0100
0000
0001
0000
0100
0000
0001
0000
1000
0100
,
1000
0000
0001
0000
0010
0000
0001
0010
0001
0000
1000
0000
0100
0000
1000
0000
,
0001
0010
0100
0010
0100
1000
0100
2000
,
0000
3001
0010
0002
0000
1003
0100
1000
,
0011
0000
0110
0000
1000
0100
0010
0011
,
0000
0011
0000
1100
0000
1000
0001
0010
,
0001
1000
0001
0100
0000
0010
0100
0010
,
0001
0010
1000
0000
0200
0000
0000
0000
,
0020
0330
0001
0010
,
0100
0000
1000
0100
0000
0010
0100
0000
,
0010
0000
0001
0000
0100
0000
0010
1000
,
0001
0010
0001
0000
1000
0001
0010
0000
,
1000
0001
0100
0001
0010
0001
0100
0001
,
0010
0000
0001
0000
0010
0000
0001
0000
1000
0000
0100
0000
1000
0000
0001
0010
,
0001
0000
0000
0000
1000
0000
0000
0000
0000
0001
0000
0000
0000
0000
0001
0000
,
0020
0100
0100
0130
,
0101
1010
0110
0101
,
1010
0000
0010
1000
0010
0001
0010
1000
,
1010
0101
0110
1010
,
1100
0011
0110
1100
,
0011
0000
0110
0000
1000
0100
1000
0010
,
0100
0001
0101
0000
1001
0000
0000
0000
,
1000
0000
0001
0000
0010
0001
0010
1000
,
0010
0001
0000
0100
0000
0010
0000
1000
,
0000
0001
1000
0200
0000
0000
0000
0000
,
0000
0000
0000
0000
,
0300
0000
0000
0000
,
0000
0000
0000
0000
;
#NOTES:
     dance-double:
     :
     Easy:
     7:
     :
00000000
00000000
00000000
00000000
,
00000000
00000000
00000000
00000000
,
00000000
00000000
00000000
00000000
,
00000000
00000000
00000000
00000000
,
00000000
00000000
00000000
00000000
,
00000000
00000000
00000000
00000000
,
00000000
00000000
00000000
00000000
,
00001000
00001000
00001000
00000001
,
00000001
00000001
00000010
00000010
,
00000010
00000100
00000100
00000100
,
00001000
00001000
00001000
00010000
,
00010000
00010000
00100000
00100000
,
00100000
01000000
01000000
00000000
,
00100000
10000000
00010000
00000000
,
00100000
00010000
10000000
00000000
,
01000000
00010000
00001000
00000000
,
00010000
00001000
00010000
00000000
,
00001000
00000000
00000010
00000000
,
00000001
00000000
00000100
00000000
,
00000010
00000000
00000000
00000000
00001000
00000000
00000000
00000001
,
00000000
00000000
00000000
00000000
,
00001001
00000000
00000000
00000000
,
00000000
00000000
00000000
00000000
,
00000000
00000000
00000000
00000000
,
00000010
00000000
00000000
00000010
00000000
00000000
00000000
00000000
,
00000100
00001000
00010000
00000000
,
00001000
00000000
00001000
00000000
,
00100000
00000000
00010000
00000000
01000000
00000000
00000000
00100000
,
00000000
00000000
00000000
00000000
,
10010000
00000000
00100000
00000000
,
00000000
00000000
00100000
00000000
,
00000000
00000000
00100000
00000000
,
10000000
00000000
00000000
10000000
00000000
00000000
00000000
00000000
,
01000000
00100000
00010000
00000000
,
00100000
00010000
00001000
00000000
,
00000100
00000000
00000010
00000000
00000001
00000000
00000000
00001000
,
00000000
00000000
00000001
00000000
,
00000000
00000000
00000100
00000000
,
00000010
00000000
00010000
00000000
,
00001000
00001000
00000000
01000000
,
00000000
00010000
00000000
00000000
,
00000000
10000000
00000000
01000000
,
00000000
00100000
00000000
00010000
,
00010000
00000000
10000000
00000000
,
00000000
00000000
00000000
00000000
,
00000000
00000000
00200000
00000000
,
00300000
10000000
10000000
00200000
,
00000000
00300000
00010000
00010000
,
02000000
00000000
03000000
00001000
,
00001000
00020000
00000000
00030000
,
00000010
00000000
00000010
00000000
00001000
00000000
00000000
00000001
,
00000000
00000010
00000010
00000100
,
00000000
00001000
00000000
00001000
00000000
00000000
00000001
00000000
,
00000000
00000010
00000000
00000010
00000000
00000010
00000000
00000100
,
00000000
00010000
00010000
00010000
,
00000000
00001000
00000000
00000000
01000000
00000000
00000000
00000000
,
00100000
00000000
10000000
00000000
,
01000000
00000000
00000000
00010000
00000000
00000000
00010000
00000000
,
00000000
00001000
00000000
00000000
00001000
00000000
00001000
00000000
,
00000010
00000001
00000100
00000010
,
00000200
00000000
00000000
00000000
,
00000000
00000000
00000000
00000300
,
00000001
00000000
00000000
00000000
,
00000010
00000000
00000000
00000000
,
00000100
00000000
00001000
00000000
,
00000001
00000001
00000000
00000000
,
00000100
00000010
00001000
00000000
,
00000100
00010000
00001000
00000000
,
00010000
00010000
00100000
01000000
,
00010000
00000000
00100000
00100000
,
10000000
00000000
00010000
00000000
,
10000000
01000000
00100000
00000000
,
00001000
00000000
00010000
00000000
,
00001000
00000000
00000100
00000100
,
00000010
00001000
00000010
00000000
,
00001000
00000100
00000010
00000000
,
00000001
00000001
00001000
00000010
,
00001000
00000000
00000100
00000100
,
00000010
00000000
00001000
00000000
,
00000100
00010000
00002000
00000000
,
00020000
00033000
00001000
00000000
,
00100000
00000000
00100000
00000000
,
00010000
00000000
00100000
00000000
,
01000000
00000000
10000000
00000000
,
00020000
00000000
00000000
00000000
,
00030000
00000000
00000000
00000000
,
00000000
00000000
00000000
00000000
,
00200000
00000000
00000000
00300000
,
10000000
10000000
10000000
01000000
,
01000000
01000000
00010000
00010000
,
00010000
00001000
00001000
00001000
,
00000100
00000100
00000100
00000001
,
00000001
00000001
00000010
00000010
,
00000010
00000001
00000001
00000000
,
00001001
00000000
00000000
00000000
,
00000010
00000000
00000000
00001000
00000000
00001000
00000000
00001000
,
00000000
00000100
00000010
00000200
00000000
00000000
00000000
00000000
,
00000000
00000000
00000000
00000000
,
00000300
00000000
00000000
00000000
,
00000000
00000000
00000000
00000000
;
#NOTES:
     dance-double:
     :
     Medium:
     9:
     :
00000000
00000000
00000000
00000000
,
00000000
00000000
00000000
00000000
,
00000000
00000000
00000000
00000000
,
00000000
00000000
00000000
00000000
,
00000000
00000000
00000000
00000000
,
00000000
00000000
00000000
00000000
,
00000000
00000000
00000000
00000000
,
00100000
00001000
00010000
00000010
,
00010000
00001000
01010000
01010000
,
01010000
00011000
00011000
00011000
,
00000010
00010000
00001000
00100000
,
00001000
00010000
00001100
00001100
,
00001100
00010000
00001000
00010000
,
01000000
10000000
00100000
10000000
,
00000000
00010000
01000000
00100000
,
10000000
01000000
00010000
00001000
,
00000000
00000010
00000001
00001000
,
00000001
00000100
00001000
00000100
,
00000001
00000010
00001000
00000010
,
00010000
00000000
00000000
00000000
00001000
00000000
00000000
00022000
,
00000000
00000000
00000000
00033000
,
01000000
01000000
00000000
00000000
00010000
00000000
00000000
00000000
,
00000000
00000000
00010000
00000000
,
00000000
00000000
00010000
00000000
,
10000000
00010000
00000000
10000000
00000000
00000000
01000000
00000000
,
00010000
00000000
00010000
00000000
00001000
00000000
00000000
00010000
,
00000000
00000010
00001000
00000100
,
00000010
00000000
00000001
00000000
00000100
00000000
00000000
00000010
,
00000000
00001000
00001000
00000000
,
00000100
00000100
00000000
00000000
00010000
00000000
00000000
00000000
,
00001000
00010000
01000000
00000000
,
10000000
00010000
01000000
00000000
,
00010000
10000000
00000000
00010000
00000000
00000000
10000000
00000000
,
01000000
00000000
00100000
00000000
00010000
00000000
00000000
01000000
,
00000000
00100000
10000000
01000000
,
00100000
00000000
00010000
00000000
00001000
00000100
00000000
00000200
,
00000000
00000300
00000010
00000001
,
00000001
00000010
00000100
00001000
,
00000001
00000100
00001000
00010000
,
01000000
01000000
10000000
00010000
,
01000000
00100000
00100000
10000000
,
00100000
01000000
00010000
10000000
,
01000000
00010000
00001000
00000010
,
00000010
00000001
00001000
00000100
,
00000000
00000000
00000000
00000000
,
00000000
00000000
00000000
00000000
00000010
00000000
00000000
00010000
,
00000000
00000100
00011000
00100000
,
00000000
00001000
00000000
00000000
01000000
00000000
00011000
00000000
,
00000010
00000000
00000000
00010000
00000000
00000000
00000100
00000000
,
00011000
00000000
00100000
00000000
00000000
00001000
00000000
00000000
,
01000000
00000000
00011000
00000000
00100000
00000000
00010000
10000000
,
00000000
00000000
00100000
00000000
00010000
10000000
00010000
00000000
,
00000000
00100000
00000000
00100000
00000000
00010000
10000000
00000000
,
00000000
00100000
00000000
00100000
00000000
00010000
10000000
00010000
,
00000000
00100000
00100000
00100000
,
00010000
10000000
00000000
00000000
10000000
00000000
00000000
00000000
,
01000000
00000000
00010000
00000000
,
00001000
00000000
00000000
00000010
00000000
00000000
00000010
00000000
,
00000000
00000001
00000000
00000000
00000001
00000000
00000100
00000000
,
00000010
00001000
00000100
00010000
,
00002000
00000000
00000000
00000000
,
00000000
00000000
00000000
00003000
,
00100000
00000000
00000000
00010000
00000000
00000000
10000000
00000000
,
00100000
00000000
00000000
01000000
00000000
00000000
00010000
00000000
,
10000000
01000000
00010000
00001000
,
00010000
00001000
00010000
00000000
00000000
00000000
00000000
00000000
,
00001000
00000100
00000001
00001000
,
00000100
00000000
00000010
00000000
00000001
00001000
00000200
00000000
,
00000010
00000000
00000310
00000000
00001000
00000000
00010000
00001000
,
00000000
00010000
00100000
10000000
,
01000000
00010000
01000000
10000000
,
00010000
00000000
01000000
00000000
00100000
00000000
00000000
10000000
,
00000000
00010000
01000000
00000000
00001000
00000000
00010000
00001000
,
00000000
00010000
00001000
00000010
,
00001000
00000010
00000001
00001000
,
00000010
00000000
00000100
00000000
00000001
00001000
00000020
00000000
,
00000100
00000000
00000130
00000000
00001000
00000000
00010000
00001000
,
00000000
00010000
01000000
10000000
,
00100000
00010000
00100000
10000000
,
01000000
10000000
00020000
00000000
,
20000000
30030000
00010000
01000000
,
00100000
10000000
01000000
00000000
,
00100000
00000000
00001000
00010000
,
00001000
00000010
00000001
00001000
,
00000010
00000000
00000100
00000000
,
00000010
00000000
00000100
00000000
,
00000001
00000000
00001000
00000000
,
00000200
00000000
00000000
00000300
,
00000010
00010000
00001000
00100000
,
00001000
00010000
00001100
00001100
,
00001100
00011000
00011000
00011000
,
00100000
00001000
00010000
00000010
,
00010000
00001000
01010000
01010000
,
01010000
00001000
00010000
00001000
,
00200000
00000000
02000000
03300000
,
10000000
00000000
00000000
00010000
00000000
01000000
00000000
00100000
,
00000000
10000000
00010000
20000000
00000000
00000000
00000000
00000000
,
00000000
00000000
00000000
00000000
,
30000000
00000000
00000000
00000000
,
00000000
00000000
00000000
00000000
;
#NOTES:
     dance-double:
     :
     Hard:
     12:
     :
00000000
00000000
00000000
00000000
,
00000000
00000000
00000000
00000000
,
00000000
00000000
00000000
00000000
,
00000000
00000000
00000000
00000000
,
00000000
00000000
00000000
00000000
,
00000000
00000000
00000000
00000000
,
00000000
00000000
00000000
00000000
,
00000011
00000011
00000011
00001100
,
00001100
00001100
00001010
00001001
,
00001100
00001010
00001001
00001100
,
00011000
00011000
00011000
01010000
,
01010000
01010000
00110000
10010000
,
01010000
00100000
01000000
00100000
,
10000000
00000000
00010000
00000000
01000000
00100000
10000000
01000000
,
00000000
00100000
00010000
00000000
01000000
00001000
00010000
00000000
,
00000010
00000000
00001000
00000000
00000100
00001000
00000010
00001000
,
00000000
00000001
00000100
00000000
00000010
00001000
00000100
00000000
,
00000001
00000010
00001000
00010000
,
01000000
10000000
00100000
00010000
,
10000000
00000000
00000000
00000000
00010000
00000000
00000000
20020000
,
00000000
00000000
00000000
30030000
,
00100000
00100000
00000000
00000000
01000000
00000000
00000000
00000000
,
00000000
00000000
01000000
00000000
,
00000000
00000000
01000000
00000000
,
10000000
01000000
00000000
00010000
00000000
00000000
00001000
00000000
,
00010000
00000000
00001000
00000000
00000100
00000010
00001000
00000010
,
00000000
00001000
00000001
00000100
00000010
00000000
00001000
00000000
,
00000100
00000000
00000010
00000000
00000001
00000010
00000100
00001000
,
00000000
00000000
00000001
00001000
00000100
00000000
00000000
00000000
,
00010000
00010000
00000000
00000000
00001000
00000000
00000000
00000000
,
00100000
00001000
00010000
00000000
,
00000010
00010000
00001000
00000000
,
00010000
00100000
00000000
10000000
00000000
00000000
00010000
00000000
,
00100000
00000000
01000000
00000000
10000000
00010000
01000000
00100000
,
00000000
10000000
00100000
01000000
,
00010000
00000000
10000000
00000000
01000000
00100000
00010000
00200000
,
00000000
00300000
00001000
00010000
,
00000100
00000000
00001000
00000100
00000010
00000000
00000001
00000100
,
00000010
00000000
00001000
00000001
00001000
00000000
00000100
00000010
,
00000100
00000000
00000010
00000000
00000100
00001000
00000010
00000000
,
00000100
00001000
00010000
00000000
00001000
00000000
00010000
00100000
,
01000000
00000000
00010000
00000000
10000000
01000000
00100000
00000000
,
00010000
01000000
00100000
00000000
10000000
00010000
01000000
00000000
,
00100000
00000000
10000000
00010000
00100000
00000000
01000000
00100000
,
00000000
00000000
00000000
00000000
,
00000000
00000000
00000000
00000000
00010000
00000000
10000000
01000000
,
00000000
00100000
01000000
00000000
00110000
00000000
00001000
00000000
,
00010000
00000100
00000000
00000010
00000100
00000000
00001100
00000000
,
00000001
00000000
00000100
00000010
00000000
00001000
00000001
00000000
,
00000011
00000000
00000100
00000000
00010000
00001000
00000000
00100000
,
00010000
00000000
01100000
00000000
00010000
01000000
00100000
10000000
,
00000000
00000000
00010000
01000000
00100000
10000000
01000000
00000000
,
00000000
00010000
01000000
00100000
10000000
01000000
00100000
00000000
,
00000000
00010000
01000000
00100000
10000000
01000000
00100000
00001000
,
00000000
00000000
00010000
01000000
00100000
10000000
01000000
00100000
,
00001000
00010000
00000000
00000000
00001000
00000000
00000000
00000000
,
00000100
00000000
00000001
00000000
,
00000010
00000000
00000000
00000001
00000000
00000000
00001000
00000000
,
00000000
00000100
00000000
00000000
00010000
00000000
00001000
00000000
,
00100000
00000000
00000000
00010000
00000000
00000000
01000000
00000000
00100000
00000000
00100000
00000000
,
10000000
00010000
01000000
00000000
00100000
00000000
01000000
00010000
,
10000000
00010000
01000000
00000000
00100000
10000000
01000000
00000000
,
00100000
00000000
01000000
00010000
00000000
00001000
00010000
00000000
,
00000010
00000000
00001000
00000010
00000000
00000100
00000001
00000000
,
00000010
00000001
00000100
00001000
,
00000001
00001000
00000001
00000000
00000000
00000000
00000000
00000000
,
00000010
00000000
00001000
00000001
00000000
00000100
00000010
00001000
,
00000000
00000100
00010000
00000000
00001000
00010000
01000000
00000000
,
11000000
00000000
01010000
00000000
00010000
00100000
01000000
10000000
,
00000000
00100000
10000000
01000000
,
00010000
00000000
00001000
00010000
00000000
01000000
00010000
00000000
,
00001000
00000000
00000010
00000000
00000001
00000000
00000000
00001000
,
00000000
00000010
00001000
00000100
00000010
00000100
00001000
00000001
,
00000000
00001000
00000010
00011000
,
00100000
00000000
00010000
10000000
00000000
01000000
00100000
00010000
,
00000000
01000000
00001000
00000000
00010000
00001000
00000100
00000000
,
00000101
00000000
00001100
00000000
00001000
00000010
00000100
00000001
,
00000000
00000010
00000001
00000100
,
00001000
00000000
00010000
00001000
00000000
00000100
00001000
00000000
,
00010000
00100000
20000000
00000000
,
00020000
30030000
00100000
00010000
,
10000000
00000000
00100000
01000000
00000000
00010000
10000000
00000000
,
01000000
00000000
00010000
00000000
00001000
00000000
00000100
00000010
,
00000000
00001000
00000001
00000010
,
00000100
00000100
00010000
00010000
,
00000010
00000010
00000100
00000100
,
00001000
00001000
00010000
00010000
,
00002000
00000000
00000000
00003000
,
00110000
00110000
00110000
10100000
,
10100000
10100000
01010000
10010000
,
11000000
01010000
10010000
11000000
,
01100000
01100000
01100000
00110000
,
00110000
00110000
00101000
00011000
,
00010010
00001000
00000001
00000010
,
00000002
00000000
00002000
00003003
,
00000010
00001000
00000000
00000100
00000000
00000010
00000000
00000001
,
00000000
00000100
00000010
00002000
00000000
00000000
00000000
00000000
,
00000000
00000000
00000000
00000000
,
00003000
00000000
00000000
00000000
,
00000000
00000000
00000000
00000000
;
#NOTES:
     dance-double:
     :
     Challenge:
     14:
     :
00000000
00000000
00000000
00000000
,
00000000
00000000
00000000
00000000
,
00000000
00000000
00000000
00000000
,
00000000
00000000
00000000
00000000
,
00000000
00000000
00000000
00000000
,
00000000
00000000
00000000
00000000
,
00000000
00000000
00000000
00000000
,
00011000
00110000
01100000
01010000
,
10100000
01100000
01010000
00101000
,
00011000
00010100
00001100
00001010
,
00001100
00000011
00000110
00010100
,
00011000
00110000
11000000
01100000
,
00110000
00011000
00011000
00000000
,
00001000
00010000
00001000
00000100
00000000
00000010
00000000
00001000
,
00000000
00000000
00001000
00000010
00001000
00000000
00000001
00000000
00001000
00000000
00000010
00000000
00000100
00000000
00001000
00000000
,
00010000
01000000
10000000
00010000
00000000
10100000
00000000
11000000
,
00000000
00000000
00010000
00000000
01000000
00000000
00010000
00000000
10000000
00000000
00100000
01000000
00100000
00000000
00010000
00000000
,
00001000
00010000
00001000
00000100
00000000
00000001
00001000
00000100
,
00000000
00000000
00001000
00000000
00000100
00000000
00000010
00000000
00000001
00000010
00000001
00000010
00000001
00000000
00000010
00000000
,
00000011
00000000
00000000
00000000
00001100
00000000
00000000
00011000
,
00000000
00010000
00100000
01000000
00010000
00000000
01100000
00000000
,
10000000
01000000
10000000
00010000
00100000
00010000
01000000
00100000
,
10000000
01000000
10000000
00010000
00100000
00001000
00010000
00001000
,
00000100
00000001
00000100
00000010
00000100
00000001
00000100
00000010
,
00000100
00001000
00000000
00010000
00000000
00000000
00011000
00000000
,
00010000
00000000
01000000
10000000
01000000
10000000
00000000
00010000
,
00000000
10000000
01000000
00010000
00001000
00010000
00001000
00000010
,
00000001
00001000
00000000
00000001
00000000
00000110
00000000
00000110
,
00000000
00001000
00000100
00010000
00000000
00000000
00011000
00000000
,
00010000
01000000
10000000
00010000
00100000
00010000
01000000
00100000
,
10000000
01000000
10000000
00100000
00010000
00001000
00010000
00001000
,
00000100
00001000
00000100
00000010
00000100
00000001
00000100
00000010
,
00001000
00000001
00000000
00000100
00000000
00000000
00001001
00000000
,
00000001
00000000
00000100
00000000
00001000
00010000
00000000
01000000
,
00000000
00000000
10000000
00000000
00100000
01000000
00010000
00100000
,
00001000
00000000
00010000
00001000
00000000
00001100
00000000
00000110
,
00000000
00000001
00001000
00000000
00000110
00000000
00000001
00000000
,
00000001
00000000
00000010
00000100
00000010
00000000
00000100
00001000
,
00010000
00000000
00100000
00010000
10000000
00000000
00100000
01000000
,
00100000
00000000
01100000
00000000
00010000
00001000
00000100
00000000
,
00000001
00001000
00000001
00000000
00001001
00000000
00001000
00000100
,
00001000
00000000
00000110
00000000
00000001
00000100
00001000
00000000
,
00010000
00100000
01000000
00000000
00010000
00100000
00001000
00000000
,
00110000
00000000
00100000
01000000
00100000
00000000
00001000
00010000
,
00000000
00000000
00000000
00000000
00000000
00000000
00001000
00000100
,
00000001
00000100
00000001
00000010
00000001
00000000
00000100
00001000
,
00000000
00010000
00001000
00000000
00011000
00000000
00010000
00000000
,
01000000
00100000
00000000
00001000
00100000
00000000
00110000
00000000
,
10000000
00000000
01000000
00100000
00000000
00010000
00001000
00000000
,
00000110
00000000
00000001
00000000
00000100
00000010
00000000
00001000
,
00000001
00000000
00000110
00000000
00001000
00000001
00000100
00001000
,
00000000
00000000
00010000
00001000
00010000
01000000
00100000
00000000
,
00000000
00010000
01000000
00001000
00100000
01000000
00100000
00000000
,
00000000
00001000
00010000
00001000
00000100
00000001
00000100
00000010
,
00000000
00000000
00001000
00000010
00001000
00000001
00000100
00001000
,
00010000
00100000
00000000
00000000
10000000
01000000
00000000
00000000
,
00100000
01000000
00000000
00000000
00001000
00010000
00000000
00000000
,
00000100
00000010
00000000
00000011
00000000
00000000
00000110
00000000
,
00000000
00001100
00000000
00000000
00011000
00000000
00110000
00000000
,
01100000
00000000
11000000
00000000
10000000
01000000
10000000
00010000
,
01000000
00100000
01000000
00100000
01000000
00000000
00000000
00000000
01100000
00000000
00000000
00000000
10000000
00000000
01000000
00000000
,
10000000
01000000
10000000
00000000
01000000
00010000
00001000
00000000
,
00001000
00010000
00001000
00000100
00000000
00000010
00001000
00000100
,
00000010
00000001
00000010
00000100
00000000
00010000
00001000
00010000
,
00011000
00110000
01100000
10010000
,
10000000
00000000
01000000
00000000
10000000
01000000
10000000
00000000
01000000
00000000
10000000
00000000
01000000
00000000
00010000
00000000
,
00001000
00000000
00001000
00000100
00000000
00000001
00000010
00000100
,
00000000
00001000
00000001
00000000
00000001
00000100
00000010
00000100
,
00001000
00000000
00011000
00000000
00010000
00100000
01000000
00100000
,
01000000
10000000
01000000
00100000
01000000
00010000
01000000
00001000
,
00010000
00000000
00001000
00010000
00000000
00001000
00000100
00000010
,
00000110
00000000
00001100
00000000
00011000
00000000
00001000
00010000
,
00000000
00000000
01000000
00000000
10000000
00000000
01000000
00000000
10000000
00000000
01000000
00000000
10000000
00000000
00010000
01000000
,
00010000
00000000
10000000
00000000
00100000
00000000
10000000
00100000
10000000
00000000
00010000
00000000
01000000
00000000
00001000
00000000
,
00010000
00001000
00000100
00000010
00000100
00000001
00000100
00000002
,
00000000
00001003
00000010
00020000
00000000
00031000
00010000
00001000
,
00011000
00000000
00110000
00000000
00100000
01000000
00100000
00001000
,
00010000
00011000
00000000
00001100
00000000
00000100
00001000
00000010
,
00001000
00000001
00000100
00001000
00000000
00010000
00100000
10000000
,
00100000
01000000
00010000
00000000
02000000
00000000
00000000
00000000
,
00002000
03000000
00013000
00100000
,
01000000
00000000
10000000
01000000
00000000
00100000
00010000
00000000
,
00001000
00000000
00000100
00000000
00000001
00000000
00000010
00001000
,
00000010
00000001
00000010
00000000
00001000
00010000
00001000
00000000
,
00010000
00001000
00000100
00001000
00010000
00001000
00010000
01000000
,
00010000
00000000
00001000
00000000
00010000
00000000
00001000
00000000
00000100
00000000
00000001
00000000
00000010
00000000
00000001
00000010
,
00000001
00000000
00000000
00000000
00000100
00000000
00000000
00000000
00000000
00001000
00000000
00000000
00000000
00000000
00010000
00000000
,
00200000
01000000
01000000
01300000
,
01010000
00011000
00000110
00000011
,
00000110
00000000
00000010
00000001
00000010
00001000
00010000
00001000
,
00011000
01010000
01100000
10100000
,
11000000
00110000
01010000
00011000
,
00001010
00000000
00000110
00000000
00000010
00000100
00001000
00010000
,
00001000
00011000
00011000
00000000
,
00001000
00000000
00010000
00000000
00100000
00010000
00100000
10000000
,
00100000
00010000
00000000
00001000
00000000
00000100
00000000
00000001
,
00000000
00000001
00001000
00000200
00000000
00000000
00000000
00000000
,
00000000
00000000
00000000
00000000
,
00000300
00000000
00000000
00000000
,
00000000
00000000
00000000
00000000
;
