#TITLE:Blew My Mind;
#ARTIST:Sota F.;
#BANNER:Blew My Mind.png;
#BACKGROUND:Blew My Mind-bg.png;
#CDTITLE:./CDTitles/DanceDanceRevolution 2013.png;
#MUSIC:Blew My Mind.ogg;
#SAMPLESTART:26.526;
#SAMPLELENGTH:15;
#BPMS:0=190,68=95,76=380,332=190,356=380;
#STOPS:418=0.158;
#STAGE:14;

//---------------dance-single - ----------------
#NOTES:
     dance-single:
     :
     Beginner:
     4:
     :
0000
0000
0000
0000
,
0000
0000
0000
0000
,
0000
0000
0000
0000
,
0000
0000
0000
0000
,
0000
0000
0000
0000
,
1000
0000
1000
0000
,
1000
0000
0000
0000
,
0001
0000
0001
0000
,
0001
0000
0000
0000
,
0100
0000
0000
0000
,
0100
0000
0010
0000
,
0100
0000
0000
0000
,
0100
0000
0010
0000
,
1000
0000
0000
0000
,
1000
0000
0001
0000
,
1000
0000
0000
0000
,
1000
0000
0001
0000
,
1000
0000
0100
0000
,
0001
0000
0010
0000
,
0100
0000
0000
0000
,
0000
0000
0000
0000
,
0100
0000
0000
0000
,
0001
0000
0000
0000
,
1000
0000
0000
0000
,
0000
0000
0000
0000
,
1000
0000
0000
0000
,
0010
0000
0000
0000
,
0100
0000
0000
0000
,
0000
0000
0000
0000
,
0100
0000
0000
0000
,
0010
0000
0000
0000
,
1000
0000
0000
0000
,
0000
0000
0000
0000
,
0200
0000
0000
0000
,
0300
0000
0000
0000
,
0001
0000
0000
0000
,
0001
0000
0000
0000
,
0100
0000
0000
0000
,
0000
0000
0000
0000
,
1000
0000
0000
0000
,
1000
0000
0000
0000
,
0100
0000
0000
0000
,
0000
0000
0000
0000
,
0001
0000
0000
0000
,
0001
0000
0000
0000
,
0010
0000
0000
0000
,
0000
0000
0000
0000
,
0100
0000
0000
0000
,
0100
0000
0000
0000
,
1001
0000
0000
0000
,
0000
0000
0000
0000
,
0001
0000
0000
0000
,
0001
0000
0000
0000
,
0001
0000
0001
0000
,
0001
0000
0000
0000
,
1000
0000
0000
0000
,
1000
0000
0000
0000
,
1000
0000
1000
0000
,
1000
0000
0000
0000
,
0100
0000
0000
0000
,
0100
0000
0000
0000
,
0100
0000
0100
0000
,
0100
0000
0000
0000
,
0010
0000
0000
0000
,
0010
0000
0000
0000
,
0010
0000
0000
0000
,
0000
0000
0000
0000
,
0001
0000
0000
0000
,
0100
0000
0000
0000
,
0001
0000
0000
0000
,
1000
0000
1000
0000
,
1000
0000
0000
0000
,
0100
0000
0000
0000
,
1000
0000
0000
0000
,
0001
0000
0000
0000
,
0010
0000
0000
0000
,
1000
0000
0000
0000
,
0010
0000
0000
0000
,
0100
0000
0100
0000
,
0100
0000
0000
0000
,
0001
0000
0000
0000
,
0100
0000
0000
0000
,
0000
0000
0000
0000
,
0100
0000
0000
0000
,
0001
0000
0001
0000
,
0100
0000
0000
0000
,
1000
0000
1000
0000
,
0100
0000
0000
0000
,
0001
0000
1000
0000
,
0001
0000
0000
0000
,
0100
0000
0100
0000
,
0100
0000
0000
0000
,
0001
0000
0000
0000
,
0100
0000
0000
0000
,
1000
0000
0000
0000
,
0010
0000
0000
0000
,
0100
0000
0000
0000
,
1000
0000
0000
0000
,
0100
0000
0100
0000
,
0100
0000
0000
0000
,
1000
0000
0000
0000
,
0010
0000
0000
0000
,
0001
0000
0000
0000
,
0010
0000
0000
0000
,
0100
0000
0000
0000
,
0000
1000
0000
0000
,
0000
1000
0000
0000
,
0000
1000
0000
0001
,
0000
0001
0000
0000
,
0000
0001
0000
0000
,
0000
0001
0000
0000
,
0000
0001
0000
0001
,
0000
0100
0000
0100
,
0000
0000
0000
0000
,
0000
0000
0020
0000
,
0000
0030
0000
0100
,
0000
0000
0000
0010
,
0000
0000
0000
0100
,
0000
0000
0000
0010
,
0000
0000
0000
0200
,
0000
0300
0000
0001
,
0000
0000
0000
0000
,
0000
0000
0000
0010
,
0000
0000
0000
0100
,
0000
0100
0100
0000
,
0000
0000
0000
0000
;

//---------------dance-single - ----------------
#NOTES:
     dance-single:
     :
     Easy:
     9:
     :
0000
0000
0000
0000
,
0000
0000
0000
0000
,
0000
0000
0000
0000
,
0000
0000
0000
0000
,
0000
0000
0000
0000
,
0100
0010
1000
0010
,
0001
1000
0200
0300
,
0001
1000
0010
0001
,
0100
0010
2000
3000
,
0100
0000
0000
0100
0000
0000
0000
0000
,
0100
0000
0100
0010
,
1000
0000
0000
1000
0000
0000
0000
0000
,
1000
0000
1000
0010
,
0110
0000
0000
0110
0000
0000
0000
0000
,
0001
0000
1100
1100
,
1001
0000
0000
1001
0000
0000
0000
0000
,
1010
0000
0100
0010
,
0200
0010
0000
0310
2000
0001
0000
3001
,
0100
0000
0100
0100
0001
0000
1000
0000
,
1000
0000
0100
0000
,
1000
0000
0000
0000
,
0010
0000
0100
0000
,
0010
0000
0010
0000
,
0001
0000
0100
0000
,
0001
0000
0000
0000
,
0010
0000
1000
0000
,
0100
0000
0010
0000
,
0100
0000
0010
0000
,
0001
0000
0000
0000
,
1000
0000
0100
0000
,
1000
0000
0010
0000
,
0100
0000
0001
0000
,
0100
0000
0000
0000
,
0010
0000
0000
0000
,
2002
0000
0000
3003
,
1000
0000
0100
0000
,
0001
0000
0100
0000
,
0010
0000
0001
0000
,
0010
0100
0010
0000
,
0001
0001
0010
0000
,
0001
0000
1000
0000
,
1000
1000
0100
0000
,
1000
0001
1000
0000
,
0001
0000
0100
0000
,
1000
0000
0100
0000
,
0010
0000
0001
0000
,
0010
0100
0010
0000
,
0100
0100
0000
0010
,
0100
0100
0010
0000
,
1000
0001
1000
0000
,
1001
0000
0110
0000
,
1000
0000
1000
0000
,
0100
0000
0010
0000
,
0001
0010
0001
0000
,
1000
0000
0001
0000
,
0100
0000
0100
0000
,
0010
0000
1000
0000
,
0100
1000
0100
0000
,
0010
0000
0001
0000
,
1001
0000
0100
0000
,
1001
0000
0100
0000
,
1001
0000
1001
0000
,
0100
0000
0010
0000
,
0110
0000
1000
0000
,
0110
0000
0001
0000
,
0000
0000
0001
0000
,
1000
0000
0001
0000
,
0200
0000
1300
0000
,
0200
0000
0301
0000
,
0200
0000
1300
0000
,
0100
0001
0100
0000
,
0020
0000
1030
0000
,
0020
0000
0031
0000
,
0020
0000
1030
0000
,
0100
1000
0100
0000
,
0020
0000
0031
0000
,
0020
0000
0130
0000
,
0020
0000
1030
0000
,
0010
0001
0010
0001
,
0200
0000
1300
0000
,
0200
0000
0310
0000
,
0200
0000
0301
0000
,
0100
0000
1001
0000
,
0010
1000
0100
0001
,
1000
0000
0010
0000
0100
0001
0100
0000
,
0001
0010
1000
0010
,
0100
0000
1000
0000
0001
1000
0001
0000
,
0020
0100
0000
0130
,
1000
0100
0001
0000
,
0110
0000
0100
0000
,
0010
0000
0001
0000
,
1000
0000
0010
0000
,
1000
0010
1000
0010
,
1000
0000
1001
0000
,
0001
0100
0001
0100
,
0001
0000
0010
0000
,
1000
0100
0010
0000
,
0110
0000
0100
0000
,
0010
0000
1000
0000
,
0001
0000
0010
0000
,
0001
1000
0001
1000
,
0000
1001
0000
0000
,
0010
0100
0010
0100
,
0000
0010
0000
0200
,
0000
0000
0310
0000
,
0000
0001
0000
0010
,
0000
1000
0000
0010
,
0000
0001
0000
0010
,
0001
0100
0010
1000
,
0000
0010
0000
0001
,
1000
0100
0010
0001
,
0000
0001
0100
0001
,
0100
0010
0000
1000
,
0000
1000
0100
0000
,
0010
0000
2002
0000
,
0000
3003
0000
0010
,
1000
0100
0100
0000
,
1001
0000
0000
0010
,
0001
0100
0100
0000
,
1000
0001
2000
0000
,
0000
3000
0000
0100
,
0000
0000
0010
0000
,
0000
0001
0000
0100
,
0000
0100
0000
0000
0100
0000
0100
0000
,
0000
0010
0100
0000
,
0000
0000
0000
0000
;

//---------------dance-single - ----------------
#NOTES:
     dance-single:
     :
     Medium:
     12:
     :
0000
0000
0000
0000
,
0000
0000
0000
0000
,
0000
0000
0000
0000
,
0000
0000
0000
0000
,
0000
0000
0000
0000
,
0101
0000
0010
0100
0001
0010
0100
0000
,
0010
0001
0001
0000
1100
0000
0010
0001
,
0010
0000
0010
0100
1000
0010
1000
0001
,
0100
0010
0010
0000
0100
0000
0010
0000
,
1000
0000
0000
1000
0000
0000
1000
0000
0000
0000
0001
0000
0000
0000
0100
0000
,
0010
0000
0000
0010
0000
0000
0010
0000
1000
0000
0001
0000
1000
0000
0000
0000
,
0001
0000
0000
0001
0000
0000
0001
0000
0000
0001
0000
0000
1000
0000
0010
0000
,
0100
0000
0000
0100
0000
0000
0100
0000
0001
0000
1000
0000
0001
0000
0000
0000
,
0010
0000
0000
0001
0000
0000
0100
0000
0000
0000
0001
0000
0000
0000
1000
0000
,
0000
0100
0000
1000
0000
0000
0100
0000
0010
0000
0001
0000
0010
0000
0000
0000
,
0001
0000
0000
0100
0000
0000
0010
0000
0000
1000
0000
0000
0001
0000
0000
0000
,
0010
0000
0000
0010
0000
0000
0100
0000
0001
0000
1000
0000
0010
0000
0000
0000
,
0100
0000
0010
0100
0000
0100
0010
0000
1000
0000
0001
1000
0000
1000
0001
0000
,
0010
0000
0010
0000
0100
0100
0100
0000
1000
0000
0100
0000
0010
0000
0001
0000
,
1000
0000
0010
0000
,
0100
0001
0010
0000
,
0100
0010
0100
0001
,
1000
0100
0010
0000
,
0001
0000
0100
0000
,
0001
0010
0100
0000
,
0100
1000
0100
0010
,
0001
0100
1000
0000
,
0100
0000
1000
0000
,
0100
0010
1000
0000
,
0001
0100
0010
0100
,
0001
0010
1000
0000
,
0100
0000
0010
0000
,
1000
0100
0010
0000
,
0001
0000
0101
0000
,
1010
0000
2002
3003
,
0001
1000
0100
0010
,
0001
0100
0010
1000
,
1000
0100
1000
0000
,
0100
0010
0001
0000
,
0001
0001
0100
0100
,
0010
1000
0100
1000
,
0010
0010
0001
0001
,
0100
1000
0100
0000
,
0010
0100
0010
1000
,
0010
0100
0001
1000
,
0001
0010
0100
1000
,
0001
0100
0010
0000
,
1000
1000
0001
0001
,
0010
0100
0010
0000
,
1000
0100
0001
0000
,
0010
0010
0200
0300
,
0001
0000
0101
0000
,
1000
0000
0010
0000
,
0100
0001
0100
0000
,
0001
0000
1000
1000
,
0010
0000
1100
0000
,
0010
0001
0010
0000
,
0001
0000
0100
0000
,
0010
1000
0001
0000
,
1000
0100
0001
0100
,
1000
0001
0100
0000
,
0100
0001
0010
1000
,
0010
0001
0100
0000
,
0010
0001
0010
1000
,
0100
0001
0100
1000
,
0000
1000
0100
0001
,
0010
0100
0010
0000
,
2001
0000
3010
0000
,
2010
0000
3001
0000
,
2001
0000
3100
0000
,
0010
0001
1000
0010
,
0102
0000
0000
0013
0000
0000
0000
0000
,
0012
0000
0000
1003
0000
0000
0000
0000
,
1002
0000
0000
0103
0000
0000
0000
0000
,
0100
0010
0010
0000
,
1010
0000
0110
0000
,
0011
0000
0110
0000
,
1001
0000
0110
0000
,
0010
1000
0001
1000
,
1000
0000
0000
0100
0000
0000
0010
0000
,
0001
0000
0000
0100
0000
0000
0010
0000
,
1000
0000
0000
0001
0000
0000
0010
0000
,
0001
1000
1001
0000
,
0100
0000
0010
1000
0000
0010
1000
0100
,
0000
0010
0000
0000
0100
0000
1000
0000
0010
0000
0100
0000
0001
0000
0000
0000
,
0100
0000
0010
0000
0100
0000
0001
0000
0000
0010
0000
0000
0100
0000
1000
0000
,
0000
0010
0000
0000
0001
0000
1000
0000
0100
0000
0001
0000
0100
0000
1000
0000
,
0100
0000
0010
1000
0000
0001
0010
0000
,
0001
1000
0001
0000
0010
0000
1001
0000
,
0110
0000
0010
0100
,
0000
0100
0001
2000
,
0000
3000
0100
0000
,
0010
0100
0010
0001
,
0000
0100
0010
0000
,
0100
0010
0100
0020
,
0000
1030
0100
0020
,
0000
0031
0100
0010
,
1000
0000
0001
0100
,
0000
1000
0010
0002
,
0000
0003
0010
0000
,
0100
0010
0100
0100
,
0000
0001
0001
0000
,
0100
0010
0100
0100
,
0000
1000
0000
2002
,
0000
0000
0000
3003
1001
0000
0010
0000
,
0000
0010
1000
0100
,
0001
0100
2000
0000
,
3000
0100
0000
0100
,
0001
0010
1000
0010
,
0010
0001
0000
0010
,
0001
0100
2000
0000
,
3100
0010
2000
0000
,
3001
0100
1000
0001
,
0100
0001
0001
0000
,
0010
0100
0020
0000
,
0000
0130
0000
0100
,
0010
0001
0001
0000
,
0010
0100
0000
1000
,
0010
1000
1000
0000
,
0001
1000
0200
0000
,
0000
0310
0000
0001
,
0000
0001
0000
0000
0100
0000
0000
0010
,
0000
0100
0010
1001
,
0000
1001
0000
0000
1001
0000
0100
0000
,
1000
0000
0001
0100
0010
0000
0000
0000
,
0000
0000
0000
0000
;

//---------------dance-single - ----------------
#NOTES:
     dance-single:
     :
     Hard:
     16:
     :
0000
0000
0000
0000
,
0000
0000
0000
0000
,
0000
0000
0000
0000
,
0000
0000
0000
0000
,
0000
0000
0000
0000
,
1001
0000
0011
0100
1100
0010
0001
1010
,
0000
1001
0000
0101
0100
0000
0010
1000
,
1001
0000
1010
0100
0101
0010
1000
0011
,
0000
0000
1000
0000
0001
0100
0010
0000
1000
0000
0100
0000
0010
0000
0000
0000
,
0001
0000
0000
0001
0000
0000
0001
0000
0000
0000
1000
0000
0000
0000
0010
0000
,
1000
0000
0000
1000
0000
0000
1000
0000
0100
0000
0010
0000
0001
0000
1000
0000
,
0001
0100
0000
0001
0000
0000
0001
0000
0000
1000
0001
0000
1000
0000
0100
0010
,
0001
0000
0000
0001
0000
0000
0001
0000
0100
0000
0010
0000
1000
0000
0010
0000
,
0101
0000
0000
0101
0000
0000
0101
0000
0000
0000
1001
0000
0000
0000
1100
0000
,
0000
1100
0000
1100
0000
0000
1100
0000
0010
0000
0001
0000
0010
0000
0100
0000
,
1000
0001
0000
1001
0000
0000
1001
0000
0000
0010
1000
0000
1010
0000
1000
0001
,
0020
0000
0000
0230
0000
0000
2300
0000
3001
0000
0010
0000
0100
0000
0010
0000
,
1001
1000
0010
1000
0000
0010
0010
0000
0101
0001
0010
0001
1000
1000
1000
0000
,
0011
0001
1001
1000
0101
0100
0100
0000
0001
0000
1000
0000
0110
0000
1001
0000
,
0100
1000
0010
0100
,
0001
0000
0010
0001
1000
0000
0010
0000
,
0100
0000
0010
0000
1000
0010
0100
0000
,
0001
0100
0001
0000
1000
0000
1000
0000
,
0100
0000
0010
0000
0001
0000
1000
0010
,
0100
0000
0010
0000
1000
0010
1000
0000
,
0100
0010
0100
1000
,
0001
1000
0001
0000
1000
0000
0100
0000
,
0100
1000
0010
0100
,
0001
0000
1000
0001
0100
0000
0010
0000
,
0100
0000
0010
0000
1000
0010
0100
0000
,
0001
0100
0001
0000
1000
0000
1000
0000
,
0100
0000
0010
0000
0001
0100
0001
0100
,
0010
0000
0010
0000
1000
0001
0100
0000
,
0110
0000
0000
0001
0010
0100
,
1000
0000
2002
3003
,
1000
1000
0100
0010
,
0001
0000
1000
0100
0010
0001
0010
0000
,
0001
1000
0010
0000
0010
0000
0100
0000
,
0010
0000
1000
0000
0001
1000
0000
0010
,
0100
0000
0100
1000
0000
1000
0100
0000
,
0010
0001
0000
0001
0100
0000
0100
0000
,
0010
1000
0010
0001
,
0010
1010
1010
0000
,
0100
0100
0001
0010
,
0100
0000
0010
0001
1000
0100
0010
0000
,
0001
0010
0100
0000
0100
0000
0010
0000
,
0100
0000
1000
0000
0010
0100
0000
0100
,
0001
0000
0001
0010
0000
0100
1000
0000
,
0010
0100
0000
0001
0010
0000
0010
0000
,
0001
0100
1000
0001
,
0020
2030
0002
3003
,
1000
0100
0001
1000
,
0001
0010
1000
0010
,
0001
0100
0010
0001
,
0010
0100
0010
0000
1000
0000
1000
0000
,
0001
0100
1000
0001
,
0010
0100
0001
0100
,
0010
1000
0100
0010
,
0001
0100
0001
0000
0100
0000
0010
0000
,
1000
0100
0000
0100
1000
0000
1000
0000
,
0010
1000
0000
0001
0100
0000
0100
0000
,
0001
0100
0000
0100
0010
0000
0010
0000
,
1000
0000
0010
0100
0001
0000
0001
0000
,
0100
0010
0000
0100
0000
0010
1000
0001
,
0000
1000
0001
0010
0100
0000
0100
0000
,
0000
0010
0001
0010
0100
1000
0100
1000
,
0010
0100
0010
0100
0002
0000
0003
0000
,
1001
0000
1000
0001
0000
0000
0100
0000
,
1010
0000
0010
1000
0000
0000
0001
0000
,
0101
0000
0100
0001
0000
0000
0100
0000
,
0001
0100
0010
0000
1000
0010
0100
0000
,
0110
0000
0000
0110
0000
0000
0001
0000
,
1001
0000
0000
1010
0000
0000
0010
0000
,
0110
0000
0000
0101
0000
0000
0001
0000
,
1000
0100
0010
0000
0100
0000
1000
0000
,
0010
0000
0100
0001
0010
0000
0001
0000
,
0100
0000
0001
0010
0100
0000
0010
0000
,
0001
0000
0100
0010
0001
0000
0010
0000
,
0100
0010
0100
0000
0010
0100
0010
0000
,
0100
0000
0000
1010
0000
0000
0101
0000
,
0100
0000
0000
0011
0000
0000
1100
0000
,
0001
1000
0001
1000
0000
0000
0011
0000
,
1000
1000
0001
0100
,
0020
0000
0000
0000
1030
0010
0100
0001
0000
0000
0020
0000
0031
0010
0100
1000
,
0000
0001
0000
0000
0010
0100
1000
0000
0001
0100
0010
0000
1000
0000
0010
0000
,
0200
0000
0302
0000
1003
0100
0010
0001
0000
0010
0000
0000
0100
0010
0100
1000
,
0000
0002
0000
0000
0103
0001
0010
0000
0001
0000
0100
0000
0010
0000
1000
0000
,
0020
0000
0001
0001
0000
1000
1000
0000
,
0130
0000
0010
0000
0100
0000
0000
0000
0110
0000
0000
1000
0001
0000
0100
0000
,
0010
1000
0010
0001
,
0010
1000
0100
0010
,
0001
0100
1000
0001
,
0010
0100
0010
1000
,
0001
0001
0110
0000
,
0010
0001
1000
0010
,
0100
0100
0001
0010
,
0100
0000
0100
0000
1000
0000
0001
0010
,
0100
1000
0100
0001
,
0100
0010
0001
0100
,
1000
0100
0001
0010
,
0100
0100
1100
1100
,
0000
0011
0001
0000
,
0100
0100
1010
1010
,
0000
0101
0000
2002
,
0000
0000
0000
3003
1001
0000
0100
0000
,
0010
1000
0100
0000
1000
0000
0010
0100
,
0001
1000
0010
0100
,
0001
1000
0100
0000
0010
0000
0001
1000
,
0010
0100
0001
0100
,
0010
1000
0100
0000
1000
0000
0001
1000
,
0100
0010
0100
0010
,
0001
0010
0100
0000
0010
0000
0100
1000
,
0001
0101
0000
1000
,
1000
0110
0110
0000
,
0011
0100
2020
0000
,
3030
1001
0000
0110
,
0110
0001
0001
0000
,
1100
1100
0000
0011
,
0011
1000
1000
0000
,
0110
1000
0202
0000
,
0303
0000
1001
0000
0000
0000
0010
0100
,
0000
0110
0000
0000
0110
0000
0000
0001
,
0010
0000
0100
0000
1000
0010
0100
0000
,
0000
0101
0000
0000
1100
0000
1001
0000
,
0010
0000
1000
0100
0001
0000
0000
0000
,
0000
0000
0000
0000
;

//---------------dance-single - ----------------
#NOTES:
     dance-single:
     :
     Challenge:
     18:
     :
0000
0000
0000
0000
,
0000
0000
0000
0000
,
0000
0000
0000
0000
,
0000
0000
0000
0000
,
0000
0000
0000
0000
,
1100
0000
0000
0000
0100
0000
0010
0000
0010
0001
1000
0000
0010
0000
0101
0000
,
0010
0000
1000
0001
0100
0000
0010
0000
0110
0000
0000
0000
0100
0000
1000
0000
,
1001
0000
0000
0000
0100
0000
0010
0000
0010
1000
0001
0000
0010
0000
1100
0000
,
0010
0000
0001
0010
0100
1000
0010
0000
0100
0000
0001
0000
1000
0000
0000
0000
,
0100
0000
0000
1001
0000
0000
0101
0000
0000
0000
0010
0000
0000
0000
0100
0000
,
0010
0000
0000
1001
0000
0000
1100
0000
0100
0000
0010
0001
0100
0000
0010
1000
,
0001
0100
0000
1010
0000
0000
0101
0000
0000
1000
0001
0000
0100
0000
0010
1000
,
0100
0000
0000
0011
0000
0000
1100
0000
0010
0000
0001
1000
0100
0000
0010
0000
,
0202
0303
0000
2020
3030
0000
0202
0303
0000
0000
0022
0033
0000
0000
2002
3003
,
0000
0022
0033
2200
3300
0000
0102
0000
1003
0000
0010
0000
0001
0000
0010
0000
,
2000
3001
0000
0202
0303
0000
0220
0330
0000
0020
1030
0000
0110
0000
0200
0301
,
0020
0000
0000
2030
0000
0000
3002
0000
0103
0000
1000
0000
0100
0000
0010
0000
,
0101
0000
0010
1000
0001
0000
0100
0000
0000
0010
0100
0000
0010
0000
0010
1000
0100
0000
0100
1000
0010
0000
0100
0000
0001
1000
0001
1000
0100
0000
0010
0000
,
0010
0000
0001
0010
0001
0000
1000
0010
1000
0000
0100
0000
0010
0000
0000
0000
0001
0000
0000
0000
1000
0000
0000
0000
0101
0000
0000
0000
1010
0000
0000
0000
,
1001
1000
0010
0001
,
1000
0000
0100
0010
1000
0100
0010
0000
,
0001
0000
0001
0000
0010
0100
1000
0010
,
0100
0001
0100
0001
1000
0000
0010
0000
,
0100
0000
0100
0000
0001
0000
1000
0010
,
0100
0000
0100
0000
0001
0100
0001
0000
,
0010
1000
0001
0100
,
0010
0001
1000
0000
1001
0000
1001
0000
,
0010
0000
0001
0000
0100
0000
0010
1000
,
0100
0000
0010
0000
0001
0010
0100
1000
,
0010
0000
0010
0000
1000
0100
0010
0100
,
1000
0001
0100
0010
0100
0000
0001
0000
,
0100
0000
0100
0000
0010
1000
0100
0010
,
0100
0000
0100
0000
1000
0010
0100
0001
,
0010
0000
0000
0110
1000
0100
,
0001
0000
2002
3003
,
0001
0001
0100
1000
,
0100
0000
0001
0100
0010
0100
1000
0100
,
0001
1000
0001
0000
0100
0000
0010
0000
,
1000
0000
0001
0000
0100
0001
0000
0001
,
0010
0000
0100
0010
0000
0001
0100
0000
,
0100
1000
0000
0001
0010
0000
0010
0000
,
0100
1000
0010
0100
,
0001
0010
0100
0010
0001
0010
0100
0000
,
1000
1000
0001
0100
,
0010
0000
1000
0001
0010
1000
0010
0100
,
1000
0100
0010
0000
0010
0000
0100
0000
,
0010
0000
0001
0000
0100
0010
0000
0010
,
1000
0000
0010
0100
0000
0001
0100
0000
,
0001
0010
0000
1000
0010
0000
0010
0000
,
0001
0100
1000
0100
,
0022
0033
0022
0033
2002
0000
3003
0000
,
1000
0000
0001
1000
0010
0000
1000
0000
,
0001
0010
1000
0010
,
0001
0000
1000
0001
0010
0000
1000
0000
,
0010
0000
0001
0010
0001
0000
1000
0000
,
0001
0000
1000
0001
0100
0000
0001
0000
,
1000
0100
0001
0100
,
1000
0000
0001
1000
0100
0000
0001
0000
,
0100
0000
1000
0100
1000
0000
0001
0000
,
1000
0100
0010
0100
1000
0010
0100
0010
,
0000
0010
1000
0001
0100
0010
0100
0001
,
1000
0100
0010
0100
1000
0001
0010
1000
,
0000
0010
0001
0100
0001
1000
0001
0000
,
0100
0010
0100
0001
0100
0010
1000
0001
,
0100
1000
0100
0010
1000
0000
0100
0000
,
0000
0010
0100
1000
0001
0010
0001
0100
,
0001
0010
1000
0010
0200
0000
0300
0000
,
1000
0000
1000
0001
0010
0000
1000
0000
,
0010
0000
0010
0001
1000
0000
0010
0000
,
0100
0000
0100
0001
0010
0000
0100
0000
,
1000
0100
0010
0000
0001
0010
0100
0000
,
1100
0000
0000
0011
0000
0000
0110
0000
,
1010
0000
0000
0101
0000
0000
0110
0000
,
1100
0000
0000
0101
0000
0000
0110
0000
,
1000
0010
0001
0000
0010
0000
0100
0000
,
0010
0100
0010
1000
0000
1000
0100
0000
,
0010
0100
0010
0001
0000
0001
0100
0000
,
0010
0100
0001
0010
0000
0010
0100
0000
,
0100
1000
0001
0010
0100
0010
0001
1000
,
0100
0000
0000
1100
0000
0000
0101
0000
,
0011
0000
0000
1010
0000
0000
1100
0000
,
0010
0001
0100
0010
0000
0000
1100
0000
,
0001
0100
1001
0010
,
0210
0000
0010
0000
0301
0100
0010
2000
0001
0000
3100
0000
1000
0100
0010
0002
,
0103
0020
1000
0000
1030
0001
0200
0000
0301
0010
1000
0010
0200
0000
0310
0000
,
0002
0000
2003
0000
3001
0010
0100
1000
0000
0012
0000
0000
0103
0001
0010
0100
,
0000
2000
0000
0000
3010
1000
0001
0010
0100
0000
0010
0000
0100
0000
0010
0000
,
0200
0000
0010
1000
0000
0001
0010
0000
,
0310
0000
0100
0000
0110
0000
0000
0000
1001
0000
0000
0100
0001
0000
0010
0000
,
0110
0001
1001
0100
,
1000
0010
0101
2000
,
0010
3010
0100
0001
,
2000
3020
0032
0023
,
1000
1030
0101
0000
,
2000
3200
0302
0203
,
0010
0310
1001
0200
,
0010
0000
0310
0000
1000
0000
0001
0100
,
1000
0001
1010
1000
,
0010
0100
1001
0200
,
0001
0301
1000
0100
,
0010
0011
1001
1100
,
0000
0010
1100
0000
,
0010
1010
1001
0101
,
0000
0011
1100
2002
,
0000
0000
0000
3003
MMMM
0000
0010
0000
,
0100
0001
0010
0000
0001
0010
0100
0010
,
0001
0100
0010
0000
0010
0000
0100
0010
,
0001
0000
0010
0000
0100
0010
1000
0010
,
0001
0000
1000
0000
0100
0001
1000
0000
,
0100
0010
0100
0000
0010
1000
0100
0000
,
0010
0100
1000
0001
1000
0000
0100
0000
,
0100
1000
0001
0000
1000
0001
0010
0000
,
0001
0100
1000
0100
0010
0000
1000
0100
,
0001
0100
0010
1000
0010
0000
0000
0000
,
0011
1001
0202
0000
,
0303
0000
1001
0000
0000
0000
1000
0100
,
0001
0100
0010
0001
1000
0000
0000
0000
,
0011
0000
1001
0000
0000
0000
0001
0100
,
0001
0010
1000
0010
0001
0000
0000
0000
,
0110
1001
2020
0000
,
3030
0000
1001
0000
0000
0000
1000
0100
,
0000
0011
0000
0000
0101
0000
0000
0010
,
1000
0000
0101
0000
1000
0100
0010
0000
,
0000
0011
0000
0000
0110
0000
MMMM
0000
,
1001
0000
0001
0010
1000
0000
0000
0000
,
0000
0000
0000
0000
;

//---------------dance-double - ----------------
#NOTES:
     dance-double:
     :
     Easy:
     9:
     :
00000000
00000000
00000000
00000000
,
00000000
00000000
00000000
00000000
,
00000000
00000000
00000000
00000000
,
00000000
00000000
00000000
00000000
,
00000000
00000000
00000000
00000000
,
00000100
00000001
00001000
00000010
,
00010000
00001000
02000000
03000000
,
00100000
10000000
00010000
01000000
,
00001000
00010000
00000200
00000300
,
00000010
00000000
00000000
00000010
00000000
00000000
00000000
00000000
,
00000001
00000000
00000001
00000100
,
00001000
00000000
00000000
00001000
00000000
00000000
00000000
00000000
,
00010000
00000000
00001000
00010000
,
00011000
00000000
00000000
00011000
00000000
00000000
00000000
00000000
,
00011000
00000000
00110000
00110000
,
01010000
00000000
00000000
01010000
00000000
00000000
00000000
00000000
,
10100000
00000000
10000000
01000000
,
00100000
01000000
00000000
01000000
00010000
00001000
00000000
00001000
,
00010000
00000000
00000100
00000100
00001000
00000100
00000001
00000000
,
00000100
00000000
00000100
00000000
,
00000010
00000000
00000000
00000000
,
00000001
00000000
00000100
00000000
,
00000010
00000000
00000010
00000000
,
00000100
00000000
00001000
00000000
,
00010000
00000000
00000000
00000000
,
00001000
00000000
00010000
00000000
,
01000000
00000000
00100000
00000000
,
00010000
00000000
10000000
00000000
,
00010000
00000000
00000000
00000000
,
10000000
00000000
00100000
00000000
,
01000000
00000000
00010000
00000000
,
00100000
00000000
00100000
00000000
,
00001000
00000000
00010000
00000000
,
00000100
00000000
00000010
00000000
,
00000220
00000000
00000000
00000330
,
00000001
00000000
00000100
00000000
,
00001000
00000000
00010000
00000000
,
00001000
00000000
00100000
00000000
,
00010000
00100000
00010000
00000000
,
01000000
01000000
00010000
00000000
,
01000000
00000000
00100000
00000000
,
10000000
10000000
01000000
00000000
,
00010000
00010000
01000000
00000000
,
10000000
00000000
01000000
00000000
,
00010000
00000000
00001000
00000000
,
00010000
00000000
00000010
00000000
,
00001000
00000010
00001000
00000000
,
00000100
00000000
00001001
00000000
,
00000100
00000000
00000010
00000000
,
00000101
00000000
00001000
00000000
,
00010000
00000000
00011000
00000000
,
00100000
00000000
00010000
00000000
,
10000000
00000000
00010000
00000000
,
00100000
00010000
01000000
00000000
,
00100000
00000000
00010000
00000000
,
00001000
00000000
00000100
00000000
,
00000010
00000000
00001000
00000000
,
00000001
00000100
00000010
00000000
,
00001000
00000000
00000001
00000000
,
00000110
00000000
00001000
00000000
,
00000110
00000000
00000001
00000000
,
00000110
00000000
00001000
00000000
,
00001000
00010000
00100000
00000000
,
01100000
00000000
10000000
00000000
,
01100000
00000000
00010000
00000000
,
00000000
10000000
01000000
00000000
,
00010000
01000000
10000000
00000000
,
00020000
00000000
01030000
00000000
,
00020000
00000000
10030000
00000000
,
00020000
00000000
00130000
00000000
,
00001000
00010000
00000100
00000000
,
00002000
00000000
00003100
00000000
,
00002000
00000000
00003001
00000000
,
00002000
00000000
00003010
00000000
,
00000100
00001000
00010000
00000000
,
00002000
00000000
01003000
00000000
,
00002000
00000000
00013000
00000000
,
00002000
00000000
00103000
00000000
,
01000000
10000000
01000000
00000000
,
00020000
00000000
00030100
00000000
,
00020000
00000000
00031000
00000000
,
00020000
00000000
00030010
00000000
,
00001000
00000100
00000001
00000000
,
00000100
00000010
00000000
00000010
,
00000001
00000000
00000100
00000000
00000010
00001000
00010000
00000000
,
00001000
00100000
01000000
00100000
,
10000000
00000000
00010000
00000000
00100000
01000000
10000000
00000000
,
00020000
01000000
00000000
00130000
,
00001000
00010000
00001000
00000000
,
00011000
00000000
00000100
00000000
,
00000010
00000000
00001000
00000000
,
00000001
00000000
00000010
00000000
,
00000001
00001000
00000001
00001000
,
00000001
00000000
00001001
00000000
,
00001000
00000100
00001000
00000100
,
00001000
00000000
00000010
00000000
,
00010000
00000100
00001000
00000000
,
00011000
00000000
01000000
00000000
,
00100000
00000000
10000000
00000000
,
00010000
00000000
00100000
00000000
,
00010000
10000000
00010000
10000000
,
00000000
10010000
00000000
00000000
,
00100000
00010000
00100000
00010000
,
00000000
00100000
00000000
00002000
,
00000000
00000000
00013000
00000000
,
00000000
00001000
00000000
00010000
,
00000000
00000100
00000000
00000010
,
00000000
00000001
00000000
00000010
,
00000001
00000100
00000010
00001000
,
00000000
00000010
00000000
00001000
,
00000100
00010000
00001000
00010000
,
00000000
00001000
00100000
00010000
,
01000000
00100000
00000000
10000000
,
00000000
10000000
01000000
00000000
,
00100000
00000000
02200000
00000000
,
00000000
03300000
00000000
00010000
,
00001000
00010000
00001000
00000000
,
00011000
00000000
00000000
00000010
,
00000100
00000010
00000100
00000000
,
00000001
00001000
00000002
00000000
,
00000000
00000003
00000000
00000100
,
00000000
00000000
00001000
00000000
,
00000000
00010000
00000000
00100000
,
00000000
00100000
00000000
00000000
00100000
00000000
00100000
00000000
,
00000000
01000000
00100000
00000000
,
00000000
00000000
00000000
00000000
;

//---------------dance-double - ----------------
#NOTES:
     dance-double:
     :
     Medium:
     12:
     :
00000000
00000000
00000000
00000000
,
00000000
00000000
00000000
00000000
,
00000000
00000000
00000000
00000000
,
00000000
00000000
00000000
00000000
,
00000000
00000000
00000000
00000000
,
00000110
00000000
00000100
00001000
00010000
01000000
00100000
00000000
,
00010000
01000000
01000000
00000000
10010000
00000000
10000000
01000000
,
01000000
00000000
01100000
00000000
01000000
00010000
00001000
00000100
,
00000010
00000100
00000100
00000000
00000110
00000000
00001001
00000000
,
00000001
00000000
00000000
00000001
00000000
00000000
00000001
00000000
00000000
00000000
00000100
00000000
00000000
00000000
00000010
00000000
,
00001000
00000000
00000000
00001000
00000000
00000000
00001000
00000000
00010000
00000000
01000000
00000000
00100000
00000000
00000000
00000000
,
10000000
00000000
00000000
10000000
00000000
00000000
10000000
00000000
00000000
00100000
00000000
00000000
01000000
00000000
00010000
00000000
,
00100000
00000000
00000000
00100000
00000000
00000000
00100000
00000000
00001000
00000000
00010000
00000000
00000100
00000000
00000000
00000000
,
00001000
00000000
00000000
00000010
00000000
00000000
00000100
00000000
00000000
00000000
00000001
00000000
00000000
00000000
00001000
00000000
,
00000000
00000010
00000000
00000100
00000000
00000000
00001000
00000000
00010000
00000000
00100000
00000000
01000000
00000000
00000000
00000000
,
00010000
00000000
00000000
00100000
00000000
00000000
10000000
00000000
00000000
00100000
00000000
00000000
01000000
00000000
00000000
00000000
,
10000000
00000000
00000000
10000000
00000000
00000000
00010000
00000000
00100000
00000000
01000000
00000000
00010000
00000000
00000000
00000000
,
00001000
00000000
00010000
00000100
00000000
00000100
00001000
00000000
00000001
00000000
00000010
00000100
00000000
00000100
00001000
00000000
,
00000001
00000100
00001000
00000000
00010000
00001000
00100000
00000000
00001000
00000000
00010000
00000000
00100000
00000000
01000000
00000000
,
00010000
10000000
00010000
00000000
,
01000000
00100000
00010000
00000000
,
00100000
00010000
00100000
00001000
,
00010000
00000100
00001000
00000000
,
00000001
00000100
00000010
00000000
,
00001000
00001000
00000010
00000000
,
00000100
00000010
00001000
00000001
,
00000100
00001000
00010000
00000000
,
00001000
00100000
00010000
00000000
,
00001000
00010000
00000100
00000000
,
00010000
00001000
00010000
01000000
,
00100000
00010000
10000000
00000000
,
00100000
01000000
00010000
00000000
,
00010000
10000000
01000000
00000000
,
00100000
00000000
01100000
00000000
,
00010000
00000000
00202000
00303000
,
00010000
00000100
00010000
00000010
,
00001000
00000100
00000010
00000001
,
00000001
00000100
00000010
00000000
,
00000100
00000001
00001000
00000000
,
00000100
00000100
00001000
00001000
,
00000010
00010000
00001000
00010000
,
01000000
01000000
00100000
00100000
,
00010000
10000000
01000000
00000000
,
00100000
00001000
00100000
00010000
,
10000000
01000000
00010000
00001000
,
00010000
00001000
00100000
00001000
,
00000100
00000010
00001000
00000000
,
00000001
00000001
00001000
00001000
,
00000010
00000100
00000001
00000000
,
00000001
00000100
00001000
00000000
,
00010000
00001000
00022000
00033000
,
00100000
00000000
00110000
00000000
,
01000000
00000000
00100000
00000000
,
10000000
01000000
00100000
00000000
,
00100000
00001000
00010000
00000000
,
01000000
00000000
00110000
00000000
,
00001000
00010000
01000000
00000000
,
00010000
00001000
00000100
00000000
,
00000010
00001000
00000100
00000000
,
00001000
00000100
00000010
00000001
,
00000100
00001000
00010000
00000000
,
00100000
10000000
01000000
00100000
,
00010000
10000000
00100000
00000000
,
10000000
00100000
01000000
00010000
,
00100000
00001000
00010000
00001000
,
00000000
00000100
00000001
00000010
,
00001000
00000010
00000001
00000000
,
00000011
00000000
00000101
00000000
,
00001010
00000000
00001100
00000000
,
00000110
00000000
00001001
00000000
,
00000010
00000100
00001000
00000000
,
00021000
00000000
00000000
00130000
00000000
00000000
00000000
00000000
,
00012000
00000000
00000000
00003100
00000000
00000000
00000000
00000000
,
00021000
00000000
00000000
00130000
00000000
00000000
00000000
00000000
,
00010000
10000000
00010000
00000000
,
11000000
00000000
10100000
00000000
,
01010000
00000000
00110000
00000000
,
10010000
00000000
01100000
00000000
,
00100000
00001000
00010000
00000000
,
00012000
00000000
00000000
00003010
00000000
00000000
00000000
00000000
,
00021000
00000000
00000000
01030000
00000000
00000000
00000000
00000000
,
00012000
00000000
00000000
00003010
00000000
00000000
00000100
00000000
,
00001000
00000001
00001001
00000000
,
00000100
00000000
00000001
00000100
00000000
00001000
00010000
00000010
,
00000000
00000100
00000000
00000000
00000001
00000000
00000100
00000000
00001000
00000000
00010000
00000000
00001000
00000000
00000000
00000000
,
00100000
00000000
01000000
00000000
00100000
00000000
00010000
00000000
00000000
00001000
00000000
00000000
00010000
00000000
01000000
00000000
,
00000000
00100000
00000000
00000000
10000000
00000000
01000000
00000000
00100000
00000000
00010000
00000000
00100000
00000000
00001000
00000000
,
00010000
00000000
01000000
10000000
00000000
01000000
00010000
00000000
,
00001000
00000100
00000001
00000000
00000100
00000000
00000110
00000000
,
00001001
00000000
00000001
00000100
,
00000000
00000010
00001000
00020000
,
00000000
00030000
00001000
00000000
,
01000000
00100000
01000000
00010000
,
00000000
00100000
10000000
00000000
,
00100000
00010000
00100000
00002000
,
00000000
00013000
00000100
00002000
,
00000000
00003010
00000100
00000001
,
00001000
00000000
00010000
00001000
,
00000000
00100000
00010000
02000000
,
00000000
03000000
00100000
00000000
,
10000000
01000000
00100000
00010000
,
00000000
00001000
00010000
00000000
,
00001000
00000100
00000010
00000001
,
00000000
00000010
00001000
00002002
,
00000000
00000000
00000000
00003003
00001001
00000000
00000010
00000000
,
00000000
00000100
00000010
00001000
,
00000001
00000100
00002000
00000000
,
00003000
00010000
00000000
00000100
,
00010000
00001000
01000000
00010000
,
00010000
00100000
00000000
01000000
,
10000000
00100000
02000000
00000000
,
03010000
00100000
02000000
00000000
,
13000000
00100000
00010000
00001000
,
00010000
00001000
00001000
00000000
,
00010000
00001000
00000200
00000000
,
00000000
00000310
00000000
00001000
,
00000010
00000100
00000100
00000000
,
00000100
00000001
00000000
00000001
,
00000010
00000100
00000100
00000000
,
00001000
00000001
00000200
00000000
,
00000000
00000310
00000000
00000100
,
00000000
00001000
00000000
00000000
00010000
00000000
00000000
00001000
,
00000000
00100000
00001000
00011000
,
00000000
00101000
00000000
00000000
00110000
00000000
01000000
00000000
,
00100000
00000000
10000000
00010000
10000000
00000000
00000000
00000000
,
00000000
00000000
00000000
00000000
;

//---------------dance-double - ----------------
#NOTES:
     dance-double:
     :
     Hard:
     16:
     :
00000000
00000000
00000000
00000000
,
00000000
00000000
00000000
00000000
,
00000000
00000000
00000000
00000000
,
00000000
00000000
00000000
00000000
,
00000000
00000000
00000000
00000000
,
00001001
00000000
00000101
00000010
00000010
00001000
00000100
00001100
,
00000000
00010100
00000000
00001010
00000010
00000000
00000100
00010000
,
00011000
00000000
01001000
00010000
00010000
00100000
01000000
01100000
,
00000000
00000000
01000000
00000000
10000000
00010000
10000000
00000000
01000000
00000000
00100000
00000000
00010000
00000000
00000000
00000000
,
10000000
00000000
00000000
10000000
00000000
00000000
10000000
00000000
00000000
00000000
01000000
00000000
00000000
00000000
00100000
00000000
,
00001000
00000000
00000000
00001000
00000000
00000000
00001000
00000000
00000010
00000000
00000001
00000000
00000010
00000000
00001000
00000000
,
00010000
00001000
00000000
00010000
00000000
00000000
00010000
00000000
00000000
00000100
00010000
00000000
00000010
00000000
00001000
00000100
,
00000010
00000000
00000000
00000010
00000000
00000000
00000010
00000000
00000001
00000000
00000100
00000000
00001000
00000000
00000100
00000000
,
00000101
00000000
00000000
00000101
00000000
00000000
00000101
00000000
00000000
00000000
00001001
00000000
00000000
00000000
00001010
00000000
,
00000000
00011000
00000000
00011000
00000000
00000000
00010100
00000000
00001000
00000000
00010000
00000000
00100000
00000000
01000000
00000000
,
00100000
01000000
00000000
01100000
00000000
00000000
01100000
00000000
00000000
00010000
01000000
00000000
00010000
00000000
00100000
01000000
,
20000000
00000000
00000000
32000000
00000000
00000000
03020000
00000000
00031000
00000000
00010000
00000000
00001000
00000000
00000100
00000000
,
00000110
00000000
00001000
00000001
00000000
00001000
00001000
00000000
00000010
00000001
00000100
00001000
00000100
00000100
00000010
00000000
,
00000101
00000100
00001000
00000100
00000110
00001000
00000100
00000000
00010000
00000000
00000100
00000000
00001010
00000000
00011000
00000000
,
01000000
00010000
00100000
10000000
,
00100000
00000000
00010000
00100000
00010000
00000000
01000000
00000000
,
00100000
00000000
10000000
00000000
00010000
01000000
00010000
00000000
,
00100000
00001000
00100000
00000000
00001000
00000000
00001000
00000000
,
00010000
00000000
00000100
00000000
00000010
00000000
00000001
00001000
,
00000001
00000000
00000100
00000000
00000010
00001000
00000010
00000000
,
00000100
00000001
00000010
00000001
,
00001000
00000100
00001000
00000000
00000010
00000000
00000001
00000000
,
00001000
00000100
00000010
00010000
,
00001000
00000000
00010000
00001000
00100000
00000000
00010000
00000000
,
00100000
00000000
00010000
00000000
01000000
00010000
00100000
00000000
,
01000000
10000000
01000000
00000000
00100000
00000000
00100000
00000000
,
00010000
00000000
10000000
00000000
00100000
01000000
00100000
01000000
,
00010000
00000000
00100000
00000000
00001000
00010000
00001000
00000000
,
00011000
00000000
00000000
00010000
00001000
00000100
,
00000001
00000000
00002002
00003003
,
00000001
00000001
00000010
00000100
,
00001000
00000000
00000001
00000010
00000100
00001000
00000100
00000000
,
00010000
00000100
00001000
00000000
00000010
00000000
00001000
00000000
,
00000001
00000000
00000100
00000000
00000010
00001000
00000000
00000100
,
00010000
00000000
00010000
00001000
00000000
00001000
01000000
00000000
,
00010000
00100000
00000000
00100000
01000000
00000000
01000000
00000000
,
10000000
00100000
00010000
10000000
,
01000000
00010000
00010000
00000000
,
00100000
00100000
00001000
00010000
,
00000010
00000000
00010000
00000100
00001000
00000010
00000100
00000000
,
00000010
00001000
00000001
00000000
00000010
00000000
00001000
00000000
,
00000010
00000000
00000001
00000000
00001000
00000010
00000000
00000010
,
00000100
00000000
00000100
00001000
00000000
00001000
00010000
00000000
,
00001000
00100000
00000000
00010000
01000000
00000000
00100000
00000000
,
10000000
01000000
00010000
00001000
,
00200000
00320000
02000000
03030000
,
00100000
10000000
00010000
01000000
,
10000000
00010000
00100000
10000000
,
00100000
01000000
00010000
00100000
,
00010000
00100000
00001000
00000000
00010000
00000000
00010000
00000000
,
00001000
00000100
00000001
00001000
,
00000010
00000001
00000010
00000100
,
00000001
00001000
00000010
00000100
,
00000001
00000010
00000001
00000000
00000010
00000000
00000100
00000000
,
00001000
00000010
00000000
00000010
00000100
00000000
00000100
00000000
,
00000010
00010000
00000000
00010000
00001000
00000000
00001000
00000000
,
00000100
00000010
00000000
00000010
00000100
00000000
00000100
00000000
,
00001000
00000000
00010000
00001000
00010000
00000000
00010000
00000000
,
00001000
00100000
00000000
00010000
00000000
01000000
00010000
00100000
,
00000000
00010000
01000000
00100000
10000000
00000000
10000000
00000000
,
00000000
00100000
10000000
00100000
01000000
00010000
01000000
00010000
,
00100000
00001000
00100000
00001000
00020000
00000000
00030000
00000000
,
00011000
00000000
00010000
00001000
00000000
00000000
00000100
00000000
,
00000110
00000000
00000010
00001000
00000000
00000000
00000001
00000000
,
00001001
00000000
00001000
00000001
00000000
00000000
00000100
00000000
,
00001000
00000000
00010000
00000000
00001000
00010000
00001000
00000000
,
00011000
00000000
00000000
00101000
00000000
00000000
00010000
00000000
,
01010000
00000000
00000000
10100000
00000000
00000000
00010000
00000000
,
10010000
00000000
00000000
00101000
00000000
00000000
00011000
00000000
,
00000100
00000001
00000010
00000100
,
00000010
00000000
00000001
00000100
00000010
00000000
00001000
00000000
,
00000010
00000000
00001000
00000100
00000010
00000000
00000100
00000000
,
00001000
00000000
00000010
00000100
00001000
00000000
00010000
00000000
,
00001000
00010000
00001000
00000000
00010000
00001000
00010000
00000000
,
00001000
00000000
00000000
00101000
00000000
00000000
01010000
00000000
,
00100000
00000000
00000000
11000000
00000000
00000000
00110000
00000000
,
10000000
01000000
00100000
00010000
00000000
00000000
00101000
00000000
,
00010000
00010000
00001000
00000010
,
00000200
00000000
00000000
00000000
00000310
00000001
00001000
00000100
00000000
00000000
00000020
00000000
00000130
00000001
00001000
00000100
,
00000000
00001100
00000000
00000000
00000100
00010000
00000100
00000000
00001000
00000100
00010000
00000000
00001000
00000000
00100000
00000000
,
00010000
00000000
10000000
00000000
00010000
00100000
01000000
10000000
00000000
01000000
00000000
00000000
00100000
00010000
00100000
00010000
,
00000000
01000000
00000000
00000000
00010000
00100000
00001000
00000000
00010000
00000000
00001000
00000000
00000100
00000000
00000010
00000000
,
00000200
00000000
00000001
00000001
00000000
00001000
00001000
00000000
,
00000310
00000000
00000100
00000000
00000010
00000000
00000000
00000000
00000110
00000000
00000000
00000001
00000100
00000000
00001000
00000000
,
00010000
00001000
00010000
00100000
,
10000000
01000000
00010000
10000000
,
00100000
00010000
00001000
00000100
,
00000010
00000010
00000100
00001000
,
00000001
00000001
00000110
00000000
,
00000100
00001000
00000100
00000001
,
00000010
00000010
00001000
00010000
,
00001000
00000000
00001000
00000000
00010000
00000000
00001000
00010000
,
01000000
00100000
00001000
00001000
,
00010000
01000000
10000000
00010000
,
00100000
01000000
10000000
00100000
,
00010000
00001000
00010000
00011000
,
00000000
00001100
00001000
00000000
,
00000010
00000001
00000100
00000101
,
00000000
00001010
00000000
00020200
,
00000000
00000000
00000000
00030300
00001010
00000000
00000010
00000000
,
00000100
00000001
00000100
00000000
00000010
00000000
00001000
00000100
,
00001000
00000001
00000100
00001000
,
00000010
00001000
00000010
00000000
00010000
00000000
00001000
00010000
,
00001000
00100000
00010000
01000000
,
00100000
10000000
00010000
00000000
01000000
00000000
00100000
10000000
,
01000000
00010000
00001000
00100000
,
00010000
00100000
00001000
00000000
00010000
00000000
00000100
00010000
,
00001000
00011000
00000000
00001000
,
00000100
00000001
00001001
00000000
,
00000011
00000100
00002200
00000000
,
00003300
00000110
00000000
00000100
,
00001000
00010000
00011000
00000000
,
00101000
00110000
00000000
10000000
,
00100000
01000000
01010000
00000000
,
10100000
00100000
22000000
00000000
,
33000000
00000000
10010000
00000000
00000000
00000000
10000000
01000000
,
00000000
11000000
00000000
00000000
01100000
00000000
00000000
00100000
,
00001000
00000000
00010000
00000000
00001000
00010000
00000100
00000000
,
00000000
00001100
00000000
00000000
00000110
00000000
00000001
00000000
,
00000100
00000000
00000010
00001000
00000100
00000000
00000000
00000000
,
00000000
00000000
00000000
00000000
;

//---------------dance-double - ----------------
#NOTES:
     dance-double:
     :
     Challenge:
     18:
     :
00000000
00000000
00000000
00000000
,
00000000
00000000
00000000
00000000
,
00000000
00000000
00000000
00000000
,
00000000
00000000
00000000
00000000
,
00000000
00000000
00000000
00000000
,
00010100
00000000
00000000
00000000
00000010
00000000
00000001
00000000
00000001
00000100
00000010
00000000
00001000
00000000
00001100
00000000
,
00000010
00000000
00001000
00000100
00010000
00000000
01000000
00000000
01100000
00000000
00000000
00000000
10000000
00000000
00010000
00000000
,
00110000
00000000
00000000
00000000
01000000
00000000
00100000
00000000
00100000
10000000
01000000
00000000
00010000
00000000
00101000
00000000
,
00010000
00000000
00100000
00001000
00010000
00000010
00001000
00000000
00000200
00000000
00000010
00000000
00000310
00000000
00000010
00000000
,
00000100
00000000
00000000
00001100
00000000
00000000
00000101
00000000
00000000
00000000
00000010
00000000
00000000
00000000
00010000
00000000
,
00001000
00000000
00000000
00101000
00000000
00000000
01001000
00000000
00100000
00000000
10000000
01000000
00100000
00000000
00100000
01000000
,
00010000
00001000
00000000
00011000
00000000
00000000
00010100
00000000
00000000
00000010
00000001
00000000
00001000
00000000
00000001
00000100
,
00001000
00000000
00000000
00011000
00000000
00000000
00101000
00000000
00010000
00000000
01000000
00100000
10000000
00000000
00100000
00000000
,
02020000
03030000
00000000
20200000
30300000
00000000
02002000
03003000
00000000
00000000
00220000
00330000
00000000
00000000
00022000
00033000
,
00000000
00202000
00303000
20020000
30030000
00000000
01010000
00000000
00100000
00000000
00010000
00000000
00001000
00000000
00000100
00000000
,
00000020
00001030
00000000
00000202
00000303
00000000
00002200
00003300
00000000
00000020
00010030
00000000
00010100
00000000
00002000
00013000
,
00200000
00000000
00000000
20300000
00000000
00000000
30020000
00000000
01030000
00000000
00100000
00000000
01000000
00000000
00100000
00000000
,
10010000
00000000
01000000
10000000
00100000
00000000
00010000
00000000
00000000
00001000
00010000
00000000
00100000
00000000
01000000
00010000
00100000
00000000
01000000
00010000
00001000
00000000
00000100
00000000
00000010
00001000
00000001
00000100
00000010
00000000
00000100
00000000
,
00000001
00000000
00000001
00000010
00001000
00000000
00001000
00000010
00000001
00000000
00000100
00000000
00001000
00000000
00000000
00000000
00101000
00000000
00000000
00000000
00010100
00000000
00000000
00000000
00011000
00000000
00000000
00000000
00110000
00000000
00000000
00000000
,
10010000
10000000
01000000
00010000
,
00100000
00000000
00010000
00000000
00001000
00010000
00000100
00000000
,
00000010
00000000
00000010
00000000
00000001
00000100
00001000
00000100
,
00000001
00000010
00000100
00000010
00000001
00000000
00000001
00000000
,
00000100
00000000
00000100
00000000
00000010
00000000
00010000
00001000
,
00000100
00000000
00001000
00010000
00100000
01000000
00100000
00000000
,
10000000
00010000
00100000
10000000
,
00100000
00010000
01000000
00000000
11000000
00000000
01100000
00000000
,
10000000
00000000
01000000
00000000
00010000
00000000
00001000
00010000
,
00000100
00000000
00000010
00000000
00000001
00000010
00000100
00001000
,
00000100
00000000
00000010
00000000
00000001
00000100
00000010
00000001
,
00000010
00000100
00001000
00010000
00001000
00000000
00001000
00000000
,
00010000
00000000
00100000
00000000
01000000
00010000
00100000
00010000
,
10000000
00000000
01000000
00000000
00010000
00001000
00100000
00010000
,
00100000
00000000
00000000
10000000
00010000
00001000
,
00000100
00000000
00000022
00000033
,
00000100
00000100
00000001
00000010
,
00001000
00000000
00000010
00000001
00000100
00000010
00001000
00000001
,
00000100
00001000
00010000
00000000
00100000
00000000
01000000
00000000
,
00100000
00000000
10000000
00000000
00010000
00100000
00000000
00100000
,
00010000
00000000
00010000
00001000
00000000
00001000
00000100
00000000
,
00000100
00000010
00000000
00000001
00001000
00000000
00000100
00000000
,
00000010
00000001
00000100
00001000
,
00010000
00001000
01000000
00001000
00010000
00001000
00100000
00000000
,
00010000
00010000
10000000
00100000
,
00010000
00000000
00100000
01000000
00010000
01000000
00010000
00100000
,
01000000
00010000
00001000
00000000
00000010
00000000
00000001
00000000
,
00000010
00000000
00000001
00000000
00000100
00000010
00000000
00000010
,
00001000
00000000
00001000
00000100
00000000
00000100
00010000
00000000
,
00010000
00100000
00000000
00100000
10000000
00000000
00010000
00000000
,
10000000
01000000
00010000
00001000
,
00202000
00303000
00022000
00033000
00020200
00000000
00030300
00000000
,
00001000
00000000
00000001
00000100
00000010
00000000
00000001
00000000
,
00000100
00000001
00000010
00001000
,
00010000
00000000
00001000
00010000
00100000
00000000
10000000
00000000
,
00100000
00000000
01000000
00100000
01000000
00000000
00010000
00000000
,
10000000
00000000
00010000
10000000
01000000
00000000
00100000
00000000
,
10000000
00010000
00100000
00100000
,
00001000
00000000
00010000
00001000
00000100
00000000
00000010
00000000
,
00001000
00000000
00000001
00000100
00000001
00000000
00001000
00000000
,
00000001
00000100
00000001
00000100
00000010
00001000
00000100
00001000
,
00000000
00000010
00010000
00001000
00010000
00000100
00010000
00001000
,
00100000
00010000
01000000
00010000
00100000
01000000
00100000
00010000
,
00000000
10000000
01000000
00100000
00010000
01000000
00100000
00000000
,
10000000
00100000
01000000
00010000
00100000
01000000
10000000
01000000
,
00100000
00010000
00100000
00001000
00010000
00000000
00001000
00000000
,
00000000
00000010
00000100
00000010
00000001
00000100
00000010
00000100
,
00000001
00001000
00000100
00000010
00000002
00000000
00000003
00000000
,
00000100
00000000
00000100
00000010
00001000
00000000
00001000
00000000
,
00010000
00000000
00010000
00001000
00100000
00000000
00100000
00000000
,
01000000
00000000
01000000
10000000
00100000
00000000
00100000
00000000
,
10000000
01000000
00100000
00000000
00010000
00100000
01000000
00000000
,
11000000
00000000
00000000
00110000
00000000
00000000
01010000
00000000
,
00101000
00000000
00000000
00011000
00000000
00000000
00001100
00000000
,
00000011
00000000
00000000
00000101
00000000
00000000
00001010
00000000
,
00000001
00001000
00000010
00000000
00000100
00000000
00000100
00000000
,
00000001
00000010
00000100
00001000
00000000
00001000
00000100
00000000
,
00010000
00000010
00001000
00000100
00000000
00000100
00010000
00000000
,
00001000
00100000
00010000
01000000
00000000
01000000
00100000
00000000
,
10000000
01000000
00010000
00100000
,
01000000
00000000
00000000
10100000
00000000
00000000
01010000
00000000
,
00101000
00000000
00000000
00010100
00000000
00000000
00001010
00000000
,
00010000
00001000
00000100
00000010
00000000
00000000
00000101
00000000
,
00000010
00000100
00001000
00010000
,
00020000
00000000
00001000
00000000
00031000
01000000
00100000
20000000
00010000
00000000
31000000
00000000
00100000
00010000
10000000
02000000
,
03010000
00002000
00010000
00000000
00103000
00010000
02000000
00000000
03001000
00010000
00000100
00001000
00000200
00000000
00000310
00000000
,
00000002
00000000
00002003
00000000
00003010
00000100
00000001
00001000
00000200
00000000
00000010
00000000
00001300
00000010
00000100
00001000
,
00020000
00001000
00000000
00000000
00030100
00010000
00001000
00100000
00010000
00000000
01000000
00000000
00100000
00000000
10000000
00000000
,
00020000
00000000
00100000
10000000
00000000
00001000
00100000
00000000
,
10030000
00000000
00010000
00000000
10010000
00000000
00000000
00000000
01100000
00000000
00000000
00010000
00001000
00000000
00010000
00000000
,
00011000
00010000
00010100
00000010
,
00000001
00000100
00000110
00002000
,
00010000
00013000
01000000
10000000
,
00200000
00320000
00032000
00003020
,
00000100
00000130
00001001
00000000
,
00000020
00002030
00023000
00230000
,
01000000
01300000
10010000
02000000
,
00100000
00000000
03100000
00000000
10000000
00000000
00010000
00100000
,
00001000
00010000
00101000
00010000
,
00001000
00000100
00001010
00000002
,
00000100
00000103
00001000
00010000
,
00100000
01000000
01100000
10100000
,
00000000
00010000
11000000
00000000
,
00100000
00100000
00010000
00011000
,
00000000
00010000
00001000
00022000
,
00000000
00000000
00000000
00033000
MMMMMMMM
00000000
00100000
00000000
,
01000000
00010000
00100000
00000000
01000000
10000000
00100000
00000000
,
01000000
00010000
00100000
00000000
00001000
00000000
00010000
00000000
,
00000100
00001000
00000010
00000000
00000100
00000001
00000010
00000000
,
00001000
00000000
00010000
00000000
00001000
00010000
00000100
00000000
,
00001000
00000010
00000100
00000000
00000001
00000010
00000100
00000000
,
00001000
00000010
00000100
00000000
00001000
00010000
00001000
00000000
,
00100000
00001000
00010000
00000000
00001000
01000000
00100000
00000000
,
00010000
00100000
10000000
00100000
00010000
00000000
10000000
01000000
,
00100000
00010000
01000000
00100000
00010000
00000000
00000000
00000000
,
00011000
00010100
00002200
00000000
,
00003300
00000000
00000011
00000000
00000000
00000000
00000001
00000010
,
00000100
00001000
00000010
00000100
00001000
00000000
00000000
00000000
,
00011000
00000000
00101000
00000000
00000000
00000000
00001000
00010000
,
00100000
01000000
00010000
00100000
01000000
00000000
00000000
00000000
,
11000000
00110000
02020000
00000000
,
03030000
00000000
10010000
00000000
00000000
00000000
10000000
01000000
,
00000000
01100000
00000000
00000000
00011000
00000000
00000000
00010000
,
00000100
00000000
00001100
00000000
00000001
00000010
00000100
00000000
,
00000000
00001001
00000000
00000000
00001010
00000000
MMMMMMMM
00000000
,
01010000
00000000
00001000
00010000
00100000
00000000
00000000
00000000
,
00000000
00000000
00000000
00000000
;
