#TITLE:Beautiful Dream;
#ARTIST:REDALiCE feat. anporin;
#BANNER:Beautiful Dream.png;
#BACKGROUND:Beautiful Dream-bg.png;
#CDTITLE:./CDTitles/DanceDanceRevolution 2013.png;
#MUSIC:Beautiful Dream.ogg;
#SAMPLESTART:45.617;
#SAMPLELENGTH:15;
#BPMS:0=182;
#STAGE:16;

//---------------dance-single - ----------------
#NOTES:
     dance-single:
     :
     Beginner:
     3:
     :
0000
0000
0000
0000
,
0000
0000
0000
0000
,
0000
0000
0000
0000
,
0000
0000
0000
0000
,
0000
0000
0000
0000
,
0000
0000
0000
0000
,
1000
0000
0000
0000
,
1000
0000
0000
0000
,
0001
0000
0001
0000
,
1000
0000
1000
0000
,
0010
0000
0000
0000
,
0100
0000
0100
0000
,
0010
0000
0000
0000
,
0100
0000
0100
0000
,
1000
0000
0000
0000
,
0001
0000
0000
0000
,
1000
0000
0000
0000
,
0001
0000
1000
0000
,
0100
0000
0000
0000
,
0010
0000
0010
0000
,
0100
0000
0000
0000
,
0010
0000
0010
0000
,
0001
0000
0000
0000
,
1000
0000
0000
0000
,
0001
0000
0001
0000
,
1000
0000
0001
0000
,
0010
0000
0000
0000
,
1000
0000
0000
0000
,
0001
0000
0010
0000
,
0100
0000
1000
0000
,
1000
0000
0000
0000
,
0001
0000
0000
0000
,
1000
0000
0000
0000
,
0001
0000
0000
0000
,
1001
0000
0000
0000
,
0010
0000
0010
0000
,
0001
0000
0001
0000
,
0010
0000
0010
0000
,
1000
0000
1000
0000
,
0100
0000
0000
0000
,
0100
0000
0000
0000
,
0010
0000
0000
0000
,
0010
0000
0000
0000
,
0010
0000
0010
0000
,
1000
0000
1000
0000
,
0010
0000
0010
0000
,
0001
0000
0001
0000
,
0010
0000
0000
0000
,
0100
0000
0000
0000
,
0010
0000
0000
0000
,
1001
0000
0000
0000
,
0001
0000
0000
0000
,
1000
0000
0000
0000
,
0001
0000
0000
0000
,
1000
0000
0000
0000
,
1000
0000
1000
0000
,
0001
0000
0001
0000
,
1000
0000
1000
0000
,
0001
0000
0001
0000
,
0010
0000
0000
0000
,
0000
0000
0000
0000
,
0000
0000
0000
0000
,
0010
0000
0010
0000
,
1000
0000
1000
0000
,
0010
0000
0000
0000
,
0001
0000
0000
0000
,
0100
0000
0000
0000
,
1000
0000
0000
0000
,
0010
0000
0010
0000
,
0001
0000
0001
0000
,
0010
0000
0010
0000
,
1000
0000
1000
0000
,
0001
0000
0000
0000
,
1000
0000
0000
0000
,
0010
0000
0000
0000
,
1001
0000
0000
0000
,
1000
0000
0000
0000
,
1000
0000
0000
0000
,
0001
0000
1000
0000
,
0001
0000
0001
0000
,
1000
0000
0000
0000
,
0001
0000
0000
0000
,
0010
0000
0010
0000
,
0100
0000
0100
0000
,
1001
0000
0000
0000
,
0000
0000
0000
0000
;

//---------------dance-single - ----------------
#NOTES:
     dance-single:
     :
     Easy:
     7:
     :
0000
0000
0000
0000
,
0000
0000
0000
0000
,
0000
0000
0000
0000
,
0000
0000
0000
0000
,
0000
0000
0000
0000
,
0000
0000
0000
0000
,
1000
1000
0100
0010
,
0001
0001
0100
1001
,
0100
0100
0100
0001
,
1000
0001
1001
0000
,
1000
0100
0010
0001
,
1000
0100
0010
0001
,
0001
0010
0100
1000
,
0001
0010
0100
1000
,
1000
0000
0001
0100
,
0001
0000
1000
0100
,
0010
0000
0010
0000
,
0100
0100
1001
0000
,
0001
0100
0010
1000
,
0001
0100
0010
1000
,
1000
0010
0100
0001
,
1000
0010
0100
0001
,
0001
0000
1000
0100
,
1000
0000
0001
0100
,
0010
0000
0010
0000
,
0100
0100
1001
0000
,
0001
0000
0100
0000
,
1000
1000
0100
0000
,
0001
0000
0100
0000
,
1000
1000
0100
0000
,
1001
0100
0100
0000
,
1001
0100
0100
0000
,
1000
0100
0010
0001
,
1000
1001
0220
0000
,
0000
0000
0330
0000
,
1000
0100
0010
0001
,
1000
0100
0010
0001
,
1000
0100
0010
0001
,
1000
0001
1001
0000
,
0001
0010
0100
1000
,
0001
0010
0100
1000
,
0001
0100
1000
0100
,
0010
0000
0100
0000
,
0001
0010
0100
1000
,
0001
0010
0100
1000
,
0001
0010
0100
1000
,
0001
1000
1001
0000
,
1001
0000
0010
0000
,
1001
0000
0010
0010
,
2002
0000
0000
0000
3003
0000
0000
0100
,
0000
0020
0000
0030
,
1000
0001
1000
0001
,
0010
0010
0010
0100
,
0001
1000
0001
1000
,
0010
0010
0010
0100
,
1000
1000
0001
0001
,
0100
0100
0010
0010
,
0100
1001
0100
1001
,
0100
1001
0100
1001
,
0110
0000
0000
0000
,
0100
0000
0010
0000
,
0010
0100
2002
3003
,
1000
0100
0010
0001
,
1000
0001
1001
0000
,
0001
0010
0100
1000
,
0001
0010
0100
1000
,
0001
0100
1000
0100
,
0010
0000
0100
0000
,
0001
0010
0100
1000
,
0001
0010
0100
1000
,
0001
0010
0100
1000
,
0001
1000
1001
0000
,
1001
0000
0010
0000
,
1001
0000
0010
0010
,
2002
0000
0000
0000
3003
0000
0000
0100
,
0000
0020
0000
0030
,
1000
1000
0100
0010
,
0001
0001
0100
0001
,
0100
0100
0100
0001
,
1000
0001
1001
0000
,
0001
0001
0100
0010
,
1000
1000
0100
0001
,
0100
0100
0100
1000
,
0001
0000
0000
0100
0000
0010
0000
2002
,
0000
0000
0000
3003
,
0000
0000
0000
0000
;

//---------------dance-single - ----------------
#NOTES:
     dance-single:
     :
     Medium:
     9:
     :
0000
0000
0000
0000
,
0000
0000
0000
0000
,
0000
0000
0000
0000
,
0000
0000
0000
0000
,
0000
0000
0000
0000
,
0000
0000
0000
0000
,
1000
1000
0100
0001
,
0001
0001
0100
1000
,
0100
0000
0001
0100
0000
0001
0000
0000
,
1000
0000
0010
1000
0000
0010
0000
0000
,
1000
0010
0100
0010
,
1000
0001
0100
0000
,
0001
0100
0010
0100
,
0001
1000
0100
0000
,
2000
0000
3001
0100
,
0002
0000
1003
0010
,
2000
0000
3010
0100
,
2002
0000
0000
3003
0000
0000
0000
0000
,
0001
0010
0100
1000
,
0001
0100
0001
0000
,
1000
0100
0010
0001
,
1000
0100
1000
0000
,
0020
0030
1000
0001
,
0020
0030
0001
1000
,
0001
0100
1000
0010
,
0001
0000
0000
1000
0000
0000
0001
0000
0100
0000
0000
0000
0000
0000
0000
0000
,
2000
0000
3001
0000
,
0200
0010
0310
0000
,
0020
0000
1030
0000
,
0002
0100
0103
0000
,
0002
0000
0003
0020
0000
0030
2000
3000
,
0200
0000
0300
0002
0000
0003
2000
3000
,
0100
0000
0000
0010
0000
0001
0000
0100
,
0000
0010
1001
0000
,
0220
0000
0000
0330
0000
0000
0000
0000
,
0010
0000
1000
0000
0001
0100
0010
0000
,
1000
0010
1000
0000
0001
0000
0000
0000
,
1000
0000
0010
0000
1000
0100
0010
0001
,
0000
0001
0000
0000
1000
0000
1000
0000
,
0001
0000
0010
0100
0010
0000
0001
0000
,
1000
0000
0010
0100
0010
0000
1000
0000
,
0001
0000
0100
0001
0000
0001
0000
2000
,
0000
3000
0010
1000
,
0001
0000
0100
0000
0010
1000
0100
0000
,
1000
0001
1000
0000
0100
0000
0000
0000
,
0010
0000
0001
0000
0100
0010
1000
0001
,
0000
0001
0000
0000
1000
0000
1000
0000
,
0001
0000
1000
0001
0000
0000
0000
0000
,
0010
0000
0100
0010
0000
0000
0000
0000
,
0001
0000
0010
0000
0100
0000
1000
0100
,
0000
0010
0001
0000
0000
0000
0000
0000
,
1000
1100
0001
0101
,
1000
1100
0001
0101
,
0001
1100
0001
1100
,
1000
0101
1000
0101
,
1000
0110
0001
0110
,
1000
0110
0001
0110
,
1000
0100
1000
0000
0001
0100
0001
0000
,
1000
0100
1000
0001
0100
0001
0010
0000
,
2002
0000
3003
0000
,
0100
0000
0000
0010
0000
0100
0000
0001
,
0000
1000
0000
0000
0101
0000
0000
0000
,
0001
0000
0010
0000
0001
0100
0010
1000
,
0000
1000
0000
0000
0001
0000
0001
0000
,
1000
0000
0010
1000
0100
0000
1000
0000
,
0001
0000
0010
0001
0100
0000
0001
0000
,
1000
0000
0100
1000
0000
1000
0000
0002
,
0000
0003
0100
0010
,
1000
0000
0100
0000
0010
0001
0100
0000
,
0001
1000
0001
0000
0100
0000
0000
0000
,
0010
0000
1000
0000
0100
0010
0001
1000
,
0000
1000
0000
0000
0001
0000
0001
0000
,
1000
0000
0001
1000
0000
0000
0000
0000
,
0010
0000
0100
0010
0000
0000
0000
0000
,
1000
0000
0010
0000
0100
0000
0001
0100
,
0000
0010
1000
0000
0000
0000
0000
0000
,
1000
0001
0010
0100
,
1000
0010
0100
0001
,
0100
0000
0001
0000
1000
0000
0010
0100
,
0000
0000
0100
0010
0000
0000
1001
0000
,
1000
0010
1000
0001
,
0100
0001
1000
0001
,
0100
0000
0010
1000
0000
0001
0000
0000
,
1000
0000
0100
0010
0000
0001
0000
2002
,
0000
0000
0000
3003
,
0000
0000
0000
0000
;

//---------------dance-single - ----------------
#NOTES:
     dance-single:
     :
     Hard:
     12:
     :
0000
0000
0000
0000
,
0000
0000
0000
0000
,
0000
0000
0000
0000
,
0000
0000
0000
0000
,
0000
0000
0000
0000
,
0000
0000
0000
0000
,
1000
0000
1000
0100
1000
0000
1000
0000
,
0001
0000
0001
0100
0001
0000
0001
0000
,
1000
0000
0100
1000
0000
2002
0000
3003
,
0001
0000
0100
0001
0000
2002
0000
3003
,
1000
0000
0010
0000
0100
0001
0010
0000
,
0001
0000
1000
0000
0100
1000
0010
0000
,
1000
0000
0001
0000
0100
0010
0100
0000
,
0001
0100
0010
1000
0000
0010
1000
0000
,
2002
0000
3003
0100
0001
0000
0110
0000
,
2002
0000
3003
0100
1000
0000
0110
0000
,
2002
0000
3003
0100
0010
0000
0100
0000
,
1000
0000
0000
0001
0000
0000
0200
0000
0000
0000
0000
0000
0300
0000
0000
0000
,
0001
0000
0010
0000
0100
1000
0010
0000
,
1000
0000
0001
0000
0100
0001
0010
0000
,
0001
0000
1000
0000
0100
0010
0100
0000
,
1000
0100
0010
0001
0000
0010
0001
0000
,
2002
0000
3003
0100
1000
0000
0110
0000
,
2002
0000
3003
0100
0001
0000
0110
0000
,
1100
0110
0011
0110
,
1000
0000
0000
0001
0000
0000
0100
0000
0020
0000
0000
0000
0030
0000
0000
0000
,
1000
0000
0001
0000
0010
0000
0100
1000
,
0100
1000
0010
0100
,
0001
0010
1000
0100
,
0001
0000
0010
0100
0010
0000
1001
0000
,
0002
0000
0000
0023
0000
0000
2030
0000
,
3200
0000
0000
0302
0000
0000
2003
3000
,
0100
0000
1000
0001
0000
0010
0000
0100
,
0000
1000
0001
0000
0110
0000
0000
0000
,
0010
0000
0000
0100
0000
0000
2002
0000
0000
0000
0000
0000
3003
0000
0000
0000
,
0100
1000
0010
0100
0001
0100
0010
0000
,
0001
0100
0010
1000
0001
0010
0100
0000
,
1000
0010
0100
0001
0100
0010
1000
0001
,
0000
1000
0100
0010
0100
0000
1001
0000
,
0001
0000
0010
0200
0000
1300
0100
0000
,
1000
0000
0010
0200
0000
0301
0100
0010
,
1000
0000
0100
1000
0000
0001
0010
0100
,
0000
1000
0100
0001
0100
0000
1001
0000
,
0010
0001
0100
0010
1000
0010
0100
0000
,
1000
0010
0100
0001
1000
0100
0010
0000
,
0001
0100
0010
1000
0010
0100
0001
1000
,
0000
0001
0010
0100
0010
0000
1001
0000
,
0100
0001
0010
0100
0000
1000
0001
0010
,
0100
1000
0010
0100
0000
0010
0000
1000
,
0000
0001
0010
0100
1000
0000
0010
0100
,
0000
0002
2000
0000
0000
3003
0000
0000
,
1100
0101
1100
0101
,
1010
0011
1010
0011
,
1100
0101
1010
0011
,
1100
0101
1010
0011
,
0102
0013
2010
3100
,
1200
0301
0201
1300
,
1000
0100
0010
0001
1000
0100
0010
0001
,
0100
0010
1000
0001
0100
1000
0100
0001
,
0020
0000
0000
0030
0000
0010
0001
0100
,
0001
0000
0010
0100
0000
0010
0000
0002
,
0000
2000
0000
0000
0000
0000
3003
0000
,
0100
0001
0010
0100
1000
0010
0100
0001
,
0100
1000
0100
0010
0100
0000
0110
0000
,
0001
0000
0010
0200
0000
1300
0100
0000
,
1000
0000
0010
0200
0000
0310
0100
0000
,
0001
0000
0100
0010
0000
0010
1000
0001
,
0000
0100
0010
0100
0010
0000
1001
0000
,
0001
0010
1000
0010
0001
0100
1000
0100
,
0001
0010
1000
0010
0001
0000
0110
0000
,
1000
0010
0001
0010
1000
0100
0001
0100
,
0000
1000
0010
0100
0010
0000
1001
0000
,
1000
0100
0001
0100
0000
0010
0010
0000
,
0001
0010
1000
0010
0000
0100
0100
0000
,
0020
0000
0000
0000
0000
0000
0031
0100
,
0000
0002
2000
0000
0000
0000
3003
0000
,
1000
0000
0001
0000
1000
0010
0100
0000
,
0001
0000
0010
0000
0001
0100
0001
0000
,
0100
0001
0100
0010
1000
0001
0000
0020
,
0000
0000
0130
0010
0000
0000
1001
0000
,
0001
0000
1000
0000
0001
0100
0010
0000
,
1000
0000
0100
0000
1000
0010
1000
0000
,
0100
0000
0100
0010
0000
1001
0000
0000
,
0100
0000
0100
0010
0000
0100
0000
2002
,
0000
0000
0000
3003
,
0000
0000
0000
0000
;

//---------------dance-single - ----------------
#NOTES:
     dance-single:
     :
     Challenge:
     15:
     :
0000
0000
0000
0000
,
0000
0000
0000
0000
,
0000
0000
0000
0000
,
0000
0000
0000
0000
,
0000
0000
0000
0000
,
0000
0000
0000
0000
,
1000
0100
1000
0001
0100
0001
1000
0010
,
0100
0001
1000
0100
1000
0001
1001
0000
,
0001
0100
0001
0000
0010
0000
0110
0000
0000
0000
2002
0000
0000
3000
0003
0000
,
1000
0100
1000
0000
0010
0000
0110
0000
0000
0000
2002
0000
0000
0000
3003
0000
,
0100
1000
0010
0001
0010
1000
0010
0100
,
1000
0100
0001
1000
0100
0001
1001
0000
,
1000
0010
0001
0100
1000
0001
0010
1000
,
0100
0010
0001
0100
0010
1000
1001
0000
,
0220
0000
0000
0000
0300
0000
1030
0100
1000
0000
0001
0000
0100
0000
0001
0000
,
0010
0000
0000
0100
0000
0000
1000
0010
0100
0000
0001
0000
0100
0000
1000
0000
,
0220
0000
0000
0000
0300
0000
1030
0100
1000
0000
0001
0000
0100
0000
0001
0000
,
0110
0000
0000
1100
0000
0000
0012
0000
0000
0000
1003
0000
0100
0000
0010
0000
,
1000
0001
0100
0010
1000
0010
0001
0100
,
1000
0100
0001
1000
0001
0010
0110
0000
,
0100
1000
0010
0001
1000
0100
0001
0010
,
0001
0100
0010
1000
0001
0100
0110
0000
,
0220
0000
0000
0000
0300
0000
1030
0100
0010
0000
0001
0000
0100
0000
1000
0000
,
0100
0000
0000
0001
0000
0000
0100
0010
1000
0000
0100
0000
0110
0000
0000
0000
,
0002
0000
1003
0100
0010
0100
1000
0001
,
0101
0000
0000
1100
0000
0000
0110
0000
2002
0000
0000
0000
3003
0000
0000
0000
,
0002
0103
0010
0000
2000
3010
0100
0000
,
0002
1003
0100
0000
2000
3001
0010
0000
,
0020
0100
0031
0000
0200
0010
0301
0000
,
2000
0010
3100
0010
0200
0001
0310
0000
,
0002
0000
0000
0020
0000
0003
2000
0030
,
0200
0000
3000
0002
0000
0300
2000
3003
,
0110
0000
0000
0000
0010
1000
0001
0000
0000
0000
0010
0000
0100
0000
1001
0000
,
0000
0000
0100
1000
0001
0000
0000
0000
1001
0000
0000
0000
0000
0000
1000
0100
,
0010
0000
0000
0011
0000
0000
2002
0000
0000
0000
0000
0000
3003
0000
0000
0000
,
0010
0100
1000
0001
0100
0010
1000
0001
,
1000
0000
0010
0000
0100
0000
0010
1000
0010
0000
1000
0010
0100
0010
0100
0001
,
0010
0100
1000
0100
0001
0100
1000
0010
,
0000
0000
0101
0000
1001
0000
0000
0000
0100
1000
0001
1000
0001
0100
0001
1000
,
0010
0000
1000
0010
0200
0000
0020
0000
0300
0000
1030
0100
1000
0000
0000
0000
,
0100
0000
1000
0100
0020
0000
0200
0000
0030
0000
1300
0010
0100
0000
0001
0000
,
0010
0000
0100
0010
0000
0110
0000
1001
,
0100
0000
0010
0000
0000
0000
0100
0000
0001
0100
0001
0100
0001
0010
0100
1000
,
0001
0100
0001
1000
0100
0010
0001
1000
,
0100
0000
0001
0000
0100
0000
1000
0100
1000
0000
0001
0010
0100
0010
0001
1000
,
0010
0100
0001
0100
1000
0100
0001
0010
,
0000
0000
1100
0000
1001
0000
0000
0000
0100
0001
1000
0001
1000
0100
1000
0001
,
0010
0000
0000
0000
0001
0000
0100
0000
0000
0000
0001
0100
0001
1000
0001
0100
,
0010
0000
0000
0000
1000
0000
0100
0000
0000
0000
1000
0100
1000
0001
1000
0100
,
0020
0000
0000
0000
0000
0000
0031
0010
,
0000
0002
2000
0000
0000
3003
0000
0000
,
1100
0110
1100
0110
,
1100
0110
1100
0101
,
1200
0310
2100
3010
,
1200
0310
2100
3001
,
2100
3200
0320
0230
,
2300
3200
0302
0203
,
2300
3200
0320
0230
2300
3200
0302
0203
,
1300
0100
0010
0100
1000
0100
0010
0100
1000
0100
0010
0100
1000
0100
0001
0100
,
2000
0000
0000
0000
,
3001
0000
0010
0100
0000
0010
0000
0001
,
0000
1000
0000
0000
0220
0000
0330
0000
,
0010
0100
0001
0100
1000
0100
0001
0010
,
0000
0000
1100
0000
1001
0000
0000
0000
0100
0001
1000
0001
1000
0100
1000
0001
,
0010
0000
0001
0010
0200
0000
0020
0000
0300
0000
0031
0100
0001
0000
0000
0000
,
0100
0000
0001
0100
0020
0000
0200
0000
0030
0000
0301
0010
0100
0000
1000
0000
,
0010
0000
0100
0010
0000
0110
0000
1001
,
0100
0000
0010
0000
0000
0000
0100
0000
1000
0100
1000
0100
1000
0010
0100
0001
,
1000
0100
1000
0001
0100
0010
1000
0001
,
0100
0000
1000
0000
0100
0000
0001
0100
0001
0000
1000
0010
0100
0010
1000
0001
,
0010
0100
1000
0100
0001
0100
1000
0010
,
0000
0000
0101
0000
1001
0000
0000
0000
0100
1000
0001
1000
0001
0100
0001
1000
,
0010
0000
0000
0000
1000
0000
0100
0000
0000
0000
1000
0100
1000
0001
1000
0100
,
0010
0000
0000
0000
0001
0000
0100
0000
0000
0000
0001
0100
0001
1000
0001
0100
,
0020
0000
0000
0000
0000
0000
1030
0010
,
0000
2000
0002
0000
0000
3003
0000
0000
,
0001
0100
0001
1000
0100
1000
0001
0010
,
0100
1000
0001
0100
0001
1000
0100
0001
,
0100
1000
0010
0001
0010
0100
0001
0110
,
0000
0000
1100
0202
0000
0000
0303
0000
,
0100
0001
0010
1000
0010
0001
0010
0100
,
0001
0100
1000
0001
0100
1000
0100
0001
,
0010
0001
0010
0000
0100
0000
1100
0000
0000
0000
2200
0000
0000
0000
3300
0000
,
1000
0100
1000
0000
0010
0000
1010
0000
0000
0000
0110
0000
0000
0000
2002
0000
,
0000
0000
0000
3003
,
0000
0000
0000
0000
;

//---------------dance-double - ----------------
#NOTES:
     dance-double:
     :
     Easy:
     7:
     :
00000000
00000000
00000000
00000000
,
00000000
00000000
00000000
00000000
,
00000000
00000000
00000000
00000000
,
00000000
00000000
00000000
00000000
,
00000000
00000000
00000000
00000000
,
00000000
00000000
00000000
00000000
,
00001000
00000001
00000100
00000100
,
00000010
00010000
00001000
00001000
,
00100000
00010000
01000000
01000000
,
00010000
01000000
10010000
00000000
,
10000000
01000000
00100000
00001000
,
00010000
00000100
00000010
00000001
,
00000010
00000100
00010000
00001000
,
01000000
00010000
10000000
01000000
,
10000000
00000000
00000000
01000000
01000000
00000000
00000000
00000000
,
00100000
00000000
00000000
00001000
00001000
00000000
00000000
00000000
,
00010000
00000000
00000000
00000010
00000010
00000000
00000000
00000000
,
00000001
00001000
00000101
00000000
,
00000001
00000010
00000100
00010000
,
00001000
00100000
01000000
10000000
,
01000000
00100000
00001000
00010000
,
00000010
00001000
00000001
00000010
,
00000001
00000000
00000000
00000010
00000010
00000000
00000000
00000000
,
00000100
00000000
00000000
00010000
00010000
00000000
00000000
00000000
,
00001000
00000000
00000000
01000000
01000000
00000000
00000000
00000000
,
10000000
00010000
11000000
00000000
,
10000000
10000000
01000000
01000000
,
00010000
00010000
00001000
00001000
,
00000100
00000100
00000001
00000001
,
00000010
00000100
00001001
00000000
,
00000001
00000000
00000000
00001000
00000000
00000000
00010000
00000000
,
10000000
00000000
00000000
00010000
00000000
00000000
00001000
00000000
,
00000001
00000000
00001000
00000000
,
00000110
00000110
00001001
00000000
,
00002000
00000000
00000000
00003000
,
00000001
00000010
00000100
00010000
,
00001000
00100000
01000000
10000000
,
01000000
00100000
00001000
00010000
,
00000100
00000010
00001001
00000000
,
00000001
00000000
00000001
00001000
00000000
00000000
00000100
00000000
,
00010000
00000000
00010000
00001000
00000000
00000000
01000000
00000000
,
00100000
10000000
00010000
01000000
,
20020000
00000000
30030000
00000000
,
10000000
00100000
01000000
00001000
,
00010000
00000010
00000100
00000001
,
00000100
00000010
00010000
00001000
,
01000000
00100000
10010000
00000000
,
10000000
00000000
10000000
00010000
00000000
00000000
01000000
00000000
,
00001000
00000000
00001000
00010000
00000000
00000000
00000100
00000000
,
00000010
00000000
00000001
00000000
00001000
00000000
00000100
00000010
,
00000000
00000100
00000010
00000000
00000000
00000000
00000000
00000000
,
00001001
00001000
00000100
00001000
,
00000110
00010000
00000100
00010000
,
00011000
00001000
01000000
00010000
,
01100000
10000000
01000000
10000000
,
10010000
01000000
10010000
01000000
,
00100000
00001000
00011000
00000100
,
00001001
00000100
00001001
00000100
,
00000110
00000110
00001001
00001001
,
00000220
00000000
00000000
00000330
,
00001000
00000000
00000100
00000000
,
00010000
00001000
00011000
00000000
,
00001000
00100000
00001000
00010000
,
00000100
00000010
00001001
00000000
,
00000001
00000000
00000001
00001000
00000000
00000000
00000100
00000000
,
00010000
00000000
00010000
00001000
00000000
00000000
01000000
00000000
,
00100000
10000000
00010000
01000000
,
20020000
00000000
30030000
00000000
,
10000000
00100000
01000000
00001000
,
00010000
00000010
00000100
00000001
,
00000100
00000010
00010000
00001000
,
01000000
00100000
10010000
00000000
,
10000000
00000000
10000000
00010000
00000000
00000000
01000000
00000000
,
00001000
00000000
00001000
00010000
00000000
00000000
00000100
00000000
,
00000010
00000000
00000001
00000000
00001000
00000000
00000100
00000010
,
00000000
00000100
00000010
00000000
00000000
00000000
00000000
00000000
,
00001000
00000001
00000100
00000100
,
00000010
00010000
00001000
00001000
,
00100000
00010000
01000000
01000000
,
00010000
01000000
10010000
00000000
,
00010000
10000000
01000000
01000000
,
00100000
00001000
00010000
00010000
,
00000010
00001000
00000100
00000100
,
00001000
00000000
00000000
00000100
00000000
00000010
00000000
00002002
,
00000000
00000000
00000000
00003003
,
00000000
00000000
00000000
00000000
;

//---------------dance-double - ----------------
#NOTES:
     dance-double:
     :
     Medium:
     9:
     :
00000000
00000000
00000000
00000000
,
00000000
00000000
00000000
00000000
,
00000000
00000000
00000000
00000000
,
00000000
00000000
00000000
00000000
,
00000000
00000000
00000000
00000000
,
00000000
00000000
00000000
00000000
,
00010000
00001000
01000000
00010000
,
01000000
01000000
00100000
00100000
,
10000000
01000000
00100000
00001000
,
00010000
00000000
01000000
10000000
00000000
10000000
00000000
00000000
,
00010000
00000000
01000000
00000000
,
10000000
10000000
00010000
00000000
,
01000000
00000000
00001000
00000000
,
00010000
00010000
00000100
00000010
,
00000001
00000000
00000000
00000100
00000000
00000000
00001000
00000000
00010000
00000000
00000000
00000000
01000000
00000000
00000000
00000000
,
10000000
00000000
00000000
01000000
00000000
00000000
00010000
00000000
00001000
00000000
00000000
00000000
00000100
00000000
00000000
00000000
,
00000001
00000000
00000000
00000100
00000000
00000000
00001000
00000000
00010000
00000000
00000000
00000000
01000000
00000000
00000000
00000000
,
10000000
00000000
10000000
00000000
,
00010000
00000000
01000000
00000000
,
00001000
00001000
00010000
00000000
,
00000010
00000000
00010000
00000000
,
00001000
00001000
01000000
00100000
,
10000000
00000000
00000000
01000000
00000000
00000000
00010000
00000000
00001000
00000000
00000000
00000000
00000100
00000000
00000000
00000000
,
00000001
00000000
00000000
00000100
00000000
00000000
00001000
00000000
00010000
00000000
00000000
00000000
01000000
00000000
00000000
00000000
,
10000000
01000000
00100000
00001000
,
00020000
00000000
00002000
00033000
,
01000000
00001000
01000000
00000000
,
00000100
00010000
00000100
00000000
,
00010000
00000000
00000100
00000000
,
00000010
00000000
00000001
00000000
,
00001000
00000000
00000000
00000001
00000000
00000000
00001000
00000000
,
00010000
00000000
00000000
10000000
00000000
00000000
00010000
00000000
,
00100000
00000000
00000000
00001000
00000000
00010000
00000000
00010000
,
00000000
00001000
00000100
00000000
00000001
00000000
00000000
00000000
,
00000020
00000000
00000000
00000030
00000000
00000000
00000000
00000000
,
00000010
00000000
00000001
00000000
00001000
00000100
00010000
00000000
,
00001000
00000000
01000000
00000000
00010000
10000000
01000000
00000000
,
10000000
00000000
01000000
00000000
00100000
00001000
00010000
00001000
,
00000000
00010000
00000000
00000000
00011000
00000000
00010100
00000000
,
00001000
00001000
00000100
00000010
,
00000001
00000000
00000001
00000000
00000100
00000010
00000100
00000000
,
00000001
00000000
00000001
00000100
00000000
00001000
00000000
00010000
,
00000000
01000000
00000000
10000000
01000000
00000000
00000000
00000000
,
00100000
00000000
10000000
00000000
00010000
01000000
00001000
00000000
,
00010000
00000000
00000100
00000000
00001000
00000001
00000100
00000000
,
00000001
00000000
00000100
00000000
00000010
00010000
00001000
00010000
,
00000000
00001000
00000000
00000000
00011000
00000000
01001000
00000000
,
00010000
00010000
01000000
00000000
,
10000000
10000000
01000000
00000000
,
10000000
00000000
00000000
00000000
01000000
00000000
00010000
00001000
,
00000000
00000100
00000001
00000000
00000000
00000000
00000000
00000000
,
00000001
00000101
00010000
00010100
,
00001000
00011000
01000000
01010000
,
10000000
10100000
00001000
00101000
,
00010000
00011000
00000010
00001010
,
00011000
01000000
00011000
00000100
,
00011000
01000000
00011000
00000100
,
00102000
00013000
00020010
00031000
,
00010000
00100000
00010000
00000000
00001000
00000010
00001000
00000000
,
00022000
00000000
00000000
00033000
,
00001000
00000000
00010000
00001000
00000000
00100000
00000000
00010000
,
00000000
01000000
00000000
00100000
20020000
00000000
30030000
00000000
,
10000000
00000000
01000000
00000000
00100000
00001000
00010000
00001000
,
00000000
00010000
00000000
00000000
00011000
00000000
00010100
00000000
,
00001000
00001000
00000100
00000010
,
00000001
00000000
00000001
00000000
00000100
00000010
00000100
00000000
,
00000001
00000000
00000001
00000100
00000000
00001000
00000000
00010000
,
00000000
01000000
00000000
10000000
01000000
00000000
00000000
00000000
,
00100000
00000000
10000000
00000000
00010000
01000000
00001000
00000000
,
00010000
00000000
00000100
00000000
00001000
00000001
00000100
00000000
,
00000001
00000000
00000100
00000000
00000010
00010000
00001000
00010000
,
00000000
00001000
00000000
00000000
00011000
00000000
01001000
00000000
,
00010000
00010000
01000000
00000000
,
10000000
10000000
01000000
00000000
,
10000000
00000000
00000000
00000000
01000000
00000000
00010000
00001000
,
00000000
00000100
00000002
00000000
00000000
00000000
00000003
00000000
,
00000100
00000001
00001000
00000100
,
00010000
00010000
00001000
00001000
,
00100000
00010000
01000000
00100000
,
10000000
00000000
00100000
00000000
,
10000000
00010000
01000000
00010000
,
00100000
00100000
00001000
00001000
,
00010000
00000000
00000100
00000010
00000000
00000001
00000000
00000000
,
00000100
00000000
00001000
00010000
00000000
00100000
00000000
20000000
,
00000000
00000000
00000000
30000000
,
00000000
00000000
00000000
00000000
;

//---------------dance-double - ----------------
#NOTES:
     dance-double:
     :
     Hard:
     12:
     :
00000000
00000000
00000000
00000000
,
00000000
00000000
00000000
00000000
,
00000000
00000000
00000000
00000000
,
00000000
00000000
00000000
00000000
,
00000000
00000000
00000000
00000000
,
00000000
00000000
00000000
00000000
,
00000100
00000000
00000001
00001000
00000100
00000000
00010000
00000000
,
00001000
00000000
00100000
00001000
00010000
00000000
00001000
00000000
,
00100000
00000000
00001000
00010000
00000000
00010100
00000000
00000000
,
00001000
00000000
00100000
00010000
00000000
01010000
00000000
00000000
,
00010000
00000000
00100000
00000000
01000000
10000000
00010000
00000000
,
01000000
00000000
00100000
00000000
00010000
00001000
00000010
00000000
,
00000001
00000000
00000100
00000000
00001000
00010000
01000000
00000000
,
10000000
01000000
00100000
00001000
00010000
00000100
00001000
00000000
,
00000200
00000000
00000300
00010000
00001000
00000000
01001000
00000000
,
02000000
00000000
03000000
00001000
00010000
00000000
00011000
00000000
,
00000020
00000000
00000030
00000100
00000001
00000000
00000100
00000000
,
00001000
00000000
00000000
00010000
00000000
00000000
02000000
00000000
00000000
00000000
00000000
00000000
03000000
00000000
00000000
00000000
,
01000000
00000000
00100000
00000000
00001000
00010000
00000100
00000000
,
00000010
00000000
00000001
00000000
00001000
00000100
00010000
00000000
,
00001000
00000000
00100000
00000000
01000000
10000000
00010000
00000000
,
10000000
01000000
00010000
00001000
00100000
00010000
01000000
00001000
,
00020000
00000000
00000000
00031000
00000100
00000000
00000001
00000000
,
00000020
00000000
00000000
00001030
00010000
00000000
00100000
00000000
,
10000000
01000000
00100000
00001000
,
00010000
00000000
00000000
00001000
00000000
00000000
00000100
00000000
00000020
00000000
00000000
00000000
00000030
00000000
00000000
00000000
,
00000010
00000100
00001000
00010000
,
01000000
10000000
01000000
00100000
,
00110000
00101000
00011000
01001000
,
00011000
00010100
00001100
00000110
,
00000001
00000000
00000000
00001000
00000000
00000000
00010000
00000000
,
10000000
00000000
00000000
00010000
00000000
00000000
00001000
00000000
,
00100000
00000000
00010000
00001000
00000000
00000010
00000000
00000001
,
00000000
00001000
00000100
00000000
00022000
00000000
00033000
00000000
,
00100000
00000000
00000000
00010000
00000000
00000000
02000000
00000000
00000000
00000000
00000000
00000000
03000000
00000000
00000000
00000000
,
00100000
01000000
00001000
00010000
00001000
00100000
00010000
00000000
,
10000000
00100000
01000000
00010000
01000000
00001000
00010000
00000000
,
00001000
00100000
00001000
00010000
00001000
01000000
00010000
00100000
,
00000000
00010000
01000000
00001000
00010000
00000000
00011000
00000000
,
00010000
00000000
00000100
00001000
00000010
00010000
00001000
00000000
,
00001000
00000000
01000000
00010000
00100000
00001000
00010000
00000000
,
00010000
00000000
00001000
00020000
00000000
00030020
00000000
00002030
,
00003000
00000010
00000000
00001000
00000100
00000000
00001100
00000000
,
00001000
00000100
00010000
00000010
00010000
00001000
00100000
00000000
,
00010000
00100000
01000000
00010000
00001000
00010000
00000100
00000000
,
00010000
00001000
00100000
00001000
01000000
00010000
00100000
00001000
,
00000000
00010000
00001000
00000100
00000010
00000000
00001001
00000000
,
00000001
00000010
00000100
00001000
00000000
00001000
00000001
00000010
,
00000100
00010000
00001000
00010000
00000000
00001000
00000000
00202000
,
00000000
00000000
00000000
00000000
00000000
00300000
01003000
00010000
,
00000000
20000000
02000000
00000000
00000000
33000000
00000000
00000000
,
11000000
01010000
01001000
00011000
,
00010100
00001100
00000101
00001001
,
00000011
00001010
00010010
00011000
,
00101000
00110000
10100000
10010000
,
01100000
00110000
00011000
00001001
,
00011000
10010000
00110000
11000000
,
10000000
00100000
01000000
00100000
00010000
00001000
00000100
00000010
,
00010000
00001000
00000100
00000010
00001000
00000100
00000010
00000001
,
00000200
00000000
00000000
00000300
,
00000010
00000000
00001000
00000100
00000000
00010000
00000000
00001000
,
00000000
02000000
00000000
00000000
03001000
00000000
00000000
00000000
,
00010000
00000010
00010000
00001000
00010000
00000100
00001000
00000010
,
00001000
00000100
00010000
00001000
00100000
00000000
00011000
00000000
,
00001000
00000000
00100000
00010000
01000000
00001000
00010000
00000000
,
00010000
00000000
00000010
00001000
00000100
00010000
00001000
00000000
,
00001000
00000000
00010000
00002000
00000000
00203000
00000000
00320000
,
00000000
00000000
00030000
01010000
,
10000000
01000000
00010000
00001000
00000010
00000001
00000100
00000010
,
00000100
00001000
00010000
00100000
10000000
00000000
10010000
00000000
,
10000000
01000000
00010000
00001000
00010000
00100000
00010000
00001000
,
00000010
00000100
00000001
00000100
00001000
00000000
00001001
00000000
,
00000001
00000000
00001000
00000100
00000000
00010000
00001000
00100000
,
00010000
00000000
01000000
00100000
00000000
00010000
00000000
00002000
,
00000000
00000000
00000000
00000000
00000000
00000000
00013000
00001000
,
00000000
00000010
00000200
00000000
00000000
00000000
00000300
00000000
,
00000001
00000000
00000010
00000000
00000100
00010000
00001000
00000000
,
00010000
00000000
00001000
00000000
00100000
00010000
01000000
00000000
,
01000000
00010000
01000000
00100000
01000000
00001000
01000000
00020000
,
00000000
00000000
00130000
00001000
00000000
00000000
00101000
00000000
,
00010000
00000000
00001000
00000000
00010000
00000010
00000100
00000000
,
00000001
00000000
00000100
00000000
00000010
00010000
00001000
00000000
,
00010000
00001000
01000000
00001000
00010000
00001000
00100000
01000000
,
10000000
00000000
00010000
00100000
00000000
01000000
00000000
20020000
,
00000000
00000000
00000000
30030000
,
00000000
00000000
00000000
00000000
;

//---------------dance-double - ----------------
#NOTES:
     dance-double:
     :
     Challenge:
     15:
     :
00000000
00000000
00000000
00000000
,
00000000
00000000
00000000
00000000
,
00000000
00000000
00000000
00000000
,
00000000
00000000
00000000
00000000
,
00000000
00000000
00000000
00000000
,
00000000
00000000
00000000
00000000
,
00001000
00000000
00001000
00000000
00010000
00001000
01000000
00000000
,
00100000
00000000
01000000
00010000
01000000
00001000
00010000
00000000
,
00001000
00010000
00001000
00000000
00010000
00000000
00000100
00000000
00001000
00000000
00000010
00000000
00000100
00000000
00000001
00000000
,
00001000
00000100
00001000
00000000
00000100
00000000
00010000
00000000
00000000
00000000
00020200
00000000
00000000
00000000
00030300
00000000
,
00010000
00001000
00010000
00000100
00010000
00000010
00001000
00000100
,
00010000
00001000
00010000
00000010
00000100
00001000
00010000
00000000
,
00001000
00100000
00001000
00010000
00001000
01000000
00010000
00100000
,
00001000
00010000
01000000
00100000
00001000
00100000
00010000
00000000
,
02020000
00000000
00000000
00000000
03000000
00000000
10030000
01000000
10000000
00000000
01000000
00000000
00010000
00000000
00001000
00000000
,
00022000
00000000
00000000
00000000
00003000
00000000
00030100
00001000
00000100
00000000
00001000
00000000
00000010
00000000
00000100
00000000
,
00002002
00000000
00000000
00000000
00000000
00003000
00000013
00000100
00000010
00000000
00000001
00000000
00000100
00000000
00001000
00000000
,
00010000
00000000
00000000
01000000
00000000
00000000
20000000
00000000
00000000
00000000
30000000
00000000
01010000
00000000
00000000
00000000
,
00100000
00001000
00010000
00001000
00100000
00001000
00000100
00001000
,
00010000
00100000
01000000
00001000
00010000
00001000
01000000
00000000
,
00001000
00010000
00000100
00010000
00000010
00010000
01000000
00100000
,
00001000
01000000
00001000
00010000
00001000
00000100
00000001
00000000
,
00000202
00000000
00000000
00000000
00000000
00000300
00001003
00000100
00001000
00000000
00000100
00000000
00010000
00000000
00001000
00000000
,
02002000
00000000
00000000
00000000
03000000
00003000
01000000
00010000
10000000
00000000
00100000
00000000
01000000
00000000
00100000
00000000
,
10000000
00000000
11000000
00000000
00100000
00010000
01000000
00001000
,
00100000
00000000
00000000
00010000
00000000
00000000
01100000
00000000
20020000
00000000
00000000
00000000
30030000
00000000
00000000
00000000
,
02000000
00000000
00001000
00000000
00001000
00000000
03010000
00001000
,
00000200
00000000
00010000
00000000
00010000
00000000
00001300
00010000
,
02000000
00000000
03010000
00001000
00000200
00000000
00001300
00010000
,
01000000
00000000
00001000
00010000
00100000
10000000
00010000
00000000
,
20000000
00000000
00000000
30020000
00000000
00000000
00032000
00000000
,
00003002
00000000
00000000
00002003
00000000
00000000
00013000
00000000
,
00000110
00000000
00000001
00001000
00000010
00000100
00000000
00000100
,
00000010
00000000
00010000
00000000
00001000
00000000
01000000
00000000
00001000
00000000
00000000
00000000
00000000
00000000
01000000
00010000
,
01000000
00000000
00000000
00100000
00000000
00000000
20020000
00000000
00000000
00000000
00000000
00000000
30030000
00000000
00000000
00000000
,
10000000
01000000
00010000
00000100
00000001
00000100
00010000
00000100
,
00001000
00000000
00000010
00000000
00000100
00000000
00000001
00000100
00000001
00000000
00001000
00000000
00000001
00000000
00000010
00000000
,
00000001
00000100
00001000
01000000
10000000
01000000
00010000
00100000
,
00001000
00000000
00010000
00000000
00010100
00000000
00000000
00000000
00000100
00010000
00001000
00010000
00000010
00000000
00001000
00000100
,
00000010
00000000
00000001
00000000
00000100
00000000
00001000
00000000
00010000
00000000
01000000
10000000
00010000
00000000
00000000
00000000
,
01000000
00000000
10000000
00000000
01000000
00000000
00010000
00000000
00001000
00000000
00000100
00000001
00001000
00000000
00000100
00000000
,
00001100
00000000
00010000
00000100
00000000
00001010
00000000
00002200
,
00000000
00000000
00000000
00000000
00000000
00000000
00003300
00000000
00000100
00010000
00000010
00010000
00001000
00010000
00000100
00010000
,
00001000
00010000
00100000
00010000
00001000
00000010
00001000
00100000
,
00010000
00000000
00000010
00000000
00001000
00000000
00010000
00001000
00010000
00000000
00000100
00001000
00000100
00000000
00001000
00000100
,
00000010
00001000
00010000
00100000
00010000
00001000
00000010
00001000
,
00100000
00000000
00001000
00000000
00011000
00000000
00000000
00000000
00010000
00001000
00010000
00000000
00000100
00001000
00000001
00000000
,
00001000
00000000
00000000
00000000
00000001
00000000
00000100
00000000
00000010
00000000
00010000
00000000
00000100
00010000
00001000
01000000
,
00001000
00000000
00000000
00000000
00010000
00000000
00001000
00000000
01000000
00000000
00010000
00000000
10000000
01000000
10000000
00010000
,
02000000
00000000
00000000
00000000
00000000
00000000
03001000
00010000
,
00000000
00002000
00020000
00000000
00000000
00000000
00033000
00000000
,
00011000
00110000
10100000
00110000
,
00011000
00001010
00000011
00001010
,
00011000
01010000
11000000
00110000
,
00011000
00001100
00000101
00001010
,
00000001
00000100
00000001
00000100
00001000
00000100
00001000
00010000
,
00001000
00010000
01000000
00010000
01000000
10000000
01000000
10000000
,
01000000
10000000
01000000
00000000
10000000
00100000
01000000
00000000
00010000
00100000
00010000
00000000
01000000
00001000
00010000
00000000
,
00001000
00010000
00000010
00000000
00001000
00000100
00000010
00000000
00000001
00000100
00000010
00001000
00000100
00000010
00000100
00000000
,
00002002
00000000
00000000
00000000
00000000
00003003
00000000
00000000
,
00000010
00000000
00001000
00100000
00000000
00001000
00000000
00000100
,
00000000
00010000
00000000
00001000
00022000
00033000
00000000
00000000
,
10000000
00100000
00010000
00000010
00000001
00000010
00001000
00000100
,
00010000
00000000
00001000
00000000
01010000
00000000
00000000
00000000
10000000
00010000
01000000
00100000
10000000
00000000
00010000
00100000
,
01000000
00000000
10000000
00000000
01000000
00000000
00010000
00000000
00001000
00000000
00000100
00000001
00001000
00000000
00000000
00000000
,
00000100
00000000
00000001
00000000
00000100
00000000
00001000
00000000
00010000
00000000
01000000
10000000
00010000
00000000
01000000
00000000
,
01010000
00000000
00001000
01000000
00000000
00110000
00000000
02020000
,
00000000
00000000
00000000
00000000
00000000
00000000
03030000
00000000
01000000
00001000
00100000
00001000
00010000
00001000
01000000
00001000
,
00010000
00001000
00000010
00001000
00010000
00100000
00010000
00000010
,
00001000
00000000
00100000
00000000
00010000
00000000
00001000
00010000
00001000
00000000
01000000
00010000
01000000
00000000
00010000
01000000
,
00100000
00010000
00001000
00000010
00001000
00010000
00100000
00010000
,
00000010
00000000
00010000
00000000
00011000
00000000
00000000
00000000
00001000
00010000
00001000
00000000
01000000
00010000
10000000
00000000
,
00010000
00000000
00000000
00000000
10000000
00000000
01000000
00000000
00100000
00000000
00001000
00000000
01000000
00001000
00010000
00000100
,
00010000
00000000
00000000
00000000
00001000
00000000
00010000
00000000
00000100
00000000
00001000
00000000
00000001
00000100
00000001
00001000
,
00000200
00000000
00000000
00000000
00000000
00000000
00010300
00001000
,
00000000
00020000
00002000
00000000
00000000
00000000
00033000
00000000
,
00001000
00000000
00001000
00000000
00010000
01000000
00100000
00000000
,
00010000
00000000
00010000
10000000
00010000
01000000
00001000
00000000
,
00010000
00001000
00100000
01000000
00100000
00001000
00010000
01010000
,
00000000
00000000
11000000
02020000
00000000
00000000
03030000
00000000
,
01000000
00010000
00100000
10000000
00100000
00001000
00010000
01000000
,
00100000
00001000
00000100
00000010
00010000
00001000
00000100
00001000
,
00010000
00100000
10000000
00010000
00000000
00202000
00000000
00303000
,
00010000
00001000
00000100
00000010
00000000
00001100
00000000
00022000
,
00000000
00000000
00000000
00033000
,
00000000
00000000
00000000
00000000
;
