#TITLE:Back In Your Arms;
#ARTIST:jun feat. DJ Silver vs Milo ft. Becca Hossany;
#BANNER:Back In Your Arms.png;
#BACKGROUND:Back In Your Arms-bg.png;
#CDTITLE:./CDTitles/DanceDanceRevolution 2013.png;
#MUSIC:Back In Your Arms.ogg;
#SAMPLESTART:70.227;
#SAMPLELENGTH:15;
#BPMS:0=132;
#STAGE:17;

//---------------dance-single - ----------------
#NOTES:
     dance-single:
     :
     Beginner:
     2:
     :
0000
0000
0000
0000
,
0000
0000
0000
0000
,
0000
0000
0000
0000
,
0000
0000
0000
0000
,
0000
0000
0000
0000
,
0000
0000
0000
1000
,
0000
0000
0000
0001
,
0000
0000
0000
1000
,
0000
0000
0000
0001
,
0000
0000
0000
0010
,
0000
0000
0000
0100
,
0000
0000
0000
0000
,
0000
0000
0000
0000
,
0001
0000
1000
0000
,
1001
0000
0000
0000
,
1000
0000
0001
0000
,
1001
0000
0000
0000
,
0001
0000
1000
0000
,
1001
0000
0000
0000
,
1000
0000
0001
0000
,
1001
0000
0000
0000
,
0000
0000
0000
0010
,
0000
0000
0000
0010
,
0000
0000
0000
0010
,
0000
0000
0000
0010
,
0000
1000
0000
1000
,
0000
0001
0000
0001
,
0000
1000
0000
1000
,
0000
0001
0000
0001
,
0000
0000
0000
0000
,
0000
0000
0000
0000
,
0000
1000
0000
0010
,
0000
1000
0000
1000
,
0000
0001
0000
0010
,
0000
0001
0000
0001
,
0000
1000
0000
0100
,
0000
1000
0000
1000
,
0000
0001
0000
0100
,
0000
0001
0000
0000
,
0001
0000
1000
0000
,
1001
0000
0000
0000
,
1000
0000
0001
0000
,
1001
0000
0000
0000
,
0001
0000
1000
0000
,
1001
0000
0000
0000
,
1000
0000
0001
0000
,
1001
0000
0000
0000
,
0000
0001
0000
0001
,
0000
0010
0000
0010
,
0000
1000
0000
1000
,
0000
0100
0000
0100
,
0000
0001
0000
0001
,
0000
0100
0000
0100
,
0000
1000
0000
1000
,
0000
0010
0000
0010
,
0000
0000
0000
0000
;

//---------------dance-single - ----------------
#NOTES:
     dance-single:
     :
     Easy:
     5:
     :
0000
0000
0000
0000
,
0000
0000
0000
0000
,
0000
0000
0000
0000
,
0000
0000
0000
0000
,
0000
0000
0000
0000
,
0001
1000
0010
1000
,
0001
0001
0001
0000
,
0010
0001
0010
0100
,
1000
0100
0001
0000
,
1000
0001
0010
0001
,
1000
1000
1000
0000
,
0010
1000
0010
0100
,
0001
0100
1000
0000
,
0001
0000
1000
0000
,
0100
0000
0010
0010
,
0001
0000
1000
0000
,
0001
0000
1000
1000
,
0010
0000
0100
0000
,
0001
0000
1000
1000
,
0100
0000
0010
0000
,
0002
2000
0000
3003
,
1001
0100
0000
0100
,
0000
0100
0000
0100
,
1001
0100
0000
0100
,
0000
0100
0010
0010
,
1000
0100
0001
0000
,
0001
0010
1000
0000
,
1000
0100
0001
0010
,
1000
0100
0001
0010
,
0100
0000
0000
0000
,
0000
0000
0000
1001
,
1000
0001
0010
1000
,
0010
0100
0001
0000
,
0010
0001
0010
0100
,
1000
0001
0100
0000
,
0001
1000
0100
0010
,
0001
1000
0001
0000
,
0100
0010
1000
0010
,
0100
0100
0100
0000
,
1001
0000
0110
0000
,
1001
0000
0010
0010
,
2000
0000
0010
3010
,
0002
0000
0010
0013
,
1001
0000
0110
0000
,
1001
0000
0010
0010
,
0002
0000
0010
0013
,
2000
0000
0010
3010
,
1000
0100
0010
0001
,
1001
0000
0100
0100
,
0002
0000
0010
0013
,
2000
0000
0010
3010
,
0001
0100
0010
1000
,
1001
0000
0100
0100
,
2000
0000
0010
3010
,
0002
0000
0010
0013
,
1001
0000
0000
0000
,
0000
0000
0000
0000
;

//---------------dance-single - ----------------
#NOTES:
     dance-single:
     :
     Medium:
     8:
     :
0000
0000
0000
0000
,
0000
0000
0000
0000
,
0000
0000
0000
0000
,
0000
0000
0000
0000
,
0000
0000
0000
0000
,
1000
0000
0001
0100
0010
0000
1000
0100
,
0000
0010
0000
0001
1000
0001
0100
0000
,
0010
0000
1000
0001
0010
0000
0100
1000
,
0000
1000
0000
1000
0010
0000
0100
0000
,
0001
0000
1000
0100
0010
0000
0001
0100
,
0000
0010
0000
1000
0001
1000
0100
0000
,
0010
0000
0001
1000
0010
0000
0100
0001
,
0000
0001
0000
0001
0010
0000
0100
0000
,
1000
0000
0000
1000
0001
0000
0010
0100
,
0000
0100
0000
1000
0001
0000
0100
0000
,
0010
0000
0100
0000
0001
0000
1000
0100
,
0000
0010
0000
0010
0001
0000
1000
0000
,
0010
0000
0000
0010
1000
0000
1000
0001
,
0000
0010
0000
0010
0100
0000
0010
0000
,
0100
0000
0010
0000
0001
0000
0100
0010
,
0000
2000
0200
0000
0000
0000
3300
0000
,
1002
0100
0000
0100
,
0000
0100
0000
0103
,
2001
0100
0000
0100
,
0000
3100
0010
0010
,
0001
0100
1000
0010
,
0001
0100
1000
0010
,
0001
0100
1000
0000
1000
0010
0001
0000
,
0001
0100
1000
0000
1000
0010
0001
0000
,
1000
0000
0001
0000
0001
0000
1000
0100
,
0000
0010
0000
0001
0000
0000
1001
0000
,
0001
0000
1000
0100
0010
0000
0001
0100
,
0000
0010
0000
1000
0001
1000
0100
0000
,
0010
0000
0001
1000
0010
0000
0100
0001
,
0000
0001
0000
0001
0010
0000
0100
0000
,
1000
0000
0001
0100
0010
0000
1000
0100
,
0000
0010
0000
0001
1000
0001
0100
0000
,
0010
0000
1000
0001
0010
0000
0100
1000
,
0000
1000
0000
1000
0010
0000
0100
0000
,
0010
1000
0100
0000
0100
1000
0010
1000
,
0000
0010
0000
0100
0001
0000
1000
0000
,
0200
0000
1000
0000
0010
0000
1300
0001
,
0000
0100
0000
1000
0010
0000
0001
0000
,
0010
0001
0100
0000
0100
0001
0010
0001
,
0000
0010
0000
0100
1000
0000
0001
0000
,
0200
0000
0001
0000
0010
0000
0301
1000
,
0000
0100
0010
0000
0001
0000
1000
0000
,
1001
0000
0100
0000
0010
1000
0100
0010
,
0000
0001
0000
0010
0100
0000
1000
0000
,
0200
0000
0010
0000
0001
0000
0310
0001
,
0000
0100
0000
0010
1000
0000
0001
0000
,
1001
0000
0100
0000
0010
0001
0100
0010
,
0000
1000
0000
0010
0100
0000
0001
0000
,
0200
0000
0010
0000
1000
0000
0310
1000
,
0000
0100
0010
0000
0001
0000
1000
0000
,
1001
0000
0000
0000
,
0000
0000
0000
0000
;

//---------------dance-single - ----------------
#NOTES:
     dance-single:
     :
     Hard:
     10:
     :
0000
0000
0000
0000
,
0000
0000
0000
0000
,
0000
0000
0000
0000
,
0000
0000
0000
0000
,
0000
0000
0000
0000
,
0001
0000
0000
1000
0100
0000
0010
0000
0100
0000
0000
1000
0001
0000
0100
0000
,
0000
0010
0000
1000
0001
0100
1000
0000
,
0001
0000
0000
0010
1000
0000
0001
0000
1000
0000
0000
0001
0010
0000
0100
0000
,
0000
0100
0000
0100
0010
0001
1001
0000
,
1000
0000
0000
0001
0100
0000
0010
0000
0100
0000
0000
0001
1000
0000
0100
0000
,
0000
0010
0000
0001
1000
0100
0001
0000
,
1000
0000
0000
0010
0001
0000
1000
0000
0001
0000
0000
1000
0010
0000
0100
0000
,
0000
0100
0000
0100
0010
1000
0100
0010
,
0001
0000
0000
0001
0000
0000
0001
0000
1000
0000
0000
0000
0010
0000
0100
0000
,
0001
0000
0000
0001
0000
0000
0001
0000
1000
0000
0100
0000
0010
0000
0000
0000
,
0100
0000
0000
0100
0000
0000
0100
0000
1000
0000
0001
0000
0100
0000
0000
0000
,
0010
0000
0000
0010
0000
0000
0010
0000
1000
0000
0001
0000
1000
0000
0000
0000
,
0010
0000
0000
1000
0000
0000
0100
0000
0001
0000
0100
0000
1000
0000
0100
0000
,
0010
0000
0000
0001
0000
0000
0010
0000
1000
0000
0010
0000
0001
0000
0010
0000
,
0100
0000
0010
0000
0001
0000
0100
1000
,
0000
0002
0200
0000
0000
0000
0303
0000
,
2001
0100
0000
0100
,
0000
0100
0000
3100
,
1002
0100
0000
0100
,
0000
0000
0000
0000
0103
0000
0000
0000
0010
0000
0000
0010
0000
0000
0010
0000
,
1000
0000
0100
0000
0001
0000
0010
1000
,
1000
0100
0001
0010
,
1000
0100
0001
0010
1000
0100
0001
0010
,
1000
0100
0001
0010
1000
0100
0001
0000
,
1000
0000
0000
1000
0000
0000
1000
0000
0000
0000
0000
0000
0001
0000
0100
0000
,
0001
0000
0000
0001
0000
0000
0010
0000
0000
0000
0000
0000
1001
0000
0000
0000
,
1000
0000
0000
0001
0100
0000
0010
0000
0100
0000
0000
0001
1000
0000
0100
0000
,
0000
0010
0000
0001
1000
0100
0001
0100
,
1000
0000
0000
0001
0010
0000
0100
0000
1000
0000
0000
0001
0100
0000
0010
0000
,
0000
0000
0010
0000
0100
0000
0010
0000
1000
0000
0001
0100
0001
0000
0000
0000
,
0001
0000
0000
1000
0100
0000
0010
0000
0100
0000
0000
1000
0001
0000
0100
0000
,
0000
0010
0000
1000
0001
0100
1000
0100
,
0001
0000
0000
1000
0010
0000
0100
0000
0001
0000
0000
1000
0100
0000
0010
0000
,
0000
0010
0100
0010
0001
1000
0100
0010
,
0001
0000
0000
0001
0010
0000
0000
0010
0001
0000
0000
0001
0010
0000
1001
0000
,
0000
0010
1000
0100
0010
0001
0100
0010
,
0200
0000
0001
0000
1000
0000
0301
1000
,
0000
0100
0010
0001
0010
0100
1000
0001
,
1000
0000
0000
1000
0010
0000
0000
0010
1000
0000
0000
1000
0010
0000
1001
0000
,
0000
0010
0001
0100
0010
1000
0100
0010
,
0200
0000
1000
0000
0001
0000
1300
0001
,
0000
0200
0020
0000
0000
0000
0330
0000
,
1001
0000
0000
0001
0010
0000
0000
0010
0100
0000
0000
0100
1000
0000
1001
0000
,
0000
0010
1000
0100
0001
1000
0010
0001
,
0201
0000
0010
0000
1000
0000
0310
1000
,
0000
0100
0010
0001
0010
0100
1000
0001
,
1001
0000
0000
1000
0010
0000
0000
0010
0100
0000
0000
0100
0001
0000
1001
0000
,
0000
0010
0001
0100
1000
0001
0010
1000
,
1200
0000
0010
0000
0001
0000
0310
0001
,
0000
0100
0010
0000
1000
0000
0001
0000
,
1001
0000
0000
0000
,
0000
0000
0000
0000
;

//---------------dance-double - ----------------
#NOTES:
     dance-double:
     :
     Easy:
     5:
     :
00000000
00000000
00000000
00000000
,
00000000
00000000
00000000
00000000
,
00000000
00000000
00000000
00000000
,
00000000
00000000
00000000
00000000
,
00000000
00000000
00000000
00000000
,
00010000
10000000
00100000
10000000
,
01000000
00010000
00001000
00000000
,
00010000
00001000
00000100
00000001
,
00001000
00000001
00001000
00000000
,
00000010
00001000
00000100
00010000
,
00001000
01000000
00010000
00000000
,
10000000
01000000
00010000
01000000
,
10000000
00010000
10000000
00000000
,
10000000
00000000
00010000
00000000
,
00001000
00000000
00000000
00000000
,
00010000
00000000
00001000
00000000
,
00000001
00000000
00000000
00000000
,
00000001
00000000
00001000
00000000
,
00010000
00000000
00000000
00000000
,
00001000
00000000
00010000
00000000
,
20000000
00000000
00000000
30000000
,
10010000
01000000
00000000
01000000
,
00000000
01000000
00000000
01000000
,
10010000
01000000
00000000
01000000
,
00000000
01000000
00100000
00100000
,
10000000
01000000
00010000
00000000
,
00001000
00000100
00000001
00000000
,
00000001
00000010
00000100
00001000
,
00010000
00100000
01000000
10000000
,
01000000
00000000
00000000
00000000
,
00000000
00000000
00000000
10010000
,
10000000
00010000
00100000
01000000
,
00010000
00001000
00010000
00000000
,
00001000
00000100
00000001
00000010
,
00000100
00000010
00000100
00000000
,
00000010
00001000
00010000
01000000
,
00100000
00010000
01000000
00000000
,
00100000
10000000
01000000
00010000
,
00001000
00010000
00001000
00000000
,
00011000
00000000
00000010
00000000
,
00001001
00000000
00000010
00000010
,
00000002
00000000
00000010
00000013
,
00002000
00000000
00000010
00003010
,
00011000
00000000
00100000
00000000
,
10010000
00000000
00100000
00100000
,
20000000
00000000
00100000
30100000
,
00020000
00000000
00100000
00130000
,
10000000
01000000
00100000
00010000
,
00011000
00000000
00000100
00000100
,
00000002
00000000
00000010
00000013
,
00002000
00000000
00000010
00003010
,
00000001
00000100
00000010
00001000
,
00011000
00000000
01000000
01000000
,
20000000
00000000
00100000
30100000
,
00020000
00000000
00100000
00130000
,
10010000
00000000
00000000
00000000
,
00000000
00000000
00000000
00000000
;

//---------------dance-double - ----------------
#NOTES:
     dance-double:
     :
     Medium:
     8:
     :
00000000
00000000
00000000
00000000
,
00000000
00000000
00000000
00000000
,
00000000
00000000
00000000
00000000
,
00000000
00000000
00000000
00000000
,
00000000
00000000
00000000
00000000
,
00000001
00000000
00001000
00000100
00000010
00000000
00000001
00000100
,
00000000
00001000
00000000
00010000
00100000
10000000
00010000
00000000
,
00100000
00000000
00010000
10000000
00100000
00000000
01000000
00001000
,
00000000
00001000
00000000
00001000
00010000
00000000
00000100
00000000
,
00000010
00000000
00000001
00000100
00000010
00000000
00001000
00000100
,
00000000
00000010
00000000
00001000
00010000
00001000
01000000
00000000
,
00010000
00000000
10000000
00100000
01000000
00000000
00100000
10000000
,
00000000
10000000
00000000
10000000
01000000
00000000
00010000
00000000
,
00001000
00000000
00000000
00100000
00010000
00000000
01000000
00001000
,
00000000
00010000
00000000
00001000
00000100
00000000
00000001
00000000
,
00000010
00000000
00000100
00000000
00001000
00000000
00000001
00000100
,
00000000
00000010
00000000
00000010
00010000
00000000
00001000
00000000
,
00100000
00000000
00000000
00010000
01000000
00000000
00100000
10000000
,
00000000
00010000
00000000
00010000
00100000
00000000
01000000
00000000
,
10000000
00000000
00100000
00000000
00010000
00000000
00001000
00000100
,
00000000
00000002
00002000
00000000
00000000
00000000
00003003
00000000
,
00002001
00000100
00000000
00000100
,
00000000
00000100
00000000
00003100
,
00012000
00010000
00000000
00010000
,
00000000
00013000
00100000
00100000
,
10000000
01000000
00010000
00001000
,
00000010
00000001
00000100
00001000
,
00010000
00001000
00000100
00000000
00000010
00001000
00000100
00000000
,
00000010
00001000
00010000
00000000
01000000
10000000
00010000
00000000
,
01000000
00000000
00100000
00000000
00100000
00000000
10000000
01000000
,
00000000
00100000
00000000
00010000
00000000
00000000
00011000
00000000
,
00000010
00000000
00001000
00000100
00000010
00000000
00000001
00000100
,
00000000
00001000
00000000
00010000
00100000
10000000
00010000
00000000
,
00100000
00000000
00010000
10000000
00100000
00000000
01000000
00001000
,
00000000
00001000
00000000
00001000
00010000
00000000
00000100
00000000
,
00000010
00000000
00000001
00000100
00000010
00000000
00001000
00000100
,
00000000
00000010
00000000
00001000
00010000
00001000
01000000
00000000
,
00010000
00000000
10000000
00100000
01000000
00000000
00100000
10000000
,
00000000
10000000
00000000
10000000
01000000
00000000
00010000
00000000
,
00001000
00000010
00000100
00000000
00000010
00001000
00000010
00000001
,
00000000
00000100
00000000
00000010
00001000
00000000
00000100
00000000
,
00020000
00000000
00000100
00000000
00001000
00000000
00030100
00001000
,
00000000
00010000
00000000
00100000
00010000
00000000
01000000
00000000
,
00010000
00100000
01000000
00000000
00100000
00010000
00100000
10000000
,
00000000
01000000
00000000
00100000
00010000
00000000
01000000
00000000
,
00002000
00000000
01000000
00000000
00010000
00000000
01003000
00010000
,
00000000
01000000
00100000
00000000
10000000
00000000
00010000
00000000
,
10010000
00000000
01000000
00000000
10010000
00000000
00100000
01000000
,
00000000
00010000
00000000
00001000
00000010
00000100
00001000
00000000
,
00000002
00000000
00000010
00000000
00001000
00000000
00000013
00000100
,
00000000
00000010
00000000
00000001
00001000
00000000
00000001
00000000
,
00001001
00000000
00000100
00000000
00001001
00000000
00000010
00000100
,
00000000
00001000
00000000
00010000
00100000
01000000
00010000
00000000
,
20000000
00000000
00100000
00000000
00010000
00000000
30100000
01000000
,
00000000
01000000
00100000
00000000
10000000
00000000
00010000
00000000
,
10010000
00000000
00000000
00000000
,
00000000
00000000
00000000
00000000
;

//---------------dance-double - ----------------
#NOTES:
     dance-double:
     :
     Hard:
     10:
     :
00000000
00000000
00000000
00000000
,
00000000
00000000
00000000
00000000
,
00000000
00000000
00000000
00000000
,
00000000
00000000
00000000
00000000
,
00000000
00000000
00000000
00000000
,
00010000
00000000
00000000
10000000
01000000
00000000
00100000
00000000
00010000
00000000
00000000
01000000
00001000
00000000
00010000
00000000
,
00000000
00001000
00000000
00000010
00000001
00001000
00000010
00000000
,
00000100
00000000
00000000
00000001
00000100
00000000
00001000
00000000
00010000
00000000
00000000
00100000
10000000
00000000
00100000
00000000
,
00000000
00100000
00000000
00100000
10000000
00010000
10010000
00000000
,
01000000
00000000
00000000
00010000
00001000
00000000
01000000
00000000
00001000
00000000
00000000
00010000
00000100
00000000
00000010
00000000
,
00000000
00000001
00000000
00001000
00000010
00000100
00000001
00000000
,
00000010
00000000
00000000
00001000
00010000
00000000
01000000
00000000
00100000
00000000
00000000
00010000
10000000
00000000
00010000
00000000
,
00000000
00010000
00000000
00010000
01000000
00100000
10000000
00100000
,
01000000
00000000
00000000
00010000
00000000
00000000
00010000
00000000
10000000
00000000
00000000
00000000
01000000
00000000
00010000
00000000
,
00001000
00000000
00000000
00001000
00000000
00000000
00001000
00000000
00000010
00000000
00000001
00000000
00000100
00000000
00000000
00000000
,
00000010
00000000
00000000
00000010
00000000
00000000
00000010
00000000
00001000
00000000
00010000
00000000
01000000
00000000
00000000
00000000
,
00100000
00000000
00000000
00100000
00000000
00000000
00100000
00000000
10000000
00000000
00010000
00000000
10000000
00000000
00000000
00000000
,
00100000
00000000
00000000
10000000
00000000
00000000
01000000
00000000
00010000
00000000
01000000
00000000
00100000
00000000
00010000
00000000
,
00001000
00000000
00000000
00001000
00000000
00000000
00000100
00000000
00000010
00000000
00001000
00000000
00000010
00000000
00000001
00000000
,
00001000
00000000
00000001
00000000
00000100
00000000
00001000
00010000
,
00000000
02000000
20000000
00000000
00000000
00000000
33000000
00000000
,
20010000
01000000
00000000
01000000
,
00000000
01000000
00000000
31000000
,
10020000
00100000
00000000
00100000
,
00000000
00000000
00000000
00000000
00130000
00000000
00000000
00000000
00001000
00000000
00000000
00001000
00000000
00000000
00001000
00000000
,
00000010
00000000
00000100
00000000
00000001
00000000
00000010
00001000
,
00010000
01000000
10000000
00100000
,
10000000
00010000
01000000
00001000
00010000
00000100
00001000
00000001
,
00000100
00000010
00010000
00001000
00100000
00010000
10000000
00000000
,
00010000
00000000
00000000
00010000
00000000
00000000
00010000
00000000
00000000
00000000
00000000
00000000
01000000
00000000
00100000
00000000
,
00010000
00000000
00000000
00010000
00000000
00000000
00001000
00000000
00000000
00000000
00000000
00000000
00011000
00000000
00000000
00000000
,
00000010
00000000
00000000
00001000
00000100
00000000
00000010
00000000
00000001
00000000
00000000
00000100
00000010
00000000
00001000
00000000
,
00000000
00000001
00000000
00000100
00001000
00010000
00100000
10000000
,
00100000
00000000
00000000
00010000
01000000
00000000
00100000
00000000
10000000
00000000
00000000
01000000
00100000
00000000
00010000
00000000
,
00000000
00000000
10000000
00000000
00000000
00000000
01000000
00000000
00010000
00000000
00001000
00010000
00001000
00000000
00000000
00000000
,
00000100
00000000
00000000
00000010
00001000
00000000
00000100
00000000
00000010
00000000
00000000
00000001
00001000
00000000
00000010
00000000
,
00000000
00010000
00000000
00100000
01000000
00010000
01000000
10000000
,
01000000
00000000
00000000
00010000
10000000
00000000
01000000
00000000
00010000
00000000
00000000
10000000
00100000
00000000
00010000
00000000
,
00000000
00001000
00000000
00000100
00000010
00000001
00001000
00000010
,
00000100
00000000
00000000
00000100
00000010
00000000
00000000
00000010
00010000
00000000
00000000
00010000
00001000
00000000
00110000
00000000
,
00000000
01000000
10000000
00100000
01000000
00001000
00010000
01000000
,
20000000
00000000
00010000
00000000
01000000
00000000
30010000
00100000
,
00000000
01000000
00010000
00001000
00000100
00000001
00001000
00000100
,
00000010
00000000
00000000
00000010
00000001
00000000
00000000
00000001
00000100
00000000
00000000
00000100
00001000
00000000
00011000
00000000
,
00000000
00010000
01000000
10000000
00010000
01000000
00100000
10000000
,
00020000
00000000
00100000
00000000
10000000
00000000
01030000
00100000
,
00000000
00020000
00002000
00000000
00000000
00000000
00033000
00000000
,
00001010
00000000
00000000
00001000
00000010
00000000
00000000
00000010
00000100
00000000
00000000
00000100
00000001
00000000
00001001
00000000
,
00000000
00000010
00001000
00010000
01000000
10000000
00100000
00010000
,
00002000
00000000
00100000
00000000
00010000
00000000
00103000
01000000
,
00000000
00010000
00001000
00000100
00000010
00010000
00001000
00100000
,
00110000
00000000
00000000
00010000
00100000
00000000
00000000
00100000
01000000
00000000
00000000
01000000
10000000
00000000
10010000
00000000
,
00000000
00100000
00010000
00001000
00000100
00000001
00000010
00001000
,
00020000
00000000
00000010
00000000
00001000
00000000
00030010
00000100
,
00000000
00000010
00001000
00000000
00000100
00000000
00000010
00000000
,
00001001
00000000
00000000
00000000
,
00000000
00000000
00000000
00000000
;
