#TITLE:BRIGHT STREAM;
#BANNER:BRIGHT STREAM.png;
#BACKGROUND:BRIGHT STREAM-bg.png;
#CDTITLE:./CDTitles/DanceDanceRevolution 2013.png;
#MUSIC:BRIGHT STREAM.ogg;
#SAMPLESTART:49.328;
#SAMPLELENGTH:15;
#BPMS:0=158;
#STAGE:2;

//---------------dance-single - ----------------
#NOTES:
     dance-single:
     :
     Beginner:
     1:
     :
0000
0000
0000
0000
,
0000
0000
0000
0000
,
0000
0000
0000
0000
,
0000
0000
0000
0000
,
0000
0000
0000
0000
,
0001
0000
0000
0000
,
1000
0000
0000
0000
,
0001
0000
0000
0000
,
1000
0000
0000
0000
,
0001
0000
0001
0000
,
0001
0000
0000
0000
,
0001
0000
0000
0000
,
0100
0000
0000
0000
,
1000
0000
1000
0000
,
1000
0000
0000
0000
,
1000
0000
0000
0000
,
0100
0000
0000
0000
,
0001
0000
0001
0000
,
0001
0000
0000
0000
,
0001
0000
0000
0000
,
0100
0000
0000
0000
,
1000
0000
0000
0000
,
0001
0000
0000
0000
,
1000
0000
1000
0000
,
1000
0000
0000
0000
,
1000
0000
0000
0000
,
0100
0000
0000
0000
,
0001
0000
0000
0000
,
0001
0000
0000
0000
,
1000
0000
0000
0000
,
0001
0000
0000
0000
,
1000
0000
0000
0000
,
0000
0000
0000
0000
,
0001
0000
0001
0000
,
0001
0000
0000
0000
,
1000
0000
1000
0000
,
1000
0000
0000
0000
,
0100
0000
0100
0000
,
0100
0000
0000
0000
,
1000
0000
0000
0000
,
1001
0000
0000
0000
,
1000
0000
1000
0000
,
1000
0000
0000
0000
,
0001
0000
0001
0000
,
0001
0000
0000
0000
,
0100
0000
0100
0000
,
0100
0000
0000
0000
,
0010
0000
0000
0000
,
0100
0000
0000
0000
,
0001
0000
0001
0000
,
0001
0000
0000
0000
,
1000
0000
0000
0000
,
1001
0000
0000
0000
,
1000
0000
0000
0000
,
0100
0000
0000
0000
,
0001
0000
0000
0000
,
0100
0000
0000
0000
,
1000
0000
0000
0000
,
0001
0000
0000
0000
,
1001
0000
0000
0000
,
0000
0000
0000
0000
;

//---------------dance-single - ----------------
#NOTES:
     dance-single:
     :
     Easy:
     4:
     :
0000
0000
0000
0000
,
0000
0000
0000
0000
,
0000
0000
0000
0000
,
0000
0000
0000
0000
,
0000
0000
0000
0000
,
0001
0000
0001
0000
,
0100
0000
0000
0000
,
1000
0000
1000
0000
,
0010
0000
0000
0000
,
1000
0000
1000
0000
,
0001
0000
0001
0000
,
0100
0000
0000
0000
,
1000
0001
1000
0000
,
0001
0000
0001
0000
,
1000
0000
1000
0000
,
0100
0000
0000
0000
,
0010
0010
0010
0000
,
0001
0000
0001
0000
,
0100
0000
0100
0000
,
1000
0000
1000
0000
,
0001
1000
0001
0000
,
0200
0000
0300
0000
,
0002
0000
0003
0000
,
1000
0000
0001
0000
,
1000
0001
1000
0000
,
0001
0000
1000
0000
,
1001
0000
0000
0000
,
0100
0000
0010
0000
,
0110
0000
0000
0000
,
1000
1000
1000
0000
,
0001
0001
0001
0000
,
0020
0000
0000
0000
,
0030
0000
0000
0000
,
1000
0001
1000
0000
,
0001
1000
0001
0000
,
0100
0000
0100
0000
,
0001
1000
0010
0000
,
1000
0000
1000
0000
,
0100
0000
0010
0000
,
0001
0000
0100
0000
,
0020
0000
0030
0000
,
1000
0100
1000
0000
,
0001
0100
0001
0000
,
1000
0000
0001
0000
,
0010
0100
0010
0000
,
0001
0000
0001
0000
,
0100
0000
0010
0000
,
2000
0000
0000
3000
,
0002
0000
0000
0003
,
0100
0000
0100
0100
,
0100
0000
0000
0000
,
0001
0000
1000
0000
,
0020
0000
0000
0030
,
1000
0000
1000
0000
,
0100
0000
0100
0000
,
0001
0000
0001
0000
,
0100
0000
0000
0000
,
1000
0000
0001
0000
,
1000
0000
0001
0000
,
2002
0000
0000
0000
0000
0000
0000
3003
,
0000
0000
0000
0000
;

//---------------dance-single - ----------------
#NOTES:
     dance-single:
     :
     Medium:
     7:
     :
0000
0000
0000
0000
,
0000
0000
0000
0000
,
0000
0000
0000
0000
,
0000
0000
0000
0000
,
0000
0000
0000
0000
,
0010
0010
1000
0100
,
0010
0010
0001
0100
,
0010
0010
0100
0100
,
0020
0000
0000
0030
,
1000
0100
1000
0010
,
0000
1000
0000
0001
,
0100
0000
0010
0010
,
1000
0100
0001
0000
,
0100
1000
0100
0010
,
0000
0001
0000
0100
,
0100
0000
0010
0100
,
0001
0100
1001
0000
,
1000
0010
0100
0010
,
1000
0001
1000
0000
0001
0000
0001
0000
,
0100
0000
0010
0100
,
0010
1000
0001
0000
,
1000
1100
1000
0000
,
0001
0101
0001
0000
,
1000
0000
1000
0000
0010
0100
0010
0000
,
1000
0001
1001
0000
,
0010
0010
0001
0100
,
0011
0000
0101
0000
,
0010
0010
1000
0100
,
1010
0000
1001
0001
,
0010
0000
0100
1000
0100
0000
0000
0000
,
0010
0000
0001
0100
0001
0000
0000
0000
,
1000
0000
0001
0000
0100
0000
0010
0200
,
0000
0000
0300
0000
,
0001
0000
0100
0001
1000
0000
0000
0000
,
1000
0000
0100
1000
0001
0000
0000
0000
,
0010
1000
0100
0001
,
0010
0010
1001
0000
,
0200
0000
0320
0000
,
1030
0001
0001
0100
,
0100
0001
0010
0100
,
1000
0001
1001
0000
,
0010
0000
0100
1000
0001
0000
0000
0000
,
0100
0000
0010
1000
0001
0000
0000
0000
,
0100
1000
0010
0001
,
0100
0100
0110
0000
,
2000
0000
3002
0000
,
1003
0010
0100
0010
,
2000
0000
0000
0000
,
0200
0000
0000
3300
,
0010
0000
0001
0100
,
1001
0000
0000
0000
,
0020
0000
0000
0000
,
0200
0000
0000
0330
,
0010
0000
0010
0000
1000
0100
1000
0000
,
0010
0000
0010
0000
0001
0100
0001
0000
,
0010
0010
1000
0001
,
1000
0100
0001
0100
,
1000
0000
1000
0000
0010
1000
0100
0000
,
0010
0000
0010
0000
0001
0100
0010
0000
,
1000
0000
0000
0010
0000
0010
0000
2002
,
0000
0000
0000
0000
,
0000
0000
0000
0000
,
3003
0000
0000
0000
,
0000
0000
0000
0000
;

//---------------dance-single - ----------------
#NOTES:
     dance-single:
     :
     Hard:
     10:
     :
0000
0000
0000
0000
,
0000
0000
0000
0000
,
0000
0000
0000
0000
,
0000
0000
0000
0000
,
0000
0000
0000
0000
,
1010
0000
0100
0000
0001
0010
0100
0000
,
0011
0000
0100
0000
0010
1000
0100
0000
,
0010
0000
0001
1000
0001
0000
0010
0000
,
2002
0000
0000
3003
,
0100
0000
0000
0000
0010
0000
1000
0100
,
1000
0000
0001
0000
1000
0000
0010
1000
,
0100
0000
0010
0010
,
0100
1000
0100
0011
,
0100
0000
0100
0000
0010
0000
0001
0100
,
0001
0000
1000
0000
0100
0000
0010
0001
,
0100
0000
0010
0010
,
1000
0000
0001
0000
0010
0001
1000
0000
,
1100
0010
0001
0010
,
0101
0000
1000
0000
0010
0100
0010
0000
,
1000
0100
0001
0100
,
0010
0001
1000
0000
0100
0000
0000
0000
,
0102
0010
1003
0010
,
2100
0010
3001
0100
,
0110
1000
0100
0001
,
1000
0010
0100
0000
2002
0000
3003
0000
,
1000
0000
0100
1000
0000
0010
1000
0000
,
0100
0000
0010
0001
0000
0010
0100
0000
,
1000
0000
0001
1000
0000
0010
0100
0010
,
1000
0000
0001
0000
0100
0001
1000
0000
,
1100
0010
0101
0010
,
0101
1100
0001
0100
,
0020
0000
1000
0000
1000
0000
1030
0100
,
0000
0100
0110
0000
0000
0000
0000
0000
,
1000
0100
0010
0001
0100
0000
0010
0000
,
0100
0001
0010
0100
1000
0000
0100
0000
,
0001
0010
1000
0100
,
0001
0010
0100
0010
0002
0000
0103
0000
,
1000
1100
1000
0001
,
0101
0000
0010
0000
0100
0010
0100
0000
,
0001
0000
0100
0100
0010
0000
1000
0010
,
0100
0001
1000
1001
0000
0010
0100
0000
,
0001
0010
0100
1000
0100
0000
0010
0000
,
0010
0001
0100
0010
1000
0000
0001
0000
,
0100
1001
0100
1001
,
0010
0100
0010
0000
1001
0000
0000
0000
,
2000
0100
3020
0100
,
1030
0001
1100
0101
,
0002
0000
0100
0000
1000
0000
0013
0100
,
2000
0100
0001
3010
,
0110
0000
0000
0000
0100
0000
0000
0000
0001
0000
0000
1000
0000
0000
0001
0000
,
1001
0000
0000
0000
0000
0100
0010
0000
,
0200
0000
0010
0000
0010
0000
0310
1000
,
0002
1000
1000
1003
,
0010
0000
0100
0000
0010
1000
0100
1000
,
0000
1000
0001
0000
0100
0010
1000
0000
,
2000
0100
0001
3010
,
0100
0000
0001
0010
0100
0000
1100
0000
,
0010
0000
0100
0000
0010
0001
0100
0001
,
0000
0001
1000
0000
0010
0100
0001
0000
,
0001
0100
0010
1000
0000
1010
0000
2002
,
0000
0000
0000
0000
,
0000
0000
0000
0000
,
3003
0000
0000
0000
,
0000
0000
0000
0000
;

//---------------dance-double - ----------------
#NOTES:
     dance-double:
     :
     Easy:
     4:
     :
00000000
00000000
00000000
00000000
,
00000000
00000000
00000000
00000000
,
00000000
00000000
00000000
00000000
,
00000000
00000000
00000000
00000000
,
00000000
00000000
00000000
00000000
,
00001000
00000000
00000000
00000000
,
00010000
00000000
00000000
00000000
,
01000000
00000000
01000000
00000000
,
00100000
00000000
00000000
00000000
,
10000000
00000000
10000000
00000000
,
01000000
00000000
00010000
00000000
,
00001000
00000000
00000000
00000000
,
00010000
00001000
00010000
00000000
,
00001000
00000000
00001000
00000000
,
00000100
00000000
00000001
00000000
,
00000001
00000000
00000000
00000000
,
00000010
00000010
00000010
00000000
,
00000001
00000000
00000001
00000000
,
00000100
00000000
00001000
00000000
,
00010000
00000000
00000000
00000000
,
00001000
00010000
01000000
00000000
,
00200000
00000000
00300000
00000000
,
02000000
00000000
03000000
00000000
,
10000000
00000000
01000000
00000000
,
00010000
00001000
00010000
00000000
,
00001000
00000000
00000100
00000000
,
00000010
00000000
00000000
00000000
,
00001000
00000000
00010000
00000000
,
00001000
00000000
00000000
00000000
,
00100000
00010000
00100000
00000000
,
01000000
01000000
00000000
10000000
,
20000000
00000000
00000000
00000000
,
30000000
00000000
00000000
00000000
,
10000000
00010000
10000000
00000000
,
01000000
00010000
00001000
00000000
,
00010000
00000000
00001000
00000000
,
00000100
00000010
00001000
00000000
,
00000001
00000000
00000001
00000000
,
00000100
00000000
00001000
00000000
,
00010000
00000000
01000000
00000000
,
00100000
00100000
00100000
00000000
,
10000000
01000000
10000000
00000000
,
00010000
00100000
00010000
00000000
,
10000000
00000000
10000000
00000000
,
01000000
00010000
00001000
00000000
,
00010000
00000000
00001000
00000000
,
00000100
00000000
00000010
00000000
,
00002000
00000000
00000000
00003000
,
00000002
00000000
00000000
00000003
,
00000010
00000000
00000100
00000100
,
00000100
00000000
00000000
00000000
,
00010000
00000000
00001000
00000000
,
00022000
00000000
00000000
00033000
,
00001000
00000000
00010000
00000000
,
00001000
00010000
01000000
00000000
,
10000000
00000000
01000000
00000000
,
00020000
00000000
00000000
00030000
,
00010000
00000000
00001000
00000000
,
00010000
00001000
00000100
00000000
,
00000020
00000000
00000000
00000000
00000000
00000000
00000000
00000030
,
00000000
00000000
00000000
00000000
;

//---------------dance-double - ----------------
#NOTES:
     dance-double:
     :
     Medium:
     7:
     :
00000000
00000000
00000000
00000000
,
00000000
00000000
00000000
00000000
,
00000000
00000000
00000000
00000000
,
00000000
00000000
00000000
00000000
,
00000000
00000000
00000000
00000000
,
01000000
10000000
00100000
00010000
,
00001000
00010000
00001000
00010000
,
00001000
00000100
00000001
00001000
,
00000020
00000000
00000000
00000030
,
00001000
00000001
00000100
00000010
,
00001000
00000000
00000100
00000000
,
00010000
00000000
01000000
01000000
,
00100000
00010000
10000000
00000000
,
00010000
10000000
00100000
01000000
,
00010000
00000000
10000000
00000000
,
00010000
00000000
01000000
00100000
,
00001000
00010000
00011000
00000000
,
00000010
00001001
00000100
00000001
,
00000100
00000100
00001000
00001000
,
00010000
00000000
00000100
00010000
,
00001000
00010000
00100000
00000000
,
10000000
00000000
10000000
01000000
00100000
00000000
00000000
00000000
,
01000000
00000000
01000000
00010000
00001000
00000000
00000000
00000000
,
00010000
00000000
00001000
00000000
00010000
00001000
00010000
00000000
,
00000100
00001000
00001100
00000000
,
00000010
00000010
00000001
00001000
,
00001001
00000000
00001010
00000000
,
00000100
00001000
00010000
00001000
,
00011000
00000000
00101000
00000000
,
00010000
00000000
00001000
00100000
00001000
00000000
00000000
00000000
,
00001000
00010100
00001000
00010000
,
00100000
00000000
01000000
00000000
00010000
00000000
10000000
00020000
,
00000000
00000000
00030000
00000000
,
00100000
10000000
01000000
00000000
00010000
00000000
00000000
00000000
,
00001000
00000000
00010000
01000000
10000000
00000000
00000000
00000000
,
01000000
01000000
00100000
00001000
,
00010000
00000100
00010100
00000000
,
00002000
00000000
00003002
00000000
,
00001003
00000010
00000100
00000010
,
00000100
00000000
00001000
00000000
,
00010000
00000100
00001100
00000000
,
00000010
00000001
00000100
00000000
00001000
00000000
00000000
00000000
,
00010000
00000000
00001000
00000100
00000001
00000000
00000000
00000000
,
00000100
00000100
00000010
00010000
,
00001000
01000000
01001000
00000000
,
00020000
00000000
20030000
00000000
,
30010000
00100000
01000000
00100000
,
00020000
00000000
00000000
00000000
,
00200000
00000000
00000000
00330000
,
00110000
00000000
00101000
00000000
,
00011000
00000000
00000000
00000000
,
00000020
00000000
00000000
00000000
,
00000200
00000000
00000000
00000330
,
00000001
00000000
00001000
00000000
00000001
00000100
00000001
00000000
,
00000100
00000100
00001000
00010000
,
00001000
00000100
00001000
00010000
,
01000000
10000000
01000000
00000000
,
10000000
00000000
00010000
00000000
10000000
01000000
10000000
00000000
,
00100000
01000000
00010000
00100000
,
01000000
00000000
00000000
00010000
00000000
00001000
00000000
00022000
,
00000000
00000000
00000000
00000000
,
00000000
00000000
00000000
00000000
,
00033000
00000000
00000000
00000000
,
00000000
00000000
00000000
00000000
;

//---------------dance-double - ----------------
#NOTES:
     dance-double:
     :
     Hard:
     10:
     :
00000000
00000000
00000000
00000000
,
00000000
00000000
00000000
00000000
,
00000000
00000000
00000000
00000000
,
00000000
00000000
00000000
00000000
,
00000000
00000000
00000000
00000000
,
00110000
00000000
01000000
00000000
00100000
00010000
10000000
00000000
,
11000000
00000000
00100000
00000000
00010000
00100000
00001000
00000000
,
00010000
00000000
00010000
00001000
00000100
00000000
00000010
00000000
,
00002002
00000000
00000000
00003003
,
00000010
00000000
00000100
00000000
00000010
00000000
00001000
00000010
,
00000000
00000100
00000000
00000100
00000000
00000100
00000010
00001000
,
00000001
00000100
00000010
00010000
,
00001000
00000010
00001000
00011000
,
00100000
00000000
01000000
00000000
00100000
00000000
00010000
00100000
,
00000000
01000000
00000000
01000000
00000000
01000000
00100000
00010000
,
10000000
00000000
01000000
01000000
,
10000000
00010000
10010000
00000000
,
11000000
00000000
00010000
00000000
01000000
00000000
00100000
01000000
,
00100000
00000000
00001000
00000000
00010000
00000000
00001000
00010000
,
00000100
00000000
00001000
00000000
00000001
00000000
00000010
00000001
,
00000100
00000010
00001001
00000000
,
00002010
00000000
00003001
00000100
00000000
00000100
00000010
00000000
,
00001020
00000000
00010030
00001000
00000000
00001000
00100000
00000000
,
00201000
00310000
10020000
01030000
,
00100000
10000000
00010000
01000000
00200000
00000000
00300000
00000000
,
10000000
00000000
01000000
00010000
00000000
00001000
00010000
00000000
,
00100000
00000000
00010000
00001000
00000000
00000100
00001000
00000000
,
00010000
00000000
00001000
00000010
00000000
00001000
00010000
00001000
,
00000100
00000000
00000001
00000000
00001000
00000001
00001000
00000000
,
00002100
00000001
00003010
00000100
,
00001010
00010100
00001000
00010000
,
02000000
00000000
00010000
00000000
00100000
00000000
13000000
00010000
,
00000000
00010000
10010000
00000000
00000000
00000000
00000000
00000000
,
10000000
00100000
01000000
00010000
00100000
00000000
01000000
00000000
,
00100000
00001000
00010000
00000100
00001000
00000000
00000001
00000000
,
00000010
00001000
00010000
00100000
,
00010000
00001000
00010000
00000100
00000020
00000000
00000130
00000000
,
00001000
00000011
00000100
00000010
,
00001020
00000130
00001000
00010000
,
00011000
00000000
00000000
00100000
00020000
00000000
00000000
00130000
,
00001000
00000000
00010000
00000100
00000000
00000100
00000010
00000000
,
00000001
00000100
00000010
00001000
00000100
00000000
00000010
00000000
,
00000100
00010000
00001000
00100000
00010000
00000000
10000000
00000000
,
01000000
00010000
00001000
00000100
,
00000010
00001000
00000001
00000100
00000020
00000000
00001030
00000000
,
00002000
00000100
00000001
00000010
,
00013000
00001000
00010010
01000000
,
00020000
01000000
10000000
00100000
,
00032000
00000100
00000001
00003010
,
00000100
00000000
00000000
00000000
00001000
00000000
00000000
00000000
00010000
00000000
00000000
00001000
00000000
00000000
00100000
00000000
,
00110000
00000000
00000000
00000000
00000000
01000000
10010000
00000000
,
10000000
00000000
10000000
00010000
01000000
00000000
00100000
01000000
,
00020000
01000000
10000000
00130000
,
00001000
00000000
00010000
00000000
00001000
00010000
00001000
00000100
,
00000000
00000100
00001000
00000000
00001000
00010000
00100000
00000000
,
00020000
00001000
00030200
00001000
,
00000320
00001000
00000031
00000100
,
00000010
00000000
00000100
00000000
00001000
00010000
00001000
00100000
,
00000000
00100000
00010000
00000000
01000000
00010000
00100000
00000000
,
01000000
10000000
00010000
00100000
00000000
00110000
00000000
00202000
,
00000000
00000000
00000000
00000000
,
00000000
00000000
00000000
00000000
,
00303000
00000000
00000000
00000000
,
00000000
00000000
00000000
00000000
;
