#TITLE:Another Phase;
#ARTIST:TAG;
#BANNER:Another Phase.png;
#BACKGROUND:Another Phase-bg.png;
#CDTITLE:./CDTitles/DanceDanceRevolution 2013.png;
#MUSIC:Another Phase.ogg;
#SAMPLESTART:14.243;
#SAMPLELENGTH:15;
#BPMS:0=160;
#STOPS:36=1.125,197=1.125;
#STAGE:14;

//---------------dance-single - ----------------
#NOTES:
     dance-single:
     :
     Beginner:
     4:
     :
0000
0000
0000
0000
,
0000
0000
0000
0000
,
0000
0000
0000
0000
,
0000
0000
0000
0000
,
0000
0000
0000
0000
,
0010
0000
1000
0000
,
0100
0000
0001
0000
,
0010
0000
1000
0000
,
0001
0001
1000
1000
,
0000
0010
0000
0100
,
0000
0001
1000
0001
,
0000
0010
0000
0100
,
0000
1000
0001
1000
,
0000
0100
0000
0010
,
0000
0001
1000
0001
,
0000
0100
0000
0010
,
0000
1000
0001
1000
,
0000
0002
0000
0000
,
0003
2000
0000
0000
,
3000
0020
0000
0000
,
0030
0200
0000
0000
,
0300
0001
0000
0001
,
0000
1000
0000
1000
,
0000
0001
0000
1000
,
0000
2002
0000
0000
,
3003
0010
0000
1000
,
0000
0010
1000
0100
,
0000
0010
0000
0001
,
0000
0010
0001
0100
,
0000
0010
0000
1000
,
0000
0010
1000
0001
,
0000
0010
0000
0001
,
0000
0010
0001
1000
,
0000
0100
0010
0100
,
0000
1000
0000
0001
,
0000
1000
1000
1000
,
0000
0001
0001
0001
,
0000
1000
0010
1000
,
0000
0001
0010
0001
,
0000
0100
0000
0010
,
0000
2002
0000
0000
,
3003
1000
0000
0000
,
0000
0001
0000
0000
,
0000
0010
0000
0000
,
0000
0100
0000
0000
,
0000
1000
0000
0010
,
0000
0001
0000
0100
,
0000
1000
0000
0010
,
0000
0001
0001
1000
,
1000
0000
0010
0000
,
0100
0000
1000
0001
,
1000
0000
0010
0000
,
0100
0000
0001
1000
,
0001
0000
0100
0000
,
0010
0000
1000
0001
,
1000
0000
0100
0000
,
0010
0000
0001
1000
,
0001
0000
2000
0000
,
0000
3000
0002
0000
,
0000
0003
0020
0000
,
0000
0030
0200
0000
,
0000
0300
1000
0000
,
1000
0000
0001
0000
,
0001
0000
1000
0000
,
0001
0000
2002
0000
,
0000
3003
1001
0000
,
0000
0000
0000
0000
;

//---------------dance-single - ----------------
#NOTES:
     dance-single:
     :
     Easy:
     7:
     :
0000
0000
0000
0000
,
0000
0000
0000
0000
,
0000
0000
0000
0000
,
0000
0000
0000
0000
,
0000
0000
0000
0000
,
0010
0001
0100
1000
,
0010
1000
0100
0001
,
0010
0001
0010
0000
0100
1000
0100
0000
,
0010
0001
1000
0001
,
2002
3003
0000
0000
0000
0000
0000
0000
0000
0000
0000
0000
0000
0000
0000
0000
0010
0000
0000
0000
0000
0000
0000
0000
0000
0000
0000
0000
0000
0000
0000
0000
1000
0000
0000
0000
0000
0000
0000
0000
0000
0000
0000
0000
0000
0000
0000
0000
0001
0000
0000
0000
0000
0000
0000
0000
0000
0000
0000
0000
0000
0000
0000
0000
,
0010
0100
1000
0000
0100
0000
0001
0000
,
0010
0001
0100
0000
0010
0000
1000
0000
,
0001
1000
0100
0000
0010
0001
0010
0000
,
0100
0010
0100
0000
0001
0000
0010
0000
,
1000
0001
0100
0000
0010
0000
0100
0000
,
0001
1000
0100
0000
0010
0000
0001
0000
,
1000
0001
0100
0000
1000
0000
0010
0000
,
0001
0010
0001
1000
,
0010
0100
0001
0000
0100
0000
1000
0000
,
0010
1000
0100
0000
0010
0000
0001
0000
,
1000
0001
0100
0000
0010
1000
0010
0000
,
0100
0010
0100
0000
1000
0000
0010
0000
,
0001
1000
0100
0000
0010
0000
0100
0000
,
1000
0001
0100
0000
0010
0000
1000
0000
,
0001
1000
0100
0000
0001
0000
0010
0000
,
1000
0001
1000
0001
,
0100
0001
0010
1000
,
0010
0001
0100
1000
,
0100
0000
0001
0000
0010
0000
0100
0100
,
0100
0010
0001
1000
,
0100
0001
0010
1000
,
0010
0001
1000
2002
,
3003
0010
0010
0100
,
0100
0000
0010
1000
0001
0000
0100
0000
,
1000
0100
0100
0010
,
0010
0000
1000
0001
1000
0000
0010
1000
,
0100
0000
1000
0001
1000
0000
0010
0001
,
0100
0010
1000
0001
,
0100
0000
0001
0000
0010
0000
0001
1000
,
0100
0010
0100
2000
,
0000
0002
0000
0000
,
3003
0010
0000
1000
,
0000
0100
0000
0000
,
0000
0010
0000
0001
,
1000
0001
0000
0100
,
0000
0010
1000
0100
,
0001
0010
0001
0100
,
1000
0000
0010
1000
0010
0000
0100
0001
,
0100
0010
1000
0001
,
1000
0000
0000
0000
0000
0000
0000
0000
0000
0000
0000
0000
0000
0000
0000
0000
2002
3003
0000
0000
0000
0000
0000
0000
0000
0000
0000
0000
0000
0000
0000
0000
0010
0000
0000
0000
0000
0000
0000
0000
0000
0000
0000
0000
0000
0000
0000
0000
0001
0000
0000
0000
0000
0000
0000
0000
0000
0000
0000
0000
0000
0000
0000
0000
,
1000
0000
0010
0100
0001
0000
0100
0000
,
1000
0000
0010
1000
0100
0000
0010
0000
,
0001
0000
1000
0001
0100
0000
0010
1000
,
0010
0000
0100
0010
0100
0000
1000
0000
,
0010
0000
0001
1000
0100
0000
0010
0000
,
0100
0000
1000
0001
0100
0000
0010
0000
,
1000
0000
0001
1000
0100
0000
0001
0000
,
0010
1000
0010
1000
,
0001
0000
0010
0100
1000
0000
0100
0000
,
0001
0000
0010
0001
0100
0000
0010
0000
,
1000
0000
0001
1000
0100
0000
0010
0001
,
0010
0000
0100
0010
0100
0000
0001
0000
,
0010
0000
1000
0001
0100
0000
0010
0000
,
0100
0000
0001
1000
0100
0000
0010
0000
,
0001
0000
1000
0001
0100
0000
1000
0000
,
0010
0001
1001
0000
,
0000
0000
0000
0000
;

//---------------dance-single - ----------------
#NOTES:
     dance-single:
     :
     Medium:
     11:
     :
0000
0000
0000
0000
,
0000
0000
0000
0000
,
0000
0000
0000
0000
,
0000
0000
0000
0000
,
0000
0000
0000
0000
,
0010
1000
0100
0000
0010
0001
0100
0000
,
0010
0100
0001
0000
0010
0100
1000
0000
,
0010
1000
0010
1000
0001
0100
0001
0100
,
0010
0000
0100
0000
0001
0000
0000
0000
1000
0000
0000
0001
0000
0000
0010
0000
,
2200
3300
0000
0000
0000
0000
0000
0000
0000
0000
0000
0000
0000
0000
0000
0000
0010
0000
0000
0000
0000
0000
0000
0000
0000
0000
0000
0000
0100
0000
0000
0000
0000
0000
0000
0000
0000
0000
0000
0000
0010
0000
0000
0000
0000
0000
0000
0000
0000
0000
0000
0000
1000
0000
0000
0000
0000
0000
0000
0000
0000
0000
0000
0000
,
1000
0000
0010
0000
0001
0000
0000
0100
0000
0000
0100
0000
0000
0001
0000
0000
,
0010
0000
1000
0000
0010
0000
0000
0010
0000
0000
1000
0000
0000
0100
0000
0000
,
1000
0000
0001
0000
0100
0000
0000
0100
0000
0000
0001
0000
1000
0000
0000
0100
,
0000
0000
1000
0000
0001
0000
0000
0100
0000
0000
0100
0000
0000
0010
0000
0000
,
0001
0000
1000
0000
0100
0000
0000
0100
0000
0000
0010
0000
0000
0100
0000
0000
,
1000
0000
0100
0000
0001
0000
0000
0100
0000
0000
1000
0000
0001
0000
0000
0010
,
0000
0000
1000
0000
0100
0000
0000
0001
0000
0000
0100
0000
0010
0000
0000
1000
,
0000
0000
0010
0000
0001
0000
0000
0100
0000
0000
0010
0000
0000
0001
0000
0000
,
0001
0000
0010
0000
1000
0000
0000
0100
0000
0000
0100
0000
0000
1000
0000
0000
,
0010
0000
0001
0000
0010
0000
0000
0010
0000
0000
0001
0000
0000
0100
0000
0000
,
0001
0000
1000
0000
0100
0000
0000
0100
0000
0000
1000
0000
0001
0000
0000
0100
,
0000
0000
0001
0000
1000
0000
0000
0100
0000
0000
0100
0000
0000
0010
0000
0000
,
1000
0000
0001
0000
0100
0000
0000
0100
0000
0000
0010
0000
0000
0100
0000
0000
,
0001
0000
0100
0000
1000
0000
0000
0100
0000
0000
0001
0000
0000
0100
0000
0000
,
0010
0000
1000
0000
1000
0000
0000
0010
0000
0000
0001
0000
0000
0100
0000
0000
,
0010
0010
1000
0000
0011
0000
1000
0001
,
0101
0000
1000
0000
0110
0000
1000
0001
,
0110
0000
1000
0000
1100
0000
0001
0100
,
0101
0000
1000
0000
1010
0000
0100
0100
,
0100
0100
0010
0000
0110
0000
0001
0100
,
0110
0000
1000
0000
0110
0000
0001
1000
,
0110
0000
0000
0000
1000
0000
0000
0001
0000
0000
2002
0000
0000
0000
0000
0000
,
0000
0000
0000
0000
3003
0000
0010
0000
0000
0100
0000
0000
1000
0000
1000
0000
,
0001
0001
0100
0000
0010
1000
0001
0010
,
0001
0100
0000
0010
,
0010
0000
0001
1000
0001
0000
0010
0001
,
0100
0010
0100
0010
1000
0000
1000
0100
,
0010
0000
0100
0000
0001
0000
1000
0100
,
1000
0010
0100
0000
1000
0000
0010
0001
,
1000
0000
0001
0000
0010
0000
0000
0001
0000
0000
2000
0000
0000
0000
0000
0000
,
0000
0200
0000
0000
,
3300
0010
0000
0001
,
0000
0100
0000
0000
,
0000
0010
0000
1000
,
0001
1000
0000
0100
,
0000
0000
0010
0001
0100
0000
0010
1000
,
0100
0000
0010
0100
1000
0000
0010
0100
,
0001
0000
0010
0001
0010
0001
1000
0100
,
1000
0000
0100
0000
0010
0000
0100
0000
1000
0000
0000
0000
0001
0000
0000
1000
,
0000
0000
0000
0000
0000
0000
0000
0000
0010
0000
0000
0000
0000
0000
0000
0000
0202
0303
0000
0000
0000
0000
0000
0000
0000
0000
0000
0000
0000
0000
0000
0000
0010
0000
0000
0000
0000
0000
0000
0000
0000
0000
0000
0000
0100
0000
0000
0000
0000
0000
0000
0000
0000
0000
0000
0000
0010
0000
0000
0000
0000
0000
0000
0000
,
0000
0001
0000
0000
0001
0000
0010
0000
1000
0000
0000
0100
0000
0000
0100
0000
,
0000
1000
0000
0000
0010
0000
0001
0000
0010
0000
0000
0010
0000
0000
0001
0000
,
0000
0100
0000
0000
0001
0000
1000
0000
0100
0000
0000
0100
0000
0000
1000
0000
,
0001
0000
0000
0100
0000
0000
0001
0000
1000
0000
0000
0100
0000
0000
0100
0000
,
0000
0010
0000
0000
1000
0000
0001
0000
0100
0000
0000
0100
0000
0000
0010
0000
,
0000
0100
0000
0000
0001
0000
0100
0000
1000
0000
0000
0100
0000
0000
0001
0000
,
1000
0000
0000
0010
0000
0000
0001
0000
0100
0000
0000
1000
0000
0000
0100
0000
,
0010
0000
0000
0001
0000
0000
0010
0000
1000
0000
0000
0100
0000
0000
0010
0000
,
0000
1000
0000
0000
1000
0000
0010
0000
0001
0000
0000
0100
0000
0000
0100
0000
,
0000
0001
0000
0000
0010
0000
1000
0000
0010
0000
0000
0010
0000
0000
1000
0000
,
0000
0100
0000
0000
1000
0000
0001
0000
0100
0000
0000
0100
0000
0000
0001
0000
,
1000
0000
0000
0100
0000
0000
1000
0000
0001
0000
0000
0100
0000
0000
0100
0000
,
0000
0010
0000
0000
0001
0000
1000
0000
0100
0000
0000
0100
0000
0000
0010
0000
,
0000
0100
0000
0000
1000
0000
0100
0000
0001
0000
0000
0100
0000
0000
1000
0000
,
0000
0100
0000
0000
0010
0000
0001
0000
0001
0000
0000
0010
0000
0000
1000
0000
,
0000
0100
0000
0000
0010
0000
0010
0000
1001
0000
0000
0000
0000
0000
0000
0000
,
0000
0000
0000
0000
;

//---------------dance-single - ----------------
#NOTES:
     dance-single:
     :
     Hard:
     15:
     :
0000
0000
0000
0000
,
0000
0000
0000
0000
,
0000
0000
0000
0000
,
0000
0000
0000
0000
,
0000
0000
0000
0000
,
0001
0010
0100
1000
0001
0010
0100
1000
,
0010
0100
0001
1000
0010
0100
0001
1000
,
0100
1000
0100
1000
0001
0100
0001
0100
0010
0100
0010
0100
0001
1000
0001
1000
,
0100
0010
0000
0100
1000
0000
0000
0000
0011
0000
0000
1001
0000
0000
1100
0000
,
0202
0303
0000
0000
0000
0000
0000
0000
0000
0000
0000
0000
0000
0000
0000
0000
0010
0000
0000
0000
0000
0000
0000
0000
1000
0000
0000
0000
0100
0000
0000
0000
0000
0000
0000
0000
1000
0000
0000
0000
0010
0000
0000
0000
0000
0000
0000
0000
1000
0000
0000
0000
0001
0000
0000
0000
0000
0000
0000
0000
0100
0000
0000
0000
,
0001
1000
0001
0010
0001
0000
1000
0010
0000
0100
0010
0000
0100
0001
0000
0100
,
0010
1000
0100
0010
0001
0000
0100
0010
0000
0100
0001
0000
1000
0100
0000
0010
,
0001
1000
0010
0100
0001
0000
0100
0010
0000
0100
1000
0100
0010
0000
1000
0100
,
0000
0010
0001
1000
0001
0000
0010
0100
0000
1000
0100
0000
1000
0010
0000
0100
,
0001
1000
0010
0100
0010
0000
1000
0100
0000
1000
0010
0000
0100
0001
0000
1000
,
0001
0010
0100
1000
0001
0000
0100
0010
0000
0010
1000
0000
1001
0000
0100
0010
,
0000
0010
0001
0000
0101
0000
0010
1000
0000
1000
0100
0000
0110
0000
1000
0001
,
0000
0100
0010
0000
1000
0000
0001
0100
0000
0001
0010
0000
0001
1000
0000
0100
,
1000
0001
1000
0010
1000
0000
0001
0010
0000
0100
0010
0000
0100
1000
0000
0100
,
0010
0001
0100
0010
1000
0000
0100
0010
0000
0100
1000
0000
0001
0100
0000
0010
,
1000
0001
0010
0100
1000
0000
0100
0010
0000
0100
0001
0100
0010
0000
0001
0100
,
0000
0010
1000
0001
1000
0000
0010
0100
0000
0001
0100
0000
0001
0010
0000
0100
,
1000
0001
0010
0100
0010
0000
0001
0100
0000
0001
0010
0000
0100
1000
0000
0001
,
1000
0010
0100
0001
1000
0000
0010
0100
0000
0100
0001
0000
0001
0010
0000
0010
,
0100
0000
1000
0001
1000
0000
0001
0100
0000
0100
0010
0000
0010
1000
0000
1000
,
0100
0000
0100
0010
0001
0000
0100
0000
1010
0000
0100
0000
0001
0000
1000
0000
,
1100
0010
0001
0100
0110
1000
0001
0010
,
0110
1000
0001
0100
0101
0010
1000
0100
,
1100
0010
0001
0100
0101
0010
0100
0100
,
0100
0100
0010
0100
0110
0010
1000
0100
,
0110
0010
0001
0100
0110
0010
1000
0001
,
0110
0000
1000
0000
0001
0000
0000
1000
0000
0000
2002
0000
0000
0000
0000
0000
,
0000
0000
0000
0000
3003
0000
0010
0000
0000
0100
0000
0000
0001
0000
0001
0000
,
1000
0000
1000
0000
0100
0010
0000
0010
0000
0010
0001
0000
1000
0000
0010
0000
,
1000
0100
0000
0010
0000
0000
0100
0000
0000
0000
0000
0000
0010
0000
0110
0000
,
0100
0000
0110
0000
0010
0000
0001
0000
1000
0001
0000
1000
0010
0000
1000
0100
,
0000
1000
0010
0000
0100
0000
0010
0000
1000
0001
0000
0010
0001
0000
0100
0001
,
0000
1000
0100
0000
0010
0100
0000
0100
0000
0100
1000
0000
0001
0000
0100
0000
,
0001
0010
0000
0100
0000
0000
1000
0000
0001
0100
0000
0010
0000
0000
1000
0000
,
0001
0000
1000
0000
0010
0000
0000
1000
0000
0000
0002
0000
0000
0000
0000
0000
,
0000
0200
0000
0000
,
0303
0010
0000
1000
,
0000
0001
0000
0000
,
0000
0010
0000
0100
,
1000
0100
0000
0010
,
0000
0000
0001
0100
1000
0100
0001
0100
,
1000
0100
0010
0001
0010
1000
0010
0001
,
0010
0000
1000
0000
0001
0010
0001
0010
0100
1000
0100
1000
0001
0100
0001
0100
,
0010
1000
0010
1000
0001
1000
0000
0010
0100
0000
0000
0000
1010
0000
0000
1001
,
0000
0000
0000
0000
0000
0000
0000
0000
0101
0000
0000
0000
0000
0000
0000
0000
2200
3300
0000
0000
0000
0000
0000
0000
0000
0000
0000
0000
0000
0000
0000
0000
0010
0000
0000
0000
0000
0000
0000
0000
0001
0000
0000
0000
0100
0000
0000
0000
0000
0000
0000
0000
0001
0000
0000
0000
0010
0000
0000
0000
0000
0000
0000
0000
,
0001
1000
0000
0100
1000
0001
1000
0010
1000
0000
0001
0010
0000
0100
0010
0000
,
0100
1000
0000
0100
0010
0001
0100
0010
1000
0000
0100
0010
0000
0100
1000
0000
,
0001
0100
0000
0010
1000
0001
0010
0100
1000
0000
0100
0010
0000
0100
0001
0100
,
0010
0000
0001
0100
0000
0010
1000
0001
1000
0000
0010
0100
0000
0001
0100
0000
,
0001
0010
0000
0100
1000
0001
0010
0100
0010
0000
0001
0100
0000
0001
0010
0000
,
0100
1000
0000
0001
1000
0010
0100
0001
1000
0000
0100
0010
0000
0010
0001
0000
,
1001
0000
0100
0010
0000
0010
1000
0000
1100
0000
0010
0001
0000
0001
0100
0000
,
0110
0000
0001
1000
0000
0100
0010
0000
0001
0000
1000
0100
0000
1000
0010
0000
,
1000
0001
0000
0100
0001
1000
0001
0010
0001
0000
1000
0010
0000
0100
0010
0000
,
0100
0001
0000
0100
0010
1000
0100
0010
0001
0000
0100
0010
0000
0100
0001
0000
,
1000
0100
0000
0010
0001
1000
0010
0100
0001
0000
0100
0010
0000
0100
1000
0100
,
0010
0000
1000
0100
0000
0010
0001
1000
0001
0000
0010
0100
0000
1000
0100
0000
,
1000
0010
0000
0100
0001
1000
0010
0100
0010
0000
1000
0100
0000
1000
0010
0000
,
0100
0001
0000
1000
0001
0010
0100
1000
0001
0000
0010
0100
0000
0100
1000
0000
,
1000
0010
0000
0010
0100
0000
0001
1000
0001
0000
1000
0100
0000
0100
0010
0000
,
0010
0001
0000
0001
0100
0000
0010
0000
1001
0000
0000
0000
0000
0000
0000
0000
,
0000
0000
0000
0000
;

//---------------dance-single - ----------------
#NOTES:
     dance-single:
     :
     Challenge:
     16:
     :
0000
0000
0000
0000
,
0000
0000
0000
0000
,
0000
0000
0000
0000
,
0000
0000
0000
0000
,
0000
0000
0000
0000
,
1000
0100
0010
0001
0100
0010
1000
0100
,
0010
0100
1000
0010
0100
0001
0010
0100
,
0010
0001
0010
0001
1000
0010
1000
0010
0100
0001
0010
0100
1000
0010
0100
0001
,
0010
0100
0000
0010
0001
0000
0000
0000
1010
0000
0000
1001
0000
0000
0101
0000
,
0000
MMMM
0000
0000
0000
0000
0000
0000
0000
0000
0000
0000
0000
0000
0000
0000
0100
0000
0000
0000
0000
0000
0000
0000
0001
0000
0000
0000
0010
0000
0000
0000
0000
0000
0000
0000
0001
0000
0000
0000
0100
0000
0000
0000
0000
0000
0000
0000
0001
0000
0000
0000
1000
0000
0000
0000
0000
0000
0000
0000
0010
0000
0000
0000
,
1000
0001
1000
0100
MMMM
0000
0001
0100
0000
0010
0100
0000
0010
1000
0000
0010
,
0100
0001
0010
0100
MMMM
0000
0010
0100
0000
0010
1000
0000
0001
0010
0000
0100
,
1000
0001
0100
0010
1000
0000
0010
0100
0000
0010
0001
0010
0100
0000
0001
0010
,
0000
0100
1000
0001
MMMM
0000
0100
0010
0000
0001
0010
0000
0001
0100
0000
0010
,
1000
0001
0100
0010
MMMM
0000
0001
0010
0000
0001
0100
0000
0010
1000
0000
0001
,
1000
0100
0010
0001
1000
0000
0010
0100
0000
0100
0001
0000
1001
0000
0010
0100
,
0000
0100
1000
0000
1010
0000
0100
0001
0000
0001
0010
0000
0110
0000
0001
1000
,
0000
0010
0100
0000
MMMM
0000
1000
0010
0000
1000
0100
0000
1000
0001
0000
0010
,
0001
1000
0001
0100
MMMM
0000
1000
0100
0000
0010
0100
0000
0010
0001
0000
0010
,
0100
1000
0010
0100
MMMM
0000
0010
0100
0000
0010
0001
0000
1000
0010
0000
0100
,
0001
1000
0100
0010
0001
0000
0010
0100
0000
0010
1000
0010
0100
0000
1000
0010
,
0000
0100
0001
1000
MMMM
0000
0100
0010
0000
1000
0010
0000
1000
0100
0000
0010
,
0001
1000
0100
0010
MMMM
0000
1000
0010
0000
1000
0100
0000
0010
0001
0000
1000
,
0001
0100
0010
1000
0001
0000
0100
0010
0000
0010
1000
0000
1000
0100
0000
0100
,
0010
0000
0001
1000
0001
0000
1000
0010
0000
0010
0100
0000
0100
0001
0000
0001
,
0010
0100
0010
0100
1000
0000
0010
0000
MMMM
0000
0010
0000
1000
0000
0001
0000
,
MMMM
0100
1000
0010
MMMM
0001
1000
0100
,
MMMM
0001
1000
0010
MMMM
0100
0001
0010
,
MMMM
0100
1000
0010
MMMM
0100
0010
0010
,
0010
0010
0100
0010
MMMM
0100
0001
0010
,
MMMM
0100
1000
0010
MMMM
0100
0001
1000
,
MMMM
0000
0001
0000
1000
0000
0000
0001
0000
0000
2002
0000
0000
0000
0000
0000
,
0000
0000
3003
0000
MMMM
0000
0100
0000
0000
0010
0000
0000
1000
0000
1000
0000
,
0001
0000
0001
0000
0010
0100
0000
0100
0000
0100
1000
0000
0001
0000
0100
0000
,
0001
0010
0000
0100
0000
0000
0010
0000
MMMM
0000
0000
0000
0100
0000
0110
0000
,
0010
0000
0110
0000
MMMM
0000
1000
0000
0001
1000
0000
0001
0100
0000
0001
0010
,
0000
0001
0100
0000
MMMM
0000
0100
0000
0001
1000
0000
0100
1000
0000
0010
1000
,
0000
0001
0010
0000
0100
0010
0000
0010
0000
0010
0001
0000
1000
0000
0010
0000
,
1000
0100
0000
0010
0000
0000
0001
0000
1000
0010
0000
0100
0000
0000
0001
0000
,
1000
0000
0001
0000
0100
0000
0000
0002
0000
0000
2000
0000
3003
0000
0000
0000
,
MMMM
0220
0000
0000
,
0330
0100
MMMM
0001
,
MMMM
2000
0000
3000
,
MMMM
0100
MMMM
0010
,
0001
0020
0000
0030
,
MMMM
0000
1000
0010
0001
0010
1000
0010
,
0001
0010
0100
1000
0100
0001
0100
1000
,
0100
0000
0001
0000
1000
0100
0010
0001
0100
0010
1000
0100
0010
0001
0100
0010
,
1000
0100
0010
0001
1000
0001
0000
0100
0010
0000
0000
0000
0101
0000
0000
1001
,
0000
0000
0000
0000
0000
0000
0000
0000
1010
0000
0000
0000
0000
0000
0000
0000
0000
MMMM
0000
0000
0000
0000
0000
0000
0000
0000
0000
0000
0000
0000
0000
0000
0100
0000
0000
0000
0000
0000
0000
0000
1000
0000
0000
0000
0010
0000
0000
0000
0000
0000
0000
0000
1000
0000
0000
0000
0100
0000
0000
0000
0000
0000
0000
0000
,
1000
0001
0000
0010
0001
1000
0001
0100
MMMM
0000
1000
0100
0000
0010
0100
0000
,
0010
0001
0000
0010
0100
1000
0010
0100
MMMM
0000
0010
0100
0000
0010
0001
0000
,
1000
0010
0000
0100
0001
1000
0100
0010
0001
0000
0010
0100
0000
0010
1000
0010
,
0100
0000
1000
0010
0000
0100
0001
1000
MMMM
0000
0100
0010
0000
1000
0010
0000
,
1000
0100
0000
0010
0001
1000
0100
0010
MMMM
0000
1000
0010
0000
1000
0100
0000
,
0010
0001
0000
1000
0001
0100
0010
1000
0001
0000
0010
0100
0000
0100
1000
0000
,
1001
0000
0010
0100
0000
0100
0001
0000
0011
0000
0100
1000
0000
1000
0010
0000
,
0110
0000
1000
0001
0000
0010
0100
0000
MMMM
0000
0001
0010
0000
0001
0100
0000
,
0001
1000
0000
0010
1000
0001
1000
0100
MMMM
0000
0001
0100
0000
0010
0100
0000
,
0010
1000
0000
0010
0100
0001
0010
0100
MMMM
0000
0010
0100
0000
0010
1000
0000
,
0001
0010
0000
0100
1000
0001
0100
0010
1000
0000
0010
0100
0000
0010
0001
0010
,
0100
0000
0001
0010
0000
0100
1000
0001
MMMM
0000
0100
0010
0000
0001
0010
0000
,
0001
0100
0000
0010
1000
0001
0100
0010
MMMM
0000
0001
0010
0000
0001
0100
0000
,
0010
1000
0000
0001
1000
0100
0010
0001
1000
0000
0100
0010
0000
0010
0001
0000
,
0001
0100
0000
0100
0010
0000
1000
0001
1000
0000
0001
0010
0000
0010
0100
0000
,
0100
1000
0000
1000
0010
0100
0010
0100
0001
0000
0000
0000
0000
0000
0000
0000
,
0000
0000
0000
0000
;

//---------------dance-double - ----------------
#NOTES:
     dance-double:
     :
     Easy:
     7:
     :
00000000
00000000
00000000
00000000
,
00000000
00000000
00000000
00000000
,
00000000
00000000
00000000
00000000
,
00000000
00000000
00000000
00000000
,
00000000
00000000
00000000
00000000
,
00000010
00001000
00000100
00000001
,
00000010
00000001
00000100
00001000
,
00010000
00001000
00010000
00000000
00100000
01000000
00100000
00000000
,
10000000
01000000
00010000
00001000
,
00022000
00033000
00000000
00000000
00000000
00000000
00000000
00000000
00000000
00000000
00000000
00000000
00000000
00000000
00000000
00000000
00000010
00000000
00000000
00000000
00000000
00000000
00000000
00000000
00000000
00000000
00000000
00000000
00000000
00000000
00000000
00000000
00000001
00000000
00000000
00000000
00000000
00000000
00000000
00000000
00000000
00000000
00000000
00000000
00000000
00000000
00000000
00000000
00001000
00000000
00000000
00000000
00000000
00000000
00000000
00000000
00000000
00000000
00000000
00000000
00000000
00000000
00000000
00000000
,
00000010
00000100
00000001
00000000
00000100
00000000
00001000
00000000
,
00010000
00001000
00100000
00000000
01000000
00000000
10000000
00000000
,
00010000
01000000
00100000
00000000
10000000
00100000
01000000
00000000
,
00010000
00100000
01000000
00000000
00010000
00000000
00001000
00000000
,
00000010
00000001
00000100
00000000
00000010
00000000
00001000
00000000
,
00000100
00000010
00000001
00000000
00000100
00000000
00001000
00000000
,
00000100
00000001
00001000
00010000
,
01000000
00000000
00100000
00000000
10000000
00000000
00010000
00100000
,
01000000
00000000
10000000
00000000
01000000
00000000
00010000
00001000
,
00010000
00000010
00000100
00000010
,
00001000
00000010
00000001
00000100
,
00001000
00000000
00010000
00000000
00001000
00000000
00100000
00010000
,
01000000
00000000
00100000
00000000
01000000
00000000
00100000
10000000
,
01000000
00010000
00010000
00001000
,
00001000
00000000
00000100
00000001
00001000
00000000
00000100
00000010
,
00000001
00001000
00000001
00001000
,
00000100
00001000
00000010
00001000
,
00010000
01000000
00100000
10000000
,
00100000
01000000
00010000
10000000
,
01000000
00010000
00001000
00000010
,
00000001
00001000
00000010
00000001
,
00000010
00001000
00010000
00022000
,
00033000
00100000
00100000
01000000
,
01000000
00000000
00100000
00010000
10000000
00000000
00100000
00000000
,
01000000
00001000
00001000
00010000
,
00010000
00000000
00000010
00001000
00000010
00000000
00000100
00000001
,
00000100
00000000
00000001
00001000
00000001
00000000
00000010
00000100
,
00000010
00000001
00000100
00001000
,
00010000
00001000
00010000
00100000
,
10000000
00010000
10000000
20010000
,
00000000
02000000
00000000
00000000
,
33000000
00100000
00000000
00001000
,
00000000
00010000
00000000
00000000
,
00000000
00001000
00000000
00010000
,
01000000
10000000
00000000
00010000
,
00000000
00100000
00010000
01000000
,
10000000
00100000
10000000
01000000
,
00010000
00000000
00001000
00010000
00001000
00000000
00000010
00000100
,
00000010
00000001
00000100
00001000
,
00010000
00000000
00000000
00000000
00000000
00000000
00000000
00000000
00000000
00000000
00000000
00000000
00000000
00000000
00000000
00000000
00022000
00033000
00000000
00000000
00000000
00000000
00000000
00000000
00000000
00000000
00000000
00000000
00000000
00000000
00000000
00000000
00100000
00000000
00000000
00000000
00000000
00000000
00000000
00000000
00000000
00000000
00000000
00000000
00000000
00000000
00000000
00000000
10000000
00000000
00000000
00000000
00000000
00000000
00000000
00000000
00000000
00000000
00000000
00000000
00000000
00000000
00000000
00000000
,
00010000
00000000
00100000
01000000
10000000
00000000
01000000
00000000
,
00010000
00000000
00001000
00010000
00000010
00000000
00000100
00000000
,
00000001
00000000
00001000
00000100
00000010
00000000
00000001
00000010
,
00000100
00000000
00001000
00000010
00000100
00000000
00001000
00000000
,
00010000
00000000
00100000
10000000
01000000
00000000
00100000
00000000
,
00010000
00000000
01000000
00100000
10000000
00000000
01000000
00000000
,
00010000
01000000
10000000
00010000
,
00001000
00000100
00000010
00000001
,
00001000
00000010
00000100
00000000
00000001
00000000
00000100
00000000
,
00001000
00010000
00001000
00000000
00100000
00000000
01000000
00000000
,
00100000
00010000
00100000
10000000
,
01000000
00010000
00001000
00010000
,
00000010
00001000
00000100
00000000
00000010
00000000
00000100
00000000
,
00000010
00000001
00000100
00000000
00001000
00000000
00001000
00000000
,
00010000
00000000
00010000
00000000
01000000
10000000
00010000
00000000
,
01000000
00100000
10000000
00000000
10010000
00000000
00000000
00000000
,
00000000
00000000
00000000
00000000
;

//---------------dance-double - ----------------
#NOTES:
     dance-double:
     :
     Medium:
     11:
     :
00000000
00000000
00000000
00000000
,
00000000
00000000
00000000
00000000
,
00000000
00000000
00000000
00000000
,
00000000
00000000
00000000
00000000
,
00000000
00000000
00000000
00000000
,
00100000
00010000
01000000
00000000
00100000
10000000
01000000
00000000
,
00010000
00001000
00010000
00000000
00001000
00000010
00000100
00000000
,
00000010
00000001
00000010
00000001
00001000
00000010
00001000
00000010
,
00000100
00000000
00001000
00000000
00010000
00000000
00000000
00000000
00100000
00000000
00000000
10000000
00000000
00000000
00010000
00000000
,
20020000
30030000
00000000
00000000
00000000
00000000
00000000
00000000
00000000
00000000
00000000
00000000
00000000
00000000
00000000
00000000
00100000
00000000
00000000
00000000
00000000
00000000
00000000
00000000
00000000
00000000
00000000
00000000
10000000
00000000
00000000
00000000
00000000
00000000
00000000
00000000
00000000
00000000
00000000
00000000
01000000
00000000
00000000
00000000
00000000
00000000
00000000
00000000
00000000
00000000
00000000
00000000
00100000
00000000
00000000
00000000
00000000
00000000
00000000
00000000
00000000
00000000
00000000
00000000
,
01000000
00000000
00010000
00000000
00001000
00000000
00000000
00000010
00000000
00000000
00000100
00000000
00000000
00000010
00000000
00000000
,
00000001
00000000
00001000
00000000
00000010
00000000
00000000
00000100
00000000
00000000
00000001
00000000
00000000
00000100
00000000
00000000
,
00001000
00000000
00010000
00000000
00100000
00000000
00000000
10000000
00000000
00000000
01000000
00000000
00100000
00000000
00000000
00010000
,
00000000
00000000
01000000
00000000
10000000
00000000
00000000
01000000
00000000
00000000
01000000
00000000
00000000
00010000
00000000
00000000
,
10000000
00000000
01000000
00000000
00100000
00000000
00000000
00010000
00000000
00000000
00010000
00000000
00000000
00001000
00000000
00000000
,
00000100
00000000
00000010
00000000
00000001
00000000
00000000
00001000
00000000
00000000
00000010
00000000
00001000
00000000
00000000
00000001
,
00000000
00000000
00000100
00000000
00000010
00000000
00000000
00001000
00000000
00000000
00010000
00000000
01000000
00000000
00000000
00100000
,
00000000
00000000
10000000
00000000
01000000
00000000
00000000
00100000
00000000
00000000
00010000
00000000
00000000
10000000
00000000
00000000
,
00100000
00000000
01000000
00000000
00001000
00000000
00000000
00010000
00000000
00000000
00000010
00000000
00000000
00001000
00000000
00000000
,
00000001
00000000
00000100
00000000
00000010
00000000
00000000
00001000
00000000
00000000
00000100
00000000
00000000
00010000
00000000
00000000
,
00001000
00000000
00010000
00000000
01000000
00000000
00000000
00100000
00000000
00000000
01000000
00000000
00100000
00000000
00000000
00010000
,
00000000
00000000
01000000
00000000
00100000
00000000
00000000
10000000
00000000
00000000
01000000
00000000
00000000
00010000
00000000
00000000
,
00001000
00000000
00000010
00000000
00000001
00000000
00000000
00000100
00000000
00000000
00000010
00000000
00000000
00001000
00000000
00000000
,
00000001
00000000
00000100
00000000
00001000
00000000
00000000
00010000
00000000
00000000
00001000
00000000
00000000
00100000
00000000
00000000
,
00010000
00000000
00010000
00000000
10000000
00000000
00000000
00100000
00000000
00000000
10000000
00000000
00000000
01000000
00000000
00000000
,
00100000
00010000
00100000
00000000
01000000
00000000
10000000
00010000
,
01000000
00000000
00100000
00010000
00001000
00000000
00000100
00000001
,
00001000
00000000
00000100
00000000
00000010
00000000
00000001
00001000
,
00000010
00000000
00000100
00001000
00010000
00000000
01000000
10000000
,
00010000
01000000
00100000
00000000
01000000
00000000
00010000
10000000
,
01000000
00000000
00010000
00001000
00010000
00000000
00000100
00001000
,
00000010
00000000
00000000
00000000
00000100
00000000
00000000
00000001
00000000
00000000
00002002
00000000
00000000
00000000
00000000
00000000
,
00000000
00000000
00000000
00000000
00003003
00000000
00000010
00000000
00000000
00000100
00000000
00000000
00001000
00000000
00001000
00000000
,
00010000
00010000
00100000
10000000
00100000
00000000
10000000
00100000
,
01000000
00010000
10000000
00000000
00000000
00000000
01000000
00000000
,
01000000
00010000
00011000
00000010
,
00001010
00000002
00000103
00002000
,
00003100
00000000
00000001
00000100
00000010
00000000
00010000
00001000
,
00010000
00100000
01000000
00010000
10000000
00000000
01000000
00100000
,
00010000
00000000
00000000
00000000
10000000
00000000
00000000
00100000
00000000
00000000
02000000
00000000
00000000
00000000
00000000
00000000
,
00000000
00020000
00000000
00000000
,
03030000
00100000
00000000
10000000
,
00000000
01000000
00000000
00000000
,
00000000
00010000
00000000
00001000
,
00010000
00001000
00000000
00000100
,
00000000
00000000
00000010
00001000
00000100
00000000
00000010
00000001
,
00000100
00000000
00001000
00010000
00001000
00000000
00010000
00100000
,
01000000
00000000
00100000
10000000
00100000
10000000
00010000
00100000
,
00010000
00000000
00100000
00000000
01000000
00000000
00010000
00000000
00001000
00000000
00000000
00000000
00000010
00000000
00000000
00000001
,
00000000
00000000
00000000
00000000
00000000
00000000
00000000
00000000
00001000
00000000
00000000
00000000
00000000
00000000
00000000
00000000
00002002
00003003
00000000
00000000
00000000
00000000
00000000
00000000
00000000
00000000
00000000
00000000
00000000
00000000
00000000
00000000
00000010
00000000
00000000
00000000
00000000
00000000
00000000
00000000
00000000
00000000
00000000
00000000
00000001
00000000
00000000
00000000
00000000
00000000
00000000
00000000
00000000
00000000
00000000
00000000
00000100
00000000
00000000
00000000
00000000
00000000
00000000
00000000
,
00000000
00000010
00000000
00000000
00000100
00000000
00001000
00000000
00010000
00000000
00000000
00100000
00000000
00000000
01000000
00000000
,
00000000
00100000
00000000
00000000
10000000
00000000
00010000
00000000
00100000
00000000
00000000
01000000
00000000
00000000
10000000
00000000
,
00000000
01000000
00000000
00000000
00010000
00000000
00001000
00000000
00000010
00000000
00000000
00000001
00000000
00000000
00000100
00000000
,
00000010
00000000
00000000
00001000
00000000
00000000
00000100
00000000
00000001
00000000
00000000
00000100
00000000
00000000
00000100
00000000
,
00000000
00001000
00000000
00000000
00000001
00000000
00000100
00000000
00000010
00000000
00000000
00001000
00000000
00000000
00001000
00000000
,
00000000
00010000
00000000
00000000
01000000
00000000
00100000
00000000
10000000
00000000
00000000
00010000
00000000
00000000
00100000
00000000
,
00010000
00000000
00000000
10000000
00000000
00000000
01000000
00000000
00100000
00000000
00000000
00010000
00000000
00000000
00001000
00000000
,
00000100
00000000
00000000
00000010
00000000
00000000
00000001
00000000
00000100
00000000
00000000
00000010
00000000
00000000
00001000
00000000
,
00000000
00000001
00000000
00000000
00000010
00000000
00000100
00000000
00010000
00000000
00000000
00001000
00000000
00000000
00100000
00000000
,
00000000
00010000
00000000
00000000
10000000
00000000
01000000
00000000
00100000
00000000
00000000
00010000
00000000
00000000
01000000
00000000
,
00000000
00001000
00000000
00000000
00010000
00000000
00001000
00000000
00000100
00000000
00000000
00000010
00000000
00000000
00000100
00000000
,
00000010
00000000
00000000
00001000
00000000
00000000
00000100
00000000
00000010
00000000
00000000
00000001
00000000
00000000
00000100
00000000
,
00000000
00001000
00000000
00000000
00010000
00000000
00100000
00000000
10000000
00000000
00000000
01000000
00000000
00000000
00100000
00000000
,
00000000
00010000
00000000
00000000
10000000
00000000
01000000
00000000
00010000
00000000
00000000
00001000
00000000
00000000
00010000
00000000
,
00000000
00000010
00000000
00000000
00001000
00000000
00001000
00000000
00000001
00000000
00000000
00000010
00000000
00000000
00000001
00000000
,
00000000
00000100
00000000
00000000
00000010
00000000
00001000
00000000
00001010
00000000
00000000
00000000
00000000
00000000
00000000
00000000
,
00000000
00000000
00000000
00000000
;

//---------------dance-double - ----------------
#NOTES:
     dance-double:
     :
     Hard:
     15:
     :
00000000
00000000
00000000
00000000
,
00000000
00000000
00000000
00000000
,
00000000
00000000
00000000
00000000
,
00000000
00000000
00000000
00000000
,
00000000
00000000
00000000
00000000
,
00001000
00000010
00001000
00000010
00000100
00000001
00000100
00000001
,
00000010
00000001
00000010
00000001
00001000
00000100
00001000
00000100
,
00010000
00001000
00010000
00001000
00100000
00010000
00100000
00010000
10000000
00100000
10000000
00100000
01000000
00010000
01000000
00010000
,
00100000
00010000
00000000
10000000
01000000
00000000
00000000
00000000
01010000
00000000
00000000
00011000
00000000
00000000
00001100
00000000
,
00002002
00003003
00000000
00000000
00000000
00000000
00000000
00000000
00000000
00000000
00000000
00000000
00000000
00000000
00000000
00000000
00000010
00000000
00000000
00000000
00000000
00000000
00000000
00000000
00000001
00000000
00000000
00000000
00000100
00000000
00000000
00000000
00000000
00000000
00000000
00000000
00000010
00000000
00000000
00000000
00000100
00000000
00000000
00000000
00000000
00000000
00000000
00000000
00000010
00000000
00000000
00000000
00001000
00000000
00000000
00000000
00000000
00000000
00000000
00000000
00000100
00000000
00000000
00000000
,
00010000
00000000
00001000
00100000
00010000
00000000
01000000
00010000
00000000
10000000
01000000
00000000
00100000
01000000
00000000
00100000
,
00001000
00000000
00010000
00000100
00001000
00000000
00000100
00000010
00000000
00000100
00001000
00000000
00000001
00000100
00000000
00000010
,
00001000
00000000
00000100
00010000
00001000
00000000
01000000
00010000
00000000
10000000
01000000
00000000
00100000
00000000
00010000
10000000
,
00000000
00100000
01000000
00000000
00100000
00000000
10000000
01000000
00000000
10000000
01000000
00000000
00100000
01000000
00000000
00010000
,
00001000
00000000
00010000
00000010
00001000
00000000
00000001
00000100
00000000
00000001
00000100
00000000
00000010
00000100
00000000
00001000
,
00000100
00000000
00000010
00001000
00000001
00000000
00000010
00000100
00000000
00010000
00001000
00000000
00100000
00000000
00010000
01000000
,
00000000
00100000
01000000
00000000
00010000
00000000
00100000
01000000
00000000
10000000
00010000
00000000
01000000
00000000
00001000
00010000
,
00000000
00000010
00001000
00000000
00000100
00000000
00001000
00000100
00000000
00000100
00000010
00000000
00000010
00000001
00000000
00000001
,
00000100
00000000
00000010
00001000
00000010
00000000
00000100
00001000
00000000
00001000
00010000
00000000
00010000
00100000
00000000
00100000
,
10000000
00000000
01000000
10000000
01000000
00000000
00100000
00010000
00000000
00010000
01000000
00000000
00100000
00010000
00000000
00010000
,
00001000
00000000
00010000
00001000
00010000
00000000
00000010
00001000
00000000
00001000
00000100
00000000
00000010
00000000
00000001
00000100
,
00000000
00000100
00000010
00000000
00001000
00000000
00000010
00000100
00000000
00000001
00000100
00000000
00000001
00000010
00000000
00000100
,
00001000
00000000
00000010
00010000
00001000
00000000
00100000
00010000
00000000
10000000
00100000
00000000
01000000
00010000
00000000
10000000
,
01000000
00000000
00100000
00010000
00100000
00000000
00001000
00100000
00000000
00001000
00100000
00000000
00001000
00010000
00000000
00001000
,
00010000
00000000
00000100
00001000
00000001
00000000
00000100
00000010
00000000
00001000
00000010
00000000
00000100
00000010
00000000
00001000
,
00000010
00000000
00000100
00000000
00000010
00001000
00000000
00001000
00000000
00001000
00000100
00000000
00000010
00000000
00000001
00000000
,
00000100
00000010
00000000
00010000
00000000
00000000
00001000
00000000
01000000
00010000
00000000
10000000
00000000
00000000
01000000
00000000
,
00100000
00000000
00010000
00000000
10000000
00100000
00000000
00100000
00000000
01000000
00100000
00000000
10000000
00000000
01000000
00000000
,
00010000
00001000
00000000
00000010
00000000
00000000
00000100
00000000
00001000
00000010
00000000
00000100
00000000
00000000
00000001
00000000
,
00001000
00000000
00000001
00000000
00000100
00000010
00000000
00000010
00000000
00000100
00001000
00000000
00010000
00000000
00001000
00000000
,
00100000
00010000
00000000
10000000
00000000
00000000
00100000
00000000
01000000
00010000
00000000
00100000
00000000
00000000
01000000
00000000
,
10000000
00000000
01000000
00000000
00010000
00000000
00000000
00001000
00000000
00000000
00022000
00000000
00000000
00000000
00000000
00000000
,
00000000
00000000
00000000
00000000
00033000
00000000
00000010
00000000
00000000
00000100
00000000
00000000
00000001
00000000
00000001
00000000
,
00001000
00000000
00001000
00000000
00000100
00000010
00000000
00000010
00000000
00000100
00000010
00000000
00000001
00000000
00000100
00000000
,
00000010
00000100
00000000
00001000
00000000
00000000
00010000
00000000
00000000
00000000
00000000
00000000
00001000
00000000
00001000
00000000
,
00001000
00000000
00001000
00000000
00100000
00000000
00010000
00000000
10000000
00010000
00000000
10000000
00100000
00000000
10000000
00010000
,
00000000
10000000
01000000
00000000
00010000
00000000
00001000
00000000
00000010
00000100
00000000
00000100
00001000
00000000
00000010
00000100
,
00000000
00000100
00000001
00000000
00001000
00000100
00000000
00000100
00000000
00000010
00000100
00000000
00001000
00000000
00000100
00000000
,
00001000
00000001
00000000
00000100
00000000
00000000
00001000
00000000
00010000
00100000
00000000
01000000
00000000
00000000
00010000
00000000
,
00100000
00000000
01000000
00000000
00010000
00000000
00000000
01000000
00000000
00000000
20000000
00000000
00000000
00000000
00000000
00000000
,
00000000
02000000
00000000
00000000
,
33000000
10000000
00000000
00010000
,
00000000
00001000
00000000
00000000
,
00000000
00000010
00000000
00001000
,
00000100
00010000
00000000
00001000
,
00000000
00000000
00010000
00100000
00010000
00100000
01000000
10000000
,
01000000
10000000
00100000
10000000
00100000
10000000
00010000
01000000
,
00010000
00000000
01000000
00000000
00001000
00010000
00001000
00010000
00000010
00001000
00000010
00001000
00000001
00000010
00000001
00000010
,
00000100
00001000
00000100
00001000
00000010
00001000
00000000
00000001
00000100
00000000
00000000
00000000
00001100
00000000
00000000
00011000
,
00000000
00000000
00000000
00000000
00000000
00000000
00000000
00000000
01010000
00000000
00000000
00000000
00000000
00000000
00000000
00000000
20020000
30030000
00000000
00000000
00000000
00000000
00000000
00000000
00000000
00000000
00000000
00000000
00000000
00000000
00000000
00000000
00100000
00000000
00000000
00000000
00000000
00000000
00000000
00000000
10000000
00000000
00000000
00000000
01000000
00000000
00000000
00000000
00000000
00000000
00000000
00000000
00100000
00000000
00000000
00000000
01000000
00000000
00000000
00000000
00000000
00000000
00000000
00000000
,
00100000
00010000
00000000
01000000
00001000
00000000
00010000
00000010
00001000
00000000
00000100
00001000
00000000
00000001
00000100
00000000
,
00000010
00000100
00000000
00000010
00010000
00000000
00001000
01000000
00010000
00000000
01000000
00100000
00000000
01000000
00010000
00000000
,
10000000
01000000
00000000
00100000
00010000
00000000
01000000
00001000
00010000
00000000
00000100
00001000
00000000
00000001
00000100
00000000
,
00000010
00000000
00001000
00000001
00000000
00000010
00000100
00000000
00000010
00000000
00000001
00000100
00000000
00000001
00000100
00000000
,
00000010
00000100
00000000
00001000
00010000
00000000
00001000
00100000
00010000
00000000
10000000
01000000
00000000
10000000
01000000
00000000
,
00100000
01000000
00000000
00010000
01000000
00000000
00100000
00010000
10000000
00000000
00100000
01000000
00000000
00001000
00010000
00000000
,
00000010
00000000
00001000
00000100
00000000
00000010
00000100
00000000
00001000
00000000
00000010
00000100
00000000
00000001
00001000
00000000
,
00000100
00000000
00010000
00001000
00000000
00100000
00010000
00000000
01000000
00000000
00010000
01000000
00000000
01000000
00100000
00000000
,
00100000
10000000
00000000
10000000
01000000
00000000
00100000
00010000
00100000
00000000
01000000
00010000
00000000
00010000
00001000
00000000
,
00001000
00000010
00000000
00000010
00000001
00000000
00000100
00000001
00000100
00000000
00000010
00001000
00000000
00001000
00000100
00000000
,
00000010
00001000
00000000
00001000
00010000
00000000
00001000
00010000
00001000
00000000
00100000
00010000
00000000
00010000
01000000
00000000
,
00100000
00000000
10000000
01000000
00000000
01000000
00100000
00000000
00010000
00000000
00100000
01000000
00000000
10000000
01000000
00000000
,
10000000
00100000
00000000
01000000
00010000
00000000
00100000
00001000
00010000
00000000
00000010
00001000
00000000
00000001
00000010
00000000
,
00000100
00001000
00000000
00000001
00000100
00000000
00000010
00001000
00000010
00000000
00010000
00000010
00000000
00010000
00000010
00000000
,
00010000
00001000
00000000
00010000
00001000
00000000
01000000
00010000
10000000
00000000
01000000
00100000
00000000
00010000
00100000
00000000
,
01000000
00100000
00000000
00010000
00100000
00000000
01000000
00000000
10010000
00000000
00000000
00000000
00000000
00000000
00000000
00000000
,
00000000
00000000
00000000
00000000
;

//---------------dance-double - ----------------
#NOTES:
     dance-double:
     :
     Challenge:
     15:
     :
00000000
00000000
00000000
00000000
,
00000000
00000000
00000000
00000000
,
00000000
00000000
00000000
00000000
,
00000000
00000000
00000000
00000000
,
00000000
00000000
00000000
00000000
,
00010000
01000000
00010000
01000000
00100000
10000000
00100000
10000000
,
01000000
10000000
01000000
10000000
00010000
00100000
00010000
00100000
,
00001000
00010000
00001000
00010000
00000100
00001000
00000100
00001000
00000001
00000100
00000001
00000100
00000010
00001000
00000010
00001000
,
00000100
00001000
00000000
00000001
00000010
00000000
00000000
00000000
00001010
00000000
00000000
00011000
00000000
00000000
00110000
00000000
,
00000000
MMMMMMMM
00000000
00000000
00000000
00000000
00000000
00000000
00000000
00000000
00000000
00000000
00000000
00000000
00000000
00000000
01000000
00000000
00000000
00000000
00000000
00000000
00000000
00000000
10000000
00000000
00000000
00000000
00100000
00000000
00000000
00000000
00000000
00000000
00000000
00000000
01000000
00000000
00000000
00000000
00100000
00000000
00000000
00000000
00000000
00000000
00000000
00000000
01000000
00000000
00000000
00000000
00010000
00000000
00000000
00000000
00000000
00000000
00000000
00000000
00100000
00000000
00000000
00000000
,
00001000
00000000
00011000
00000000
MMMMMMMM
00000000
00000010
00001000
00000000
00000001
00000010
00000000
00000100
00000010
00000000
00000100
,
00010000
00000000
00011000
00000000
MMMMMMMM
00000000
00100000
01000000
00000000
00100000
00010000
00000000
10000000
00100000
00000000
01000000
,
00010000
00000000
00100000
00001000
00010000
00000000
00000010
00001000
00000000
00000001
00000010
00000000
00000100
00000000
00001000
00000001
,
00000000
00000100
00000010
00000000
MMMMMMMM
00000000
00000001
00000010
00000000
00000001
00000010
00000000
00000100
00010000
00000000
00001000
,
00010000
00000000
00110000
00000000
MMMMMMMM
00000000
10000000
00100000
00000000
10000000
00100000
00000000
01000000
00100000
00000000
00010000
,
00100000
00000000
01000000
00010000
10000000
00000000
01000000
00100000
00000000
00001000
00010000
00000000
00000100
00000000
00001000
00000010
,
00000000
00000100
00000010
00000000
00001000
00000000
00000100
00000010
00000000
00000001
00001000
00000000
00000010
00000000
00010000
00001000
,
00000000
01000000
00010000
00000000
MMMMMMMM
00000000
00010000
00100000
00000000
00100000
01000000
00000000
01000000
10000000
00000000
10000000
,
00100000
01000000
00010000
01000000
00100000
00000000
00100000
00010000
00000000
00010000
00001000
00000000
00001000
00000100
00000000
00000100
,
00000001
00000010
00000100
00000010
00000001
00000000
00000001
00001000
00000000
00001000
00000010
00000000
00000010
00000100
00000000
00000100
,
00001000
00010000
00001000
00010000
00001000
00000000
01000000
00010000
00000000
00010000
00100000
00000000
01000000
00000000
10000000
00100000
,
00000000
00100000
01000000
00000000
MMMMMMMM
00000000
01000000
00100000
00000000
10000000
00100000
00000000
10000000
01000000
00000000
00100000
,
00010000
01000000
00001000
00000000
MMMMMMMM
00000000
00000100
00001000
00000000
00000001
00000100
00000000
00000010
00001000
00000000
00000001
,
00000010
00000100
00001000
00000000
MMMMMMMM
00000000
00010000
00000100
00000000
00010000
00000100
00000000
00010000
00001000
00000000
00010000
,
00001000
00100000
00010000
01000000
00100000
00000000
00100000
01000000
00000000
00010000
01000000
00000000
00100000
01000000
00000000
00010000
,
01000000
00100000
10000000
00100000
01000000
00010000
00000000
00010000
00000000
00010000
00100000
00000000
01000000
00000000
10000000
00000000
,
00100000
01000000
00000000
MMMMMMMM
00000000
00000000
00010000
00000000
00000010
00001000
00000000
MMMMMMMM
00000000
00000000
00000010
00000000
,
00000100
00000000
00001000
00000000
00000001
00000100
00000000
00000100
00000000
00000010
00000100
00000000
00000001
00000000
00000010
00000000
,
00001000
00010000
00000000
MMMMMMMM
00000000
00000000
00100000
00000000
00010000
01000000
00000000
MMMMMMMM
00000000
00000000
10000000
00000000
,
00010000
00000000
10000000
00000000
00100000
01000000
00000000
01000000
00000000
00100000
00010000
00000000
00001000
00000000
00010000
00000000
,
00000100
00001000
00000000
MMMMMMMM
00000000
00000000
00000100
00000000
00000010
00001000
00000000
MMMMMMMM
00000000
00000000
00000010
00000000
,
00000001
00000000
00000010
00000000
00001000
00000000
00000000
00010000
00000000
00000000
00022000
00000000
00000000
00000000
00000000
00000000
,
00000000
00000000
00000000
00000000
00033000
00000000
01000000
00000000
00000000
00100000
00000000
00000000
10000000
00000000
10000000
00000000
,
00010000
00000000
00010000
00000000
00100000
01000000
00000000
01000000
00000000
00100000
01000000
00000000
10000000
00000000
00100000
00000000
,
01000000
00100000
00000000
00010000
00000000
00000000
00001000
00000000
MMMMMMMM
00000000
00000000
00000000
00010000
00000000
00010000
00000000
,
00010000
00000000
00010000
00000000
00000100
00000000
00001000
00000000
00000001
00001000
00000000
00000001
00000100
00000000
00000001
00001000
,
00000000
00000001
00000010
00000000
MMMMMMMM
00000000
00010000
00000000
01000000
00100000
00000000
00100000
00010000
00000000
01000000
00100000
,
00000000
00100000
10000000
00000000
00010000
00100000
00000000
00100000
00000000
01000000
00100000
00000000
00010000
00000000
00100000
00000000
,
00010000
10000000
00000000
MMMMMMMM
00000000
00000000
00010000
00000000
00001000
00000100
00000000
MMMMMMMM
00000000
00000000
00001000
00000000
,
00000100
00000000
00000010
00000000
00001000
00000000
00000000
00000010
00000000
00000000
00000002
00000000
00000000
00000000
00000000
00000000
,
00000000
00000020
00000000
00000000
,
00000033
00000001
MMMMMMMM
00001000
,
MMMMMMMM
00020000
00000000
00030000
,
MMMMMMMM
01000000
MMMMMMMM
00010000
,
00100000
00001000
MMMMMMMM
00010000
,
MMMMMMMM
00000000
00001000
00000100
00001000
00000100
00000010
00000001
,
00000010
00000001
00000100
00000001
00000100
00000001
00001000
00000010
,
00001000
00000000
00000010
00000000
00010000
00001000
00010000
00001000
01000000
00010000
01000000
00010000
10000000
01000000
10000000
01000000
,
00100000
00010000
00100000
00010000
01000000
00010000
00000000
10000000
00100000
00000000
00000000
00000000
00110000
00000000
00000000
00011000
,
00000000
00000000
00000000
00000000
00000000
00000000
00000000
00000000
00001010
00000000
00000000
00000000
00000000
00000000
00000000
00000000
00000000
MMMMMMMM
00000000
00000000
00000000
00000000
00000000
00000000
00000000
00000000
00000000
00000000
00000000
00000000
00000000
00000000
00000100
00000000
00000000
00000000
00000000
00000000
00000000
00000000
00000001
00000000
00000000
00000000
00000010
00000000
00000000
00000000
00000000
00000000
00000000
00000000
00000100
00000000
00000000
00000000
00000010
00000000
00000000
00000000
00000000
00000000
00000000
00000000
,
00000100
00001000
00000000
00000010
00010000
00000000
00011000
00000000
MMMMMMMM
00000000
00100000
00010000
00000000
10000000
00100000
00000000
,
01000000
00100000
00000000
01000000
00001000
00000000
00011000
00000000
MMMMMMMM
00000000
00000010
00000100
00000000
00000010
00001000
00000000
,
00000001
00000010
00000000
00000100
00001000
00000000
00000010
00010000
00001000
00000000
00100000
00010000
00000000
10000000
00100000
00000000
,
01000000
00000000
00010000
10000000
00000000
01000000
00100000
00000000
MMMMMMMM
00000000
10000000
00100000
00000000
10000000
00100000
00000000
,
01000000
00001000
00000000
00010000
00001000
00000000
00001010
00000000
MMMMMMMM
00000000
00000001
00000010
00000000
00000001
00000010
00000000
,
00000100
00000010
00000000
00001000
00000010
00000000
00000100
00001000
00000001
00000000
00000100
00000010
00000000
00010000
00001000
00000000
,
01000000
00000000
00010000
00100000
00000000
01000000
00100000
00000000
00010000
00000000
01000000
00100000
00000000
10000000
00010000
00000000
,
00100000
00000000
00001000
00010000
00000000
00000100
00001000
00000000
MMMMMMMM
00000000
00001000
00000010
00000000
00000010
00000100
00000000
,
00000100
00000001
00000000
00000001
00000010
00000100
00001000
00000100
00000010
00000000
00000010
00001000
00000000
00001000
00010000
00000000
,
00010000
01000000
00000000
01000000
10000000
00100000
01000000
00100000
10000000
00000000
10000000
00010000
00000000
00010000
00100000
00000000
,
00100000
01000000
00000000
01000000
00010000
00001000
00010000
00001000
00010000
00000000
00000100
00001000
00000000
00001000
00000010
00000000
,
00000100
00000000
00000001
00000010
00000000
00000010
00000100
00000000
MMMMMMMM
00000000
00000100
00000010
00000000
00000001
00000010
00000000
,
00000001
00000100
00000000
00000010
00001000
00000100
00010000
00000000
MMMMMMMM
00000000
01000000
00010000
00000000
10000000
01000000
00000000
,
00100000
00010000
00000000
10000000
00100000
01000000
00010000
00000000
MMMMMMMM
00000000
00001000
01000000
00000000
00001000
01000000
00000000
,
00001000
00010000
00000000
00001000
00010000
00000010
00001000
00000100
00000010
00000000
00000010
00000100
00000000
00001000
00000100
00000000
,
00000010
00000100
00000000
00001000
00000100
00000010
00000001
00000100
00000010
00000000
00000000
00000000
00000000
00000000
00000000
00000000
,
00000000
00000000
00000000
00000000
;
