#TITLE:Ah La La La;
#ARTIST:Tommie Sunshine;
#BANNER:Ah La La La.png;
#BACKGROUND:Ah La La La-bg.png;
#CDTITLE:./CDTitles/DanceDanceRevolution 2013.png;
#MUSIC:Ah La La La.ogg;
#SAMPLESTART:60.923;
#SAMPLELENGTH:15;
#BPMS:0=130;
#STAGE:2;

//---------------dance-single - ----------------
#NOTES:
     dance-single:
     :
     Beginner:
     1:
     :
0000
0000
0000
0000
,
0000
0000
0000
0000
,
0000
0000
0000
0000
,
0000
0000
0000
0000
,
0000
0000
0000
0000
,
0100
0000
0000
0000
,
0001
0000
0000
0000
,
1000
0000
0000
0000
,
0010
0000
0000
0000
,
1000
0000
1000
0000
,
0100
0000
0100
0000
,
0001
0000
0001
0000
,
0010
0000
0010
0000
,
1000
1000
1000
0000
,
0001
0001
0001
0000
,
0010
0000
0000
0000
,
0100
0000
0000
0000
,
0001
0001
0001
0000
,
1000
1000
1000
0000
,
0010
0000
0000
0000
,
0100
0000
0000
0000
,
1000
0000
1000
0000
,
0100
0000
0100
0000
,
0001
0000
0001
0000
,
0100
0000
0100
0000
,
0100
0000
0100
0000
,
0010
0000
0010
0000
,
1000
0000
1000
0000
,
0001
0000
0001
0000
,
0100
0000
0100
0000
,
1000
0000
1000
0000
,
0010
0000
0010
0000
,
0001
0000
0001
0000
,
0100
0100
0100
0000
,
0010
0010
0010
0000
,
1000
0000
0000
0000
,
0001
0000
0000
0000
,
0010
0010
0010
0000
,
0100
0100
0100
0000
,
1000
0000
0000
0000
,
0001
0000
0000
0000
,
1000
0000
1000
0000
,
0010
0000
0010
0000
,
0001
0000
0001
0000
,
0100
0000
0100
0000
,
1000
0000
1000
0000
,
0100
0000
0100
0000
,
0010
0000
0010
0000
,
0001
0001
0001
0001
,
0000
0000
0000
0000
;

//---------------dance-single - ----------------
#NOTES:
     dance-single:
     :
     Easy:
     5:
     :
0000
0000
0000
0000
,
0000
0000
0000
0000
,
0000
0000
0000
0000
,
0000
0000
0000
0000
,
0000
0000
0000
0000
,
0010
0000
1000
0000
,
0100
0000
0001
0000
,
0010
0000
0001
0000
,
0100
0000
1000
0000
,
0010
0000
1000
0010
,
0100
0000
0001
0100
,
0001
0000
0010
0001
,
0100
0000
1000
0100
,
0010
0001
0010
0001
,
1000
0100
1000
0100
,
2000
0000
0000
3000
,
0002
0000
0000
0003
,
0100
0001
1000
0100
,
1000
0010
0100
0001
,
2000
0000
0100
3000
,
0002
0000
0100
0003
,
0010
0010
1000
1000
,
0010
0010
0001
0001
,
1000
1000
0100
0100
,
0001
0001
0100
0001
,
2000
3000
0001
0100
,
0020
0030
1000
0010
,
0002
0003
0010
0001
,
0200
0300
1000
0100
,
0010
1000
0001
0100
,
0010
1000
0001
0100
,
1000
0100
0001
0100
,
1000
0100
0001
0100
,
0020
0030
2000
3000
,
0002
0003
0200
0300
,
0022
0000
0000
0033
,
2200
0000
0000
3300
,
1000
1000
0100
0100
,
0001
0001
0100
0100
,
0002
0000
0200
0303
,
0020
0000
2000
3030
,
0010
0001
0010
1000
,
0010
1000
0001
0100
,
0010
0010
1000
1000
,
0001
0001
0100
0100
,
0010
1000
0010
1000
,
0001
0100
0001
0100
,
2000
0000
0200
3300
,
2002
3003
2002
3003
,
0000
0000
0000
0000
;

//---------------dance-single - ----------------
#NOTES:
     dance-single:
     :
     Medium:
     7:
     :
0000
0000
0000
0000
,
0000
0000
0000
0000
,
0000
0000
0000
0000
,
0000
0000
0000
0000
,
0000
0000
0000
0000
,
0010
0001
0100
1000
,
0010
1000
0100
0001
,
0010
0001
0100
1000
,
0010
1000
0100
1001
,
0100
0000
0001
0000
1000
0000
0001
1000
,
0100
0000
0001
0000
1000
0000
0100
0010
,
1000
0000
0010
0000
0001
0000
0010
0100
,
1000
0010
0100
0110
,
1000
0010
0001
0100
,
0010
0000
0001
0000
1000
0010
0000
2002
,
0000
0000
0000
3003
,
0220
0000
0330
1001
,
0010
0001
0010
1000
,
0100
0000
0010
0000
1000
0010
0000
0220
,
0000
0000
0330
2002
0000
0000
3003
0000
,
0220
0000
0330
2002
0000
0000
3003
0000
,
0010
0000
0100
0001
1000
0000
0001
0000
,
0100
0000
0010
1000
0001
0000
0100
0000
,
0001
0000
0010
0001
0100
0000
1000
0000
,
0100
0000
0010
1000
0100
0000
0001
0000
,
0100
0000
0001
0000
1000
0000
0010
1000
,
0100
0000
0010
0000
0001
0000
1000
0001
,
1000
0000
0100
0000
1000
0000
0010
1000
,
0100
0001
0100
1001
,
0100
0000
1000
0000
0010
0000
0001
0100
,
0010
0000
0001
0000
0100
0000
1000
0001
,
0100
0000
0001
0000
1000
0000
0100
0010
,
0001
0010
0100
0110
,
1000
0100
0001
0100
,
0010
0000
1000
0000
0100
0010
0000
2002
,
0000
0000
0000
3003
,
0220
0000
0330
1001
,
0100
0001
0010
1000
,
0010
0000
0001
0000
0100
0010
0000
0220
,
0000
0000
0330
2002
0000
0000
3003
0000
,
0220
0000
0330
2002
3003
0000
0110
0000
,
1000
0000
0010
0000
0001
1000
0100
0000
,
0010
0000
0001
0000
0100
0010
0000
2200
,
0000
0000
3300
0202
0000
0000
0303
0000
,
0022
0000
0033
2200
0000
0000
3300
0000
,
0010
0000
0001
0000
0010
0100
1000
0000
,
0100
0000
0001
0000
1000
0001
0000
0220
,
0000
0000
0330
2002
0000
0000
3003
0000
,
0220
0000
0330
2002
0000
0000
3003
0000
,
0000
0000
0000
0000
;

//---------------dance-single - ----------------
#NOTES:
     dance-single:
     :
     Hard:
     12:
     :
0000
0000
0000
0000
,
0000
0000
0000
0000
,
0000
0000
0000
0000
,
0000
0000
0000
0000
,
0000
0000
0000
0000
,
1000
0100
0001
0100
0000
0100
1000
0010
,
1000
0001
1000
0100
0000
1000
0010
0001
,
0010
1000
0100
1000
0000
1000
0010
0001
,
0010
0000
0100
0000
0010
0000
1000
0000
0000
0000
0010
0001
0010
0000
1000
0000
,
0001
0100
1000
0100
0000
0100
0001
0010
,
0001
1000
0001
0100
0000
0001
0010
1000
,
0010
0100
0010
0001
0010
0100
0010
1000
,
0010
0000
0100
0000
0010
0000
0001
0000
0000
0000
1000
0001
1000
0000
0000
0000
,
0010
0001
1000
0100
0010
0001
0100
0001
,
1000
0010
1000
0100
0020
1000
0031
0100
,
0001
0010
0010
0000
1000
0010
0010
0000
,
1000
0000
0100
1000
0100
0000
0000
0000
0001
0000
0100
0001
0100
0000
0000
0000
,
0010
1000
0001
0100
0010
1000
0100
1000
,
0001
0010
0001
0100
0020
0001
1030
0100
,
1000
0000
0010
1000
0010
0000
0100
0000
0001
0000
0010
0000
0010
0000
0000
0000
,
0001
0000
0010
0001
0010
0000
0001
0000
1000
0000
0100
0000
0100
0000
0000
0000
,
0010
0000
0001
0000
1000
0000
0100
1000
0000
0000
0010
0000
0000
0000
0101
0000
,
0010
0000
1000
0000
0001
0000
0100
0001
0000
0000
0010
0000
0000
0000
1100
0000
,
0100
0000
1000
0000
0001
0000
0010
0001
0000
0000
0100
0000
0000
0000
1010
0000
,
0100
0000
0001
0000
1000
0000
0010
1000
0000
0000
0100
0000
0000
0000
0011
0000
,
2000
0100
0000
0001
0000
3100
0020
1000
,
0000
0100
0000
0031
0000
0100
0010
1000
,
0002
0100
0000
1000
0000
0103
0020
0001
,
0000
0100
0000
1030
0000
0100
0010
0001
,
1000
0100
0001
0100
0000
0100
1000
0010
,
1000
0001
1000
0100
0000
1000
0010
0001
,
0010
0100
0010
1000
0010
0100
0010
0001
,
0010
0000
0100
0000
0010
0000
1000
0000
0000
0000
0001
1000
0001
0000
0000
0000
,
0010
1000
0001
0100
0010
1000
0100
1000
,
0001
0010
0001
0100
0020
0001
1030
0100
,
1000
0010
0010
0000
0001
0010
0010
0000
,
0001
0000
0100
0001
0100
0000
0000
0000
1000
0000
0100
1000
0100
0000
0000
0000
,
0010
0001
1000
0100
0010
0001
0100
0001
,
1000
0010
1000
0100
0020
1000
0031
0100
,
0001
0000
0010
0001
0010
0000
0001
0000
1000
0000
0010
0000
0010
0000
0000
0000
,
1000
0000
0010
0100
0010
0000
1000
0000
0001
0000
0100
0000
0100
0000
0000
0001
,
0100
0000
0000
0010
1000
0000
0000
0100
1000
0000
0000
0001
0010
0000
0000
0001
,
0100
0000
0000
0010
1000
0000
0000
0100
1000
0000
0000
0001
0010
0000
0000
0000
,
0001
0000
0100
0001
0100
0000
1000
0000
0000
0000
0100
0000
0101
0000
0000
0000
,
0010
0000
0001
0010
0001
0000
0100
0000
0000
0000
0010
0000
1010
0000
0100
1000
,
0100
0000
0000
0010
0001
0000
0000
0100
0001
0000
0000
1000
0010
0000
0000
1000
,
0100
0000
0000
0010
0001
0000
0000
0100
0001
0000
0000
1000
0010
0000
0000
0000
,
0001
0000
0010
0001
0010
0000
1000
0000
0000
0000
0100
0000
1100
0000
0000
0000
,
0011
0000
0000
0101
0000
0000
0001
0000
0000
1001
0000
0000
0100
0000
1000
0000
,
0000
0000
0000
0000
;

//---------------dance-double - ----------------
#NOTES:
     dance-double:
     :
     Easy:
     5:
     :
00000000
00000000
00000000
00000000
,
00000000
00000000
00000000
00000000
,
00000000
00000000
00000000
00000000
,
00000000
00000000
00000000
00000000
,
00000000
00000000
00000000
00000000
,
00000010
00000000
00001000
00000000
,
00010000
00000000
01000000
00000000
,
10000000
00000000
01000000
00000000
,
00010000
00000000
00001000
00000000
,
00000100
00000000
00000001
00000100
,
00001000
00000000
00010000
00100000
,
10000000
00000000
00100000
00010000
,
00001000
00000000
00000010
00000001
,
00000010
00001000
00000010
00001000
,
00010000
01000000
00010000
01000000
,
10000000
10000000
01000000
00010000
,
00001000
00001000
00000100
00000001
,
00000010
00001000
00010000
01000000
,
10000000
01000000
00010000
00001000
,
00000020
00000000
00001000
00000030
,
00002000
00000000
00010000
00003000
,
00100000
00100000
10000000
10000000
,
00010000
00010000
00001000
00001000
,
00000100
00000100
00000001
00000001
,
00000100
00000100
00001000
00010000
,
00200000
00300000
00010000
10000000
,
02000000
03000000
00010000
00001000
,
00000020
00000030
00001000
00000010
,
00002000
00003000
00010000
01000000
,
00100000
10000000
00010000
00001000
,
00000100
00000001
00000100
00001000
,
00010000
00100000
10000000
01000000
,
00010000
00001000
00000100
00000001
,
00000200
00000300
00002000
00003000
,
00020000
00030000
02000000
03000000
,
00220000
00000000
00000000
00330000
,
00022000
00000000
00000000
00033000
,
00000010
00000010
00001000
00001000
,
00010000
00010000
01000000
01000000
,
00020000
00000000
00002000
00033000
,
00000020
00000000
00000002
00000033
,
00000010
00001000
00010000
01000000
,
10000000
01000000
00010000
00001000
,
00000010
00000010
00000001
00000001
,
00001000
00001000
00010000
00010000
,
00100000
00010000
00100000
10000000
,
01000000
00010000
00001000
00010000
,
00000020
00000000
00002000
00003030
,
00022000
00033000
00022000
00033000
,
00000000
00000000
00000000
00000000
;

//---------------dance-double - ----------------
#NOTES:
     dance-double:
     :
     Medium:
     7:
     :
00000000
00000000
00000000
00000000
,
00000000
00000000
00000000
00000000
,
00000000
00000000
00000000
00000000
,
00000000
00000000
00000000
00000000
,
00000000
00000000
00000000
00000000
,
00100000
00000000
10000000
00000000
01000000
00000000
00010000
00001000
,
00010000
00000000
00000100
00000000
00000010
00000000
00000001
00000100
,
00000010
00000000
00001000
00000000
00010000
00000000
01000000
00100000
,
10000000
01000000
00010000
00011000
,
00000100
00000000
00000010
00000000
00001000
00000000
00010000
01000000
,
00100000
00000000
00010000
00000000
00001000
00000000
00000100
00000010
,
00001000
00000000
00010000
00000000
01000000
00000000
00100000
01000000
,
00010000
00001000
00000100
00000110
,
00001000
00010000
01000000
00100000
,
01000000
00000000
00010000
00000000
00001000
00000100
00000000
00022000
,
00000000
00000000
00000000
00033000
,
00002200
00000000
00003300
00000010
,
00001000
00010000
00100000
00010000
,
00001000
00000000
00000100
00000000
00000010
00000100
00000000
00022000
,
00000000
00000000
00033000
00220000
00000000
00000000
00330000
00000000
,
02200000
00000000
03300000
22000000
00000000
00000000
33000000
00000000
,
00100000
00000000
10000000
01000000
00010000
00000000
00001000
00000000
,
00000100
00000000
00001000
00010000
01000000
00000000
10000000
00000000
,
01000000
00000000
00100000
00010000
00001000
00000000
00000100
00000000
,
00000010
00000000
00001000
00010000
01000000
00000000
00100000
00000000
,
01000000
00000000
00010000
00000000
00001000
00000000
00000100
00000001
,
00001000
00000000
00000100
00000000
00010000
00000000
00001000
00100000
,
00010000
00000000
00001000
00000000
00000010
00000000
00000100
00000010
,
00001000
00010000
01000000
10010000
,
01000000
00000000
00010000
00000000
00001000
00000000
00000100
00000001
,
00000010
00000000
00001000
00000000
00010000
00000000
01000000
10000000
,
00100000
00000000
00010000
00000000
00001000
00000000
00000100
00000010
,
00010000
00001000
01000000
01100000
,
10000000
00100000
00010000
00001000
,
00000100
00000000
00000010
00000000
00000100
00001000
00000000
00022000
,
00000000
00000000
00000000
00033000
,
02020000
00000000
03030000
10010000
,
01000000
00010000
00001000
00000100
,
00000010
00000000
00001000
00000000
00010000
01000000
00000000
00220000
,
00000000
00000000
00330000
00022000
00000000
00000000
00033000
00000000
,
00002200
00000000
00003300
00000202
00000303
00000000
00000110
00000000
,
00001000
00010000
01000000
10000000
,
00100000
00000000
00010000
00000000
00001000
00000100
00000000
00000220
,
00000000
00000000
00000330
00022000
00000000
00000000
00033000
00000000
,
02020000
00000000
03030000
22000000
00000000
00000000
33000000
00000000
,
00100000
00010000
01000000
00010000
,
00001000
00000000
00000100
00000000
00000010
00000100
00000000
00022000
,
00000000
00000000
00033000
02000000
00000000
00000000
03000000
00000000
,
00020000
00000000
00030000
20000000
00000000
00000000
30000000
00000000
,
00000000
00000000
00000000
00000000
;

//---------------dance-double - ----------------
#NOTES:
     dance-double:
     :
     Hard:
     11:
     :
00000000
00000000
00000000
00000000
,
00000000
00000000
00000000
00000000
,
00000000
00000000
00000000
00000000
,
00000000
00000000
00000000
00000000
,
00000000
00000000
00000000
00000000
,
00100000
00010000
00100000
10000000
00000000
01000000
10000000
00100000
,
00000000
00110000
00000000
00011000
00000000
00000100
00001000
00000100
,
00000010
00001000
00000010
00000001
00000000
00000100
00000001
00000010
,
00000000
00000000
00001010
00000000
00000000
00000000
00011000
00000000
00000000
00000000
01000000
00010000
01000000
00000000
10000000
00000000
,
00100000
00010000
01000000
00010000
00000000
00001000
00010000
00001000
,
00000000
00001100
00000000
00000101
00000000
00000010
00001000
00000200
,
00000000
00000320
00000000
00002030
00000000
00013000
00001000
00200000
,
00000000
00000000
00320000
00000000
00000000
00000000
02030000
00000000
03000000
00000000
00100000
01000000
00100000
00000000
00000000
00000000
,
10000000
00010000
01000000
00010000
00001000
00010000
00001000
00000010
,
00001000
00000100
00001000
00000000
00000010
00000001
00000100
00000010
,
00001000
00010000
00001000
00000000
00010000
01000000
00010000
00000000
,
01000000
00000000
00100000
10000000
00100000
00000000
00000000
00000000
01000000
00000000
00001000
00010000
00001000
00000000
00000000
00000000
,
00000010
00001000
00000100
00001000
00010000
00001000
00010000
00100000
,
00010000
01000000
00010000
00000000
00100000
10000000
01000000
00100000
,
00010000
00001000
00000100
00000002
00000010
00000010
00000013
00000000
,
00000001
00000100
00001000
00020000
01000000
01000000
01030000
00000000
,
10000000
00000000
01000000
00000000
00200000
00000000
00000000
10000000
00000000
00000000
01000000
00000000
00300000
00000000
00100000
00000000
,
00010000
00000000
00001000
00000000
00000020
00000000
00000000
00000001
00000000
00000000
00001000
00000000
00000030
00000000
00000100
00000000
,
00000001
00000000
00000100
00000000
00002000
00000000
00000000
00010000
00000000
00000000
00000010
00000000
00003000
00000000
00001000
00000000
,
00010000
00000000
00100000
00000000
02000000
00000000
00000000
10000000
00000000
00000000
00010000
00000000
03000000
00000000
01000000
00000000
,
00100000
00010000
00000000
11000000
00000000
00100000
00010000
00002000
,
00000000
00000010
00000000
00003100
00000000
00000001
00000100
00001000
,
00000010
00001000
00000000
00000101
00000000
00000010
00001000
00020000
,
00000000
00100000
00000000
01030000
00000000
10000000
01000000
00010000
,
00100000
00010000
00100000
10000000
00000000
01000000
10000000
00100000
,
00000000
00010000
00001000
00010000
00000000
00001000
00001000
00000100
,
00000010
00001000
00000010
00000001
00000000
00000100
00000001
00000010
,
00000000
00000000
00001000
00000000
00010000
00000000
00001000
00000000
00000000
00000000
00100000
00010000
00100000
00000000
01000000
00000000
,
00100000
00010000
01000000
00010000
00001000
00010000
00001000
00000010
,
00001000
00000100
00001000
00000000
00000010
00000001
00000100
00000100
,
00001000
00010000
00001000
00000000
00010000
01000000
00010000
00000000
,
01000000
00000000
10000000
00100000
10000000
00000000
00000000
00000000
00100000
00000000
00010000
00001000
00010000
00000000
00000000
00000000
,
00000010
00001000
00000100
00001000
00010000
00001000
00010000
00100000
,
00010000
01000000
00010000
00000000
00100000
10000000
01000000
00100000
,
00010000
00001000
00000100
00000002
00000010
00000010
00000013
00000000
,
00000001
00000000
00000100
00000000
00001000
00000000
00020000
00000000
01000000
00000000
01000000
00000000
01030000
00000000
00000000
10000000
,
01000000
00000000
00000000
10000000
00100000
00000000
00000000
01000000
00010000
00000000
00000000
00001000
00010000
00000000
00000000
00001000
,
00000010
00000000
00000000
00000001
00000010
00000000
00000000
00001000
00000100
00000000
00000000
00000010
00000001
00000000
00000000
00000000
,
00001000
00000010
00001000
00010000
00000000
01000000
00010000
00000000
,
00001000
00000000
00010000
00000000
00001000
00000000
00000010
00000000
00000000
00000000
00001000
00000000
00000100
00000000
00000010
00000001
,
00000100
00000000
00000000
00000001
00000010
00000000
00000000
00000100
00001000
00000000
00000000
00010000
00001000
00000000
00000000
00010000
,
00100000
00000000
00000000
10000000
00100000
00000000
00000000
00010000
01000000
00000000
00000000
00100000
10000000
00000000
00000000
00000000
,
00010000
00100000
00010000
00001000
00000000
00000100
00001000
00000000
,
00010000
00000000
00000000
00001000
00000000
00000000
00010000
00000000
00000000
00100000
00000000
00000000
00010000
00000000
10000000
00000000
,
00000000
00000000
00000000
00000000
;
