#TITLE:ACROSS WORLD;
#ARTIST:Royz;
#BANNER:ACROSS WORLD.png;
#BACKGROUND:ACROSS WORLD-bg.png;
#CDTITLE:./CDTitles/DanceDanceRevolution 2013.png;
#MUSIC:ACROSS WORLD.ogg;
#SAMPLESTART:55.125;
#SAMPLELENGTH:15;
#BPMS:0=185;

//---------------dance-single - ----------------
#NOTES:
     dance-single:
     :
     Beginner:
     2:
     :
0000
0000
0000
0000
,
0000
0000
0000
0000
,
0000
0000
0000
0000
,
0000
0000
0000
0000
,
0000
0000
0000
0000
,
0001
0000
0000
0000
,
0000
0000
0000
0000
,
1000
0000
0000
0000
,
0000
0000
0000
0000
,
0001
0000
0000
0000
,
0001
0000
0000
0000
,
1000
0000
0000
0000
,
1000
0000
0000
0000
,
0001
0000
0000
0000
,
0001
0000
0000
0000
,
1000
0000
0000
0000
,
1000
0000
0000
0000
,
0010
0000
0000
0000
,
0000
0000
0000
0000
,
0010
0000
0000
0000
,
0000
0000
0000
0000
,
0100
0000
0000
0000
,
0000
0000
0000
0000
,
0100
0000
0000
0000
,
0000
0000
0000
0000
,
0001
0000
0000
0000
,
0000
0000
0000
0000
,
0010
0000
0000
0000
,
0000
0000
0000
0000
,
1000
0000
0000
0000
,
0000
0000
0000
0000
,
0010
0000
0000
0000
,
0000
0000
0000
0000
,
0001
0000
0000
0000
,
0001
0000
0000
0000
,
1000
0000
0000
0000
,
1000
0000
0000
0000
,
0010
0000
0000
0000
,
0010
0000
0000
0000
,
0100
0000
0000
0000
,
0000
0000
0000
0000
,
1001
0000
0000
0000
,
1001
0000
0000
0000
,
0001
0000
0000
0000
,
0001
0000
0001
0000
,
1000
0000
0000
0000
,
1000
0000
1000
0000
,
0001
0000
0000
0000
,
0001
0000
0001
0000
,
1000
0000
0000
0000
,
1000
0000
1000
0000
,
0010
0000
0000
0000
,
0010
0000
0010
0000
,
0100
0000
0000
0000
,
0100
0000
0100
0000
,
0001
0000
0000
0000
,
1000
0000
0000
0000
,
1001
0000
0000
0000
,
1001
0000
0000
0000
,
0001
0000
1000
0000
,
0001
0000
0000
0000
,
1000
0000
0001
0000
,
1000
0000
0000
0000
,
0001
0000
1000
0000
,
0001
0000
0000
0000
,
1000
0000
0001
0000
,
1000
0000
0000
0000
,
0010
0000
0010
0000
,
0010
0000
0000
0000
,
0100
0000
0100
0000
,
0100
0000
0000
0000
,
0001
0000
1000
0000
,
0001
0000
1000
0000
,
0001
0000
0000
0000
,
1000
0000
0000
0000
,
1001
0000
0000
0000
,
0000
0000
0000
0000
,
1001
0000
0000
0000
,
0000
0000
0000
0000
;

//---------------dance-single - ----------------
#NOTES:
     dance-single:
     :
     Easy:
     4:
     :
0000
0000
0000
0000
,
0000
0000
0000
0000
,
0000
0000
0000
0000
,
0000
0000
0000
0000
,
0000
0000
0000
0000
,
1000
0000
0000
0000
,
0001
0000
0000
0000
,
2000
0000
3000
0000
,
0002
0000
0003
0000
,
1000
1000
1000
0000
,
0001
0000
0010
0000
,
0001
0001
0001
0000
,
1000
0000
0010
0000
,
1000
1000
1000
0000
,
0001
0000
0010
0000
,
0001
0001
0001
0000
,
1000
0000
0010
0000
,
2000
0000
0000
0000
,
0000
0000
3000
0000
,
0020
0000
0000
0000
,
0000
0000
0030
0000
,
0002
0000
0000
0000
,
0000
0000
0003
0000
,
0200
0000
0000
0000
,
0000
0000
0300
0000
,
0002
0000
0000
0000
,
0000
0000
0003
0000
,
0020
0000
0000
0000
,
0000
0000
0030
0000
,
2000
0000
0000
0000
,
0000
0000
3000
0000
,
0200
0000
0000
0000
,
0000
0000
0300
0000
,
0000
0001
0000
0001
,
0000
0010
0000
0010
,
0000
1000
0000
1000
,
0000
0010
0000
0000
,
0000
1000
0000
1000
,
0000
0001
0000
0000
,
1001
0000
0000
0000
,
0000
0000
0000
0000
,
0001
0000
0000
0000
,
1000
0000
0000
0000
,
0010
0000
0001
0000
,
0010
0000
0010
0000
,
0100
0000
1000
0000
,
0100
0000
0100
0000
,
1000
0000
0000
0000
,
0001
0000
0000
0000
,
1000
0000
0001
0000
,
1000
0000
0000
0000
,
0001
0001
0010
0000
,
0001
0000
0001
0000
,
1000
1000
0010
0000
,
1000
0000
1000
0000
,
0001
0000
0010
0000
,
1000
0000
0100
0000
,
0001
0000
0000
0000
,
1000
0000
0000
0000
,
0010
0010
0010
0000
,
2000
0000
3000
0000
,
0010
0010
0010
0000
,
0002
0000
0003
0000
,
0100
0100
0100
0000
,
2000
0000
3000
0000
,
0100
0100
0100
0000
,
0002
0000
0003
0000
,
1000
0000
0001
0000
,
1000
0000
0010
0000
,
0001
0000
1000
0000
,
0001
0000
0010
0000
,
0001
0000
0100
0000
,
1000
0000
0100
0000
,
0010
0000
0000
0000
,
0100
0000
0000
0000
,
1001
0000
0000
0000
,
0000
0000
0000
0000
,
1001
0000
0000
0000
,
0000
0000
0000
0000
;

//---------------dance-single - ----------------
#NOTES:
     dance-single:
     :
     Medium:
     8:
     :
0000
0000
0000
0000
,
0000
0000
0000
0000
,
0000
0000
0000
0000
,
0000
0000
0000
0000
,
0000
0000
0000
0000
,
0001
0000
0001
0000
,
1000
0000
1000
0000
,
0010
1000
0001
0010
,
0100
0000
0010
0010
,
0001
0100
0010
0100
,
1000
0100
0001
0100
,
1000
0100
0010
0100
,
0001
0100
1000
0100
,
0001
0010
0100
0010
,
1000
0010
0001
0010
,
1000
0010
0100
0010
,
0001
1000
2002
3003
,
0010
0000
0001
0000
,
1000
0000
0000
0000
0000
0001
0000
0001
,
0010
0000
0001
0000
,
1000
0000
0000
0000
,
0010
0000
0001
0000
,
0100
0000
0000
0000
0000
1000
0000
1000
,
0001
0000
0010
0000
,
0100
0000
0000
0000
,
0010
0000
1000
0000
,
0001
0000
0000
0000
0000
1000
0000
1000
,
0010
0000
1000
0000
,
0001
0000
0000
0000
,
0010
0000
1000
0000
,
0100
0000
0000
0000
0000
0001
0000
0001
,
1000
0000
0010
0000
,
0100
0010
0100
0000
,
0010
0000
1000
0000
0001
0010
0000
0010
,
0000
0100
0010
0001
,
1000
0000
0100
0000
0010
0001
0000
0001
,
0000
0100
0010
1000
,
0010
0000
0001
0000
0100
0010
0000
0010
,
0000
1000
0100
0001
,
1001
0000
0000
0000
,
0000
0000
0000
0000
,
1000
0000
0000
0000
,
0010
0000
0100
0000
,
0010
0010
1000
1000
,
0100
0010
0001
0100
,
0010
0010
0100
0100
,
0001
0010
0100
1000
,
0001
0001
0100
0100
,
0010
1000
0100
1000
,
0001
0001
0010
0010
,
0100
1000
0001
0000
,
1000
1000
0010
0100
,
0001
1000
0001
0100
,
0010
0010
1000
0001
,
0010
0100
1000
0010
,
0001
0010
1000
0010
,
0001
0100
1000
0100
,
0010
0001
0100
1000
,
0010
1000
0100
0100
,
0010
1001
0001
0100
,
0010
0100
0010
1000
,
0010
1001
0010
1000
,
0100
0010
0001
1000
,
0001
0110
0010
1000
,
0100
0010
0001
0100
,
0010
1001
0010
0001
,
0100
0010
1000
0100
,
0021
0130
1000
0100
,
0001
0010
0100
1000
,
1020
0130
0001
0100
,
1000
0010
0100
0001
,
0010
0010
0001
0001
,
0100
0100
1000
1000
,
0010
1000
0100
0010
,
0001
1000
0010
0100
,
0101
0000
0000
0000
0001
1000
0000
0110
,
0000
0000
1000
0000
,
1001
0000
0000
0000
,
0000
0000
0000
0000
;

//---------------dance-single - ----------------
#NOTES:
     dance-single:
     :
     Hard:
     12:
     :
0000
0000
0000
0000
,
0000
0000
0000
0000
,
0000
0000
0000
0000
,
0000
0000
0000
0000
,
0000
0000
0000
0000
,
1000
0010
0100
0000
,
0001
0010
0100
0000
,
0010
0001
1000
0010
,
0100
0001
1000
0000
0010
0000
0010
0000
,
1000
0001
0100
0000
0010
0000
0100
0000
,
0010
1000
0100
0000
0010
0001
0100
0000
,
0010
1000
0001
0000
0010
0000
0100
0000
,
1000
0001
0100
0000
0001
1000
0010
0000
,
1000
0100
0001
0000
0100
0000
1000
0000
,
0001
0010
0100
0000
0010
0001
1000
0000
,
0010
1000
0100
0000
0010
0000
0001
0000
,
1000
0001
2002
3003
,
0010
0010
1000
1000
,
0100
0000
0100
0000
0001
1000
0001
1000
,
0010
0010
0001
0001
,
0100
0100
1000
1000
,
0010
0010
1000
1000
,
0100
0000
0100
0000
1000
0001
1000
0001
,
0010
0010
0100
0100
,
0001
0001
1000
1000
,
0010
0010
0001
0001
,
0100
0000
0100
0000
1000
0001
1000
0001
,
0010
0010
1000
1000
,
0100
0100
0001
0001
,
0010
0010
0001
0001
,
0100
0000
0100
0000
0001
1000
0001
1000
,
0010
0010
0100
0100
,
1000
1000
1001
0000
,
1020
0000
0130
0000
0010
1000
0001
1000
,
0000
0100
0010
0000
0001
1000
0100
0000
,
0021
0000
0130
0000
0010
0001
1000
0001
,
0000
0100
0010
0000
1000
0001
0100
0000
,
0010
0000
1000
0000
0100
0001
0010
0001
,
0000
1000
0010
0000
0001
0100
1000
0000
,
0100
0000
0000
0000
,
0000
0000
0000
0000
,
0001
0000
0000
1000
0000
0000
0001
0000
,
0000
0010
0000
0000
0100
1000
0000
0000
,
0001
0010
0000
0010
0100
0010
0000
0010
,
0001
0010
0100
1000
0001
0100
0010
1000
,
0001
0100
0000
0100
0010
0100
0000
0100
,
1000
0100
0001
0100
1000
0100
0001
0000
,
1000
0010
0000
0010
0100
0010
0000
0010
,
1000
0010
0100
0001
1000
0100
0010
0001
,
1000
0100
0000
0100
0010
0100
0000
0100
,
0001
0100
1000
0100
0001
0100
1000
0000
,
0001
0000
0011
0000
0100
1000
0001
1000
,
0100
0000
1010
0000
0100
0001
1000
0001
,
0100
0000
1100
0000
0010
0001
1000
0001
,
0010
0000
0110
0000
1000
0001
0100
0010
,
1000
1100
0001
0101
,
1000
0110
1001
0110
,
0010
1000
0100
0000
0010
0001
0100
0000
,
0010
1000
0001
1000
0010
0100
0001
0010
,
0100
0000
1001
0000
1000
0100
0010
0100
,
0000
1000
0100
0000
0010
0001
0100
0000
,
0010
0000
1001
0000
0010
0100
0001
1000
,
0000
0001
0010
0000
0100
1000
0010
0000
,
1000
0000
0101
0000
0010
1000
0001
0010
,
0000
0100
0010
0000
0001
1000
0100
0000
,
0010
0000
1001
0000
0010
1000
0100
0010
,
0000
0001
0010
0000
0100
1000
0001
0000
,
0110
0000
1001
0000
0001
0100
1000
0100
,
0000
0001
0100
0000
0010
1000
0100
0000
,
0110
0000
1001
0000
1000
0100
0001
0100
,
0000
1000
0100
0000
0010
0001
0100
0000
,
0010
1000
0010
0000
1000
0100
1000
0000
,
0100
0001
0100
0000
0001
0010
0001
0000
,
0010
0001
0100
0010
1000
0100
0010
0001
,
1000
0001
0010
0100
,
1100
0000
0000
0000
0001
0100
0000
0110
,
0000
0000
1000
0000
,
1001
0000
0000
0000
,
0000
0000
0000
0000
;

//---------------dance-single - ----------------
#NOTES:
     dance-single:
     :
     Challenge:
     14:
     :
0000
0000
0000
0000
,
0000
0000
0000
0000
,
0000
0000
0000
0000
,
0000
0000
0000
0000
,
0000
0000
0000
0000
,
2002
0000
3003
2200
0000
3300
1010
0000
,
2002
0000
3003
0022
0000
0033
0110
0000
,
0220
0000
0330
1001
,
1001
0000
0000
0000
0010
1000
0001
0100
,
0010
1001
0001
0001
0011
0100
0100
1100
,
0100
0100
1001
0001
0101
0001
1010
0010
,
0010
1000
0001
0001
0010
0100
0100
1000
,
0100
0100
0010
0100
0001
0100
0010
0100
,
0100
1100
0100
0100
1001
0001
0001
0101
,
0001
0001
0110
0010
1010
0010
0101
0001
,
0001
1000
0010
0010
0100
0001
0001
1000
,
0010
0010
0100
1000
0100
0001
0010
0100
,
2001
0000
3000
0021
0000
0030
2100
0000
,
0000
0000
0000
0000
3000
0101
0000
2002
,
0000
0000
0000
0000
0000
0000
0000
3003
,
0000
0000
0001
1000
0001
0000
0001
0000
0010
0000
0010
0000
0100
0000
0000
0000
,
2002
0000
0000
0000
,
0000
0000
0000
3003
0000
1100
0000
2020
,
0000
0000
0000
3030
,
0110
0000
0000
0000
0000
0000
0010
0100
0001
0000
0001
0000
1000
0000
0000
0000
,
2002
0000
0000
0000
,
0000
0000
0000
3003
0000
0110
0000
2002
,
3003
0000
0010
1000
0010
0100
0001
0001
,
1000
0100
0010
0001
1000
1000
0100
0000
,
0022
0000
0000
0000
,
0000
0000
0000
0033
0000
1001
0000
0101
,
0000
0000
0001
0100
1000
0100
0001
1000
,
0010
0000
0001
0100
0001
0100
0001
0100
0010
0000
0000
0000
0000
0000
0000
0000
,
0010
0000
1000
0001
0000
1000
0000
0011
,
0000
0000
2200
0000
3300
0000
0000
0000
0010
0000
0001
0100
0001
0000
0000
0000
,
0010
1000
0001
0001
1000
0010
0100
0001
,
0010
0100
1001
0000
0011
0000
1100
0000
,
1000
0000
0001
1000
0000
0101
0000
0110
,
0000
0000
1010
0000
0001
0000
1000
0010
,
0200
0000
0000
0000
,
0000
0001
0010
1300
,
0001
1000
0100
1000
0100
1000
0001
1000
0100
1000
0100
1000
0001
1000
0100
1000
,
0100
1000
0001
1000
0100
1000
0100
1000
0001
0000
0000
0000
0000
0000
0000
0000
,
0001
0000
0100
0000
0001
1000
0001
0000
0010
0000
0100
0000
1000
0000
0001
0000
,
0100
0000
0010
0000
1000
0100
1000
0000
0100
0000
0010
0000
0001
0000
0010
0000
,
0001
0000
0100
0000
1000
0100
1000
0000
0100
0000
0001
0000
0010
0000
0100
0000
,
1000
0000
0001
0000
0100
0001
0100
0000
0010
0000
1000
0000
0100
0000
0010
0000
,
1000
0000
0001
0000
0100
0001
0100
0000
1000
0000
0001
0000
0100
0000
0010
0000
,
1000
0000
0001
0000
0100
0010
0100
0000
0001
0000
0010
0000
1000
0000
0010
0000
,
0001
0000
0100
0000
0010
1000
0010
0000
1000
0000
0100
0000
0010
0000
0001
0000
,
0100
0000
1000
0000
0100
0010
0100
0000
0001
1000
0001
0000
0010
0100
0010
0000
,
0001
0000
1000
0000
0010
1000
0010
0000
0100
0000
0001
0000
0100
0000
0010
0000
,
1000
0000
0100
0000
0010
0001
0010
0000
0001
0000
0100
0000
1000
0000
0100
0000
,
0010
0000
1000
0000
0100
0010
0100
0000
0010
0000
0001
0000
0100
0000
0010
0000
,
1000
0000
0001
0000
0100
0010
0100
0000
1000
0000
0100
0000
0010
0000
0100
0000
,
0001
0000
1000
0000
0100
1000
0100
0000
0001
0000
0100
0000
0010
0000
0100
0000
,
1000
0000
0001
0000
1000
0001
1000
0000
0010
0000
0100
0000
0001
0000
1000
0000
,
0100
0000
0010
0000
0001
0100
0001
0000
1000
0000
0010
0000
0100
0000
0001
0000
,
1000
0000
0010
0000
0100
0010
0100
0000
0001
1000
0001
0000
0010
0001
0010
0000
,
1001
0000
1100
0000
2000
0001
0000
0010
,
0000
0100
0000
3001
0000
0100
0001
1000
,
1001
0000
0101
0000
0002
1000
0000
0010
,
0000
0100
0000
1003
0000
0100
1000
0001
,
0110
0000
1001
0000
1000
0001
0001
0220
,
0000
0000
0330
0000
1000
0001
0000
1001
,
0000
0000
1000
0010
0100
0001
0000
2002
,
0000
0000
3003
0000
0001
1000
0000
2002
,
3003
0000
0010
0100
0100
1000
0000
2200
,
0000
3300
0000
0000
1000
0001
0000
2002
,
3003
0000
0010
0100
0100
0001
0000
2002
,
3003
0011
0000
1100
0000
0000
0110
0000
,
1001
0110
0011
1100
,
1010
0101
0110
1001
,
0011
0000
1100
0000
0100
1000
0000
1000
,
0001
0000
0010
1000
0010
1000
0001
0100
,
2002
0000
3003
0000
1001
1001
0000
0110
,
0000
0000
0000
0000
2002
0000
3003
0110
,
0000
0000
0000
0000
;

//---------------dance-double - ----------------
#NOTES:
     dance-double:
     :
     Easy:
     4:
     :
00000000
00000000
00000000
00000000
,
00000000
00000000
00000000
00000000
,
00000000
00000000
00000000
00000000
,
00000000
00000000
00000000
00000000
,
00000000
00000000
00000000
00000000
,
00000001
00000000
00000000
00000000
,
00001000
00000000
00000000
00000000
,
00000002
00000000
00000003
00000000
,
00002000
00000000
00003000
00000000
,
00000001
00000001
00000001
00000000
,
00000100
00000000
00001000
00000000
,
00010000
00010000
00010000
00000000
,
01000000
00000000
10000000
00000000
,
00010000
00010000
00010000
00000000
,
01000000
00000000
00100000
00000000
,
10000000
10000000
10000000
00000000
,
01000000
00000000
00010000
00000000
,
00002000
00000000
00000000
00000000
,
00000000
00000000
00003000
00000000
,
00000020
00000000
00000000
00000000
,
00000000
00000000
00000030
00000000
,
00000002
00000000
00000000
00000000
,
00000000
00000000
00000003
00000000
,
00000200
00000000
00000000
00000000
,
00000000
00000000
00000300
00000000
,
00002000
00000000
00000000
00000000
,
00000000
00000000
00003000
00000000
,
00020000
00000000
00000000
00000000
,
00000000
00000000
00030000
00000000
,
00200000
00000000
00000000
00000000
,
00000000
00000000
00300000
00000000
,
20000000
00000000
00000000
00000000
,
00000000
00000000
30000000
00000000
,
00000000
01000000
00000000
01000000
,
00000000
00100000
00000000
00100000
,
00000000
00001000
00000000
00001000
,
00000000
00010000
00000000
00000000
,
00000000
00000010
00000000
00000010
,
00000000
00000100
00000000
00000000
,
00001001
00000000
00000000
00000000
,
00000000
00000000
00000000
00000000
,
00001000
00000000
00000000
00000000
,
00000001
00000000
00000000
00000000
,
00000010
00000000
00001000
00000000
,
00000010
00000000
00000010
00000000
,
00000100
00000000
00000001
00000000
,
00000100
00000000
00000100
00000000
,
00001000
00000000
00000000
00000000
,
00010000
00000000
00000000
00000000
,
00100000
00000000
10000000
00000000
,
00010000
00000000
00000000
00000000
,
10000000
10000000
10000000
00000000
,
01000000
00000000
00100000
00000000
,
00010000
00010000
00010000
00000000
,
01000000
00000000
00100000
00000000
,
00010000
00000000
00001000
00000000
,
00010000
00000000
00001000
00000000
,
00000100
00000000
00000000
00000000
,
00000001
00000000
00000000
00000000
,
00000010
00000010
00000010
00000000
,
00000002
00000000
00000003
00000000
,
00000010
00000010
00000010
00000000
,
00002000
00000000
00003000
00000000
,
00010000
00010000
00010000
00000000
,
00002000
00000000
00003000
00000000
,
00100000
00100000
00100000
00000000
,
02000000
00000000
03000000
00000000
,
00010000
00000000
10000000
00000000
,
00010000
00000000
00010000
00000000
,
00100000
00000000
00010000
00000000
,
01000000
00000000
01000000
00000000
,
10000000
00000000
01000000
00000000
,
00010000
00000000
00001000
00000000
,
00000100
00000000
00000000
00000000
,
00000001
00000000
00000000
00000000
,
00001001
00000000
00000000
00000000
,
00000000
00000000
00000000
00000000
,
00001001
00000000
00000000
00000000
,
00000000
00000000
00000000
00000000
;

//---------------dance-double - ----------------
#NOTES:
     dance-double:
     :
     Medium:
     8:
     :
00000000
00000000
00000000
00000000
,
00000000
00000000
00000000
00000000
,
00000000
00000000
00000000
00000000
,
00000000
00000000
00000000
00000000
,
00000000
00000000
00000000
00000000
,
10000000
00000000
10000000
00000000
,
00010000
00000000
00010000
00000000
,
00100000
00001000
00010000
00000100
,
00001000
00000000
00000010
00000010
,
00000100
00000001
00000010
00000001
,
00000100
00001000
00010000
00100000
,
10000000
01000000
10000000
00100000
,
10000000
01000000
00010000
00001000
,
00000100
00000001
00000100
00001000
,
00000001
00000010
00001000
00010000
,
00100000
10000000
00100000
00010000
,
10000000
00010000
20020000
30030000
,
00100000
00000000
10000000
00000000
,
01000000
00000000
00000000
00000000
00000000
00010000
00000000
00010000
,
00001000
00000000
00000100
00000000
,
00000001
00000000
00000000
00000000
,
00000010
00000000
00000001
00000000
,
00000100
00000000
00000000
00000000
00000000
00001000
00000000
00001000
,
00010000
00000000
01000000
00000000
,
10000000
00000000
00000000
00000000
,
00010000
00000000
00100000
00000000
,
00001000
00000000
00000000
00000000
00000000
00010000
00000000
00010000
,
00000100
00000000
00000010
00000000
,
00000001
00000000
00000000
00000000
,
00001000
00000000
00000010
00000000
,
00010000
00000000
00000000
00000000
00000000
00001000
00000000
00001000
,
01000000
00000000
00100000
00000000
,
10000000
00010000
10000000
00000000
,
00100000
00000000
10000000
00000000
01000000
00100000
00000000
00100000
,
00000000
00010000
01000000
00001000
,
00010000
00000000
00001000
00000000
00000100
00000010
00000000
00000010
,
00000000
00001000
00000100
00000010
,
00000001
00000000
00000100
00000000
00000010
00010000
00000000
00010000
,
00000000
00001000
00010000
01000000
,
10010000
00000000
00000000
00000000
,
00000000
00000000
00000000
00000000
,
00010000
00000000
00000000
00000000
,
00100000
00000000
01000000
00000000
,
10000000
10000000
01000000
01000000
,
00010000
00001000
00000100
00000001
,
00001000
00001000
00000010
00000010
,
00000100
00001000
00010000
01000000
,
10000000
10000000
01000000
01000000
,
00100000
00010000
00100000
10000000
,
01000000
01000000
00010000
00010000
,
00001000
00010000
00001000
00000000
,
00000100
00000100
00000010
00001000
,
00000100
00000010
00000001
00001000
,
00000010
00000010
00000100
00001000
,
00010000
00100000
10000000
00100000
,
00010000
00100000
10000000
00100000
,
10000000
01000000
00010000
01000000
,
00100000
00001000
00010000
00000010
,
00000100
00000001
00001000
00001000
,
00000010
00001001
00000100
00000100
,
00001000
00010000
00001000
00010000
,
00100000
10010000
01000000
01000000
,
00010000
00001000
00010000
00001000
,
00000100
00001001
00000010
00000010
,
00001000
00010000
00001000
00010000
,
01000000
10010000
00100000
00100000
,
00010000
00001000
00010000
00000000
,
00102000
00013000
01000000
01000000
,
10000000
01000000
00010000
00001000
,
00020010
00031000
00000100
00000100
,
00000001
00000100
00001000
00010000
,
00100000
00100000
10000000
10000000
,
01000000
01000000
00010000
00010000
,
00001000
00000100
00000001
00000010
,
00000100
00000010
00000001
00001000
,
00000110
00000000
00000000
00000000
00001000
00010000
00000000
00011000
,
00000000
00000000
00100000
00000000
,
10010000
00000000
00000000
00000000
,
00000000
00000000
00000000
00000000
;

//---------------dance-double - ----------------
#NOTES:
     dance-double:
     :
     Hard:
     12:
     :
00000000
00000000
00000000
00000000
,
00000000
00000000
00000000
00000000
,
00000000
00000000
00000000
00000000
,
00000000
00000000
00000000
00000000
,
00000000
00000000
00000000
00000000
,
00000010
00000001
00000100
00000000
,
00000010
00001000
00000100
00000000
,
00000010
00001000
00010000
01000000
,
00100000
00010000
10000000
00000000
00100000
00000000
00100000
00000000
,
01000000
00100000
10000000
00000000
01000000
00000000
01000000
00000000
,
00100000
00010000
01000000
00000000
00001000
00010000
00000100
00000000
,
00000010
00000001
00001000
00000000
00000010
00000000
00000100
00000000
,
00000001
00001000
00000100
00000000
00001000
00000001
00000010
00000000
,
00000001
00000100
00001000
00000000
00010000
00000000
00100000
00000000
,
10000000
00010000
01000000
00000000
00100000
10000000
01000000
00000000
,
00100000
00010000
01000000
00000000
00100000
00000000
00010000
00000000
,
00001000
00000100
00002002
00003003
,
00000010
00000010
00000001
00000001
,
00000100
00000000
00000100
00000000
00001000
00010000
00001000
00010000
,
00100000
00100000
10000000
10000000
,
01000000
01000000
00010000
00010000
,
00001000
00001000
00000100
00000100
,
00000001
00000000
00000001
00000000
00000010
00001000
00000010
00001000
,
00010000
00010000
00100000
00100000
,
10000000
10000000
01000000
01000000
,
00100000
00100000
10000000
10000000
,
01000000
00000000
01000000
00000000
00010000
00001000
00010000
00001000
,
00000010
00000010
00000001
00000001
,
00000100
00000100
00001000
00001000
,
00010000
00010000
01000000
01000000
,
10000000
00000000
10000000
00000000
00100000
00010000
00100000
00010000
,
00001000
00001000
00000010
00000010
,
00000001
00000100
00000110
00000000
,
00000021
00000000
00000130
00000000
00000010
00000001
00001000
00000001
,
00000000
00000100
00000010
00000000
00010000
00001000
00100000
00000000
,
01200000
00000000
00310000
00000000
01000000
00100000
10000000
01000000
,
00000000
00100000
01000000
00000000
00010000
01000000
10000000
00000000
,
00010000
00000000
01000000
00000000
00001000
00010000
00000010
00001000
,
00000000
00000001
00000100
00000000
00000010
00001000
00000100
00000000
,
00000010
00000000
00000000
00000000
,
00000000
00000000
00000000
00000000
,
00000001
00000000
00000000
00000100
00000000
00000000
00001000
00000000
,
00000000
00000100
00000000
00000000
00000001
00001000
00000000
00000000
,
00000100
00001000
00000000
00001000
00000010
00001000
00000000
00001000
,
00010000
01000000
00100000
10000000
00010000
00100000
01000000
10000000
,
00010000
01000000
00000000
01000000
00100000
01000000
00000000
01000000
,
00100000
00010000
00001000
00000100
00000001
00001000
00000100
00000000
,
00000010
00000001
00000000
00000001
00000100
00000001
00000000
00000001
,
00001000
00000100
00010000
00001000
01000000
00010000
10000000
00100000
,
01000000
00100000
00000000
00100000
10000000
00100000
00000000
00100000
,
10000000
01000000
00100000
00010000
01000000
00001000
00010000
00000000
,
00001000
00000000
00001010
00000000
00000100
00000001
00001000
00000001
,
00000100
00000000
00000011
00000000
00000100
00001000
00000001
00001000
,
00000100
00000000
00000110
00000000
00000010
00010000
00001000
00010000
,
00000010
00000000
00011000
00000000
00100000
00010000
01000000
00010000
,
00100000
10010000
01000000
10010000
,
00100000
00011000
00001010
00000011
,
00000010
00000001
00000100
00000000
00000010
00001000
00000100
00000000
,
00000010
00000001
00001000
00000001
00000100
00001000
00010000
00100000
,
01000000
00000000
10010000
00000000
01000000
10000000
00010000
01000000
,
00000000
00100000
10000000
00000000
01000000
00010000
00001000
00000000
,
00000100
00000000
00001001
00000000
00000010
00000100
00001000
00000001
,
00000000
00000100
00000010
00000000
00001000
00000100
00010000
00000000
,
00001000
00000000
00110000
00000000
01000000
00100000
00010000
01000000
,
00000000
00100000
01000000
00000000
10000000
01000000
00010000
00000000
,
00100000
00000000
00011000
00000000
00000010
00001000
00000001
00000100
,
00000000
00000010
00000100
00000000
00000001
00001000
00000100
00000000
,
00000110
00000000
00001001
00000000
00000100
00000010
00010000
00001000
,
00000000
00100000
00010000
00000000
01000000
00010000
00100000
00000000
,
01100000
00000000
10010000
00000000
01000000
00100000
00001000
00010000
,
00000000
00000010
00001000
00000000
00000100
00001000
00000010
00000000
,
00001000
00000001
00000010
00000000
00000001
00000100
00001000
00000000
,
00010000
00100000
10000000
00000000
00010000
01000000
00100000
00000000
,
10000000
01000000
00100000
00010000
01000000
00100000
10000000
01000000
,
00010000
00001000
00000010
00000001
,
00001001
00000000
00000000
00000000
00001000
00000010
00000000
00000110
,
00000000
00000000
00000001
00000000
,
00001001
00000000
00000000
00000000
,
00000000
00000000
00000000
00000000
;

//---------------dance-double - ----------------
#NOTES:
     dance-double:
     :
     Challenge:
     14:
     :
00000000
00000000
00000000
00000000
,
00000000
00000000
00000000
00000000
,
00000000
00000000
00000000
00000000
,
00000000
00000000
00000000
00000000
,
00000000
00000000
00000000
00000000
,
00000002
00000000
00000000
00000203
00000000
00000000
00000310
00000000
,
00002000
00000000
00000000
00003200
00000000
00000000
00000310
00000000
,
00002002
00000000
00003003
00001010
,
00011000
00000000
00000000
00000000
00100000
00010000
10000000
01000000
,
00100000
00010000
00010000
01000000
00100000
00100000
10000000
01000000
,
01000000
00010000
00001000
00001000
00000010
00000100
00001000
00000010
,
00000100
00000010
00000010
00000100
00000001
00000001
00001000
00000100
,
00000100
00000010
00000001
00000001
00000100
00001000
00010000
01000000
,
00100000
01000000
01000000
00100000
00010000
00010000
10000000
01000000
,
01000000
00100000
01000000
01000000
10000000
00010000
01000000
00001000
,
00010000
00000010
00000010
00001000
00000100
00000100
00001000
00000001
,
00000001
00000100
00000010
00001000
00000100
00001000
00000010
00000100
,
00001002
00000000
00000003
00001020
00000000
00000030
00002100
00000000
,
00000000
00000000
00000000
00000000
00003000
00011000
00000000
00220000
,
00000000
00000000
00000000
00000000
00000000
00000000
00000000
00330000
,
00000000
00000000
01000000
00100000
01000000
00000000
00100000
00000000
00010000
00000000
10000000
00000000
00100000
00000000
00000000
00000000
,
02200000
00000000
00000000
00000000
,
00000000
00000000
00000000
03300000
00000000
10100000
00000000
02020000
,
00000000
00000000
00000000
03030000
,
01001000
00000000
00000000
00000000
00000000
00000000
00010000
00001000
00010000
00000000
00001000
00000000
00000100
00000000
00000000
00000000
,
00002002
00000000
00000000
00000000
,
00000000
00000000
00000000
00003003
00000000
00000110
00000000
00002002
,
00003003
00000000
00000010
00000001
00000010
00000100
00001000
00000010
,
00000100
00000010
00001000
00010000
01000000
00010000
00100000
00000000
,
02200000
00000000
00000000
00000000
,
00000000
00000000
00000000
03300000
00000000
10010000
00000000
11000000
,
00000000
00000000
00100000
00010000
01000000
00100000
10000000
01000000
,
00100000
00000000
00001000
00010000
00001000
00010000
00001000
00010000
00001000
00000000
00000000
00000000
00000000
00000000
00000000
00000000
,
00000010
00000000
00000001
00001000
00000000
00000001
00000010
00000100
,
00000000
00000000
00002200
00000000
00003300
00000000
00000000
00000000
00000010
00000000
00000001
00000100
00000001
00000000
00000000
00000000
,
00000100
00000010
00001000
00000100
00000010
00001000
00010000
01000000
,
00100000
00010000
10010000
00000000
10100000
00000000
01010000
00000000
,
00100000
00000000
01000000
00010000
00000000
11000000
00000000
01100000
,
00000000
00001000
00010000
00000000
00001010
00000000
00000001
00001000
,
00000200
00000000
00000000
00000000
,
00000000
00001000
00000010
00000301
,
00001000
00000000
00000001
00000100
00000001
00000000
00001000
00000000
00000001
00000010
00000001
00000000
00001000
00000000
00000010
00000100
,
00000010
00000000
00001000
00000000
00000001
00000100
00000001
00000000
00001000
00000000
00000100
00000000
00000000
00000000
00000000
00000000
,
00010000
00000000
00001000
00000000
00100000
00010000
00100000
00000000
01000000
00000000
10000000
00000000
00010000
00000000
01000000
00000000
,
00100000
00000000
10000000
00000000
00010000
01000000
00010000
00000000
00100000
00000000
00010000
00000000
01000000
00000000
00100000
00000000
,
10000000
00000000
01000000
00000000
00100000
01000000
00100000
00000000
00010000
00000000
00001000
00000000
00000100
00000000
00000010
00000000
,
00000001
00000000
00001000
00000000
00000100
00001000
00000100
00000000
00000010
00000000
00000001
00000000
00000100
00000000
00000010
00000000
,
00001000
00000000
00000001
00000000
00000100
00000010
00000100
00000000
00000001
00000000
00001000
00000000
00000100
00000000
00000010
00000000
,
00000001
00000000
00001000
00000000
00000100
00000010
00000100
00000000
00001000
00000000
00000010
00000000
00000001
00000000
00000010
00000000
,
00001000
00000000
00000100
00000000
00010000
00001000
00010000
00000000
00001000
00000000
01000000
00000000
00100000
00000000
10000000
00000000
,
00010000
00000000
00100000
00000000
01000000
00100000
01000000
00000000
00100000
00000000
00010000
00000000
10000000
00000000
00010000
00000000
,
01000000
00000000
00010000
00000000
10000000
01000000
10000000
00000000
01000000
00000000
00010000
00000000
00001000
00000000
00000010
00000000
,
00000001
00000000
00000100
00000000
00000010
00001000
00000010
00000000
00001000
00000000
00000100
00000000
00000001
00000000
00000100
00000000
,
00000010
00000000
00000001
00000000
00000100
00000010
00000100
00000000
00000010
00000000
00001000
00000000
00000100
00000000
00000010
00000000
,
00001000
00000000
00010000
00000000
00001000
00010000
00001000
00000000
00010000
00000000
01000000
00000000
10000000
00000000
00100000
00000000
,
10000000
00100000
01000000
00000000
00010000
00100000
01000000
00000000
,
00100000
00001000
00010000
00001000
00000010
00000001
00001000
00000001
,
00000200
00000010
00001000
00000301
,
00000010
00000000
00000100
00000000
00001000
00000100
00001000
00000000
00000100
00010000
00000100
00000000
00010000
00001000
00010000
00000000
,
00110000
00000000
10010000
00000000
00020000
01000000
00000000
10000000
,
00000000
00100000
00000000
01030000
00000000
00100000
01000000
00000000
,
00011000
00000000
00001100
00000000
00002000
00000001
00000000
00000010
,
00000000
00000100
00000000
00003001
00000000
00000100
00000001
00000000
,
00000110
00000000
00001001
00000000
00000001
00001000
00000010
00000220
,
00000000
00000000
00000330
00000000
00000001
00000010
00000100
00001000
,
00000000
00000000
00000001
00000100
00001000
00010000
00000000
00022000
,
00000000
00000000
00033000
00000000
00001000
00100000
00000000
00220000
,
00330000
00000000
00100000
01000000
10000000
01000000
00000000
02020000
,
00000000
03030000
00000000
00000000
00100000
10000000
00000000
20020000
,
30030000
00000000
01000000
00010000
00001000
00010000
00000000
00002200
,
00003300
00001010
00000000
00000101
00000000
00000000
00000010
00000000
,
00000011
00000110
00001010
00000110
,
00010010
00011000
00101000
00110000
,
01100000
00000000
11000000
00000000
00010000
01000000
00000000
00100000
,
10000000
00000000
00000000
00000000
00010000
00000000
10000000
00000000
01000000
00000000
00010000
00000000
01000000
00000000
10000000
00010000
,
20000000
00000000
30000000
00000000
00100000
01000000
00000000
01010000
,
00000000
00000000
00000000
00000000
00022000
00000000
00033000
00001010
,
00000000
00000000
00000000
00000000
;
