#TITLE:The Way U Move;
#ARTIST:Bill Hamel & Derek James feat. Breana Skiles;
#BANNER:The Way U Move.png;
#BACKGROUND:The Way U Move-bg.png;
#CDTITLE:./CDTITLES/DanceDanceRevolution 2010.png;
#MUSIC:The Way U Move.ogg;
#SAMPLESTART:6.432;
#SAMPLELENGTH:15;
#BPMS:0=135;

//---------------dance-single - ----------------
#NOTES:
     dance-single:
     :
     Beginner:
     3:
     :
0000
0000
0000
0000
,
0000
0000
0000
0000
,
0000
0000
0000
0000
,
0000
0000
0000
0000
,
0010
0000
0010
0000
,
1000
0000
0000
0000
,
0001
0000
0001
0000
,
0100
0000
0000
0000
,
0010
0000
0010
0000
,
1000
0000
0000
0000
,
0001
0000
0001
0000
,
0100
0000
0000
0000
,
1000
0000
1000
0000
,
0001
0000
0000
0000
,
0010
0000
0010
0000
,
0100
0000
0000
0000
,
0010
0000
0010
0000
,
1000
0000
0000
0000
,
0010
0000
0010
0000
,
0001
0000
0000
0000
,
1000
0000
0000
0000
,
0100
0100
0100
0000
,
0001
0000
0000
0000
,
0100
0000
0100
0000
,
1000
0000
0000
0000
,
0001
0001
0001
0000
,
0010
0000
0010
0000
,
0100
0000
0100
0000
,
1000
0000
0000
0000
,
0001
0001
0001
0000
,
1000
0000
0000
0000
,
0001
0000
0001
0000
,
0010
0000
0000
0000
,
1000
1000
1000
0000
,
0100
0000
0000
0000
,
0001
0001
0001
0001
,
0000
0000
0000
0000
,
1001
0000
0000
0000
,
0010
0000
0010
0000
,
0100
0000
0000
0000
,
1001
0000
0000
0000
,
1001
0000
0000
0000
,
0010
0000
0010
0010
,
0010
0010
0010
0000
,
1000
0000
1000
1000
,
1000
0000
0000
0000
,
0010
0000
0010
0000
,
0001
0000
0000
0000
,
1000
1000
0000
0000
,
0100
0000
0000
0000
,
0010
0000
0010
0000
,
0001
0000
0000
0000
,
1000
1000
1000
1000
,
1000
1000
1000
0000
,
0100
0000
0000
0000
,
0001
0001
0001
0000
,
0100
0000
0000
0000
,
1000
0000
1000
0000
,
0010
0000
0000
0000
,
0001
0001
0001
0000
,
0100
0000
0000
0000
,
1000
1000
1000
1000
,
0001
0000
0000
0000
;

//---------------dance-single - ----------------
#NOTES:
     dance-single:
     :
     Easy:
     5:
     :
0000
0000
0000
0000
,
0000
0000
0000
0000
,
0000
0000
0000
0000
,
0000
0000
0000
0000
,
1000
0000
0100
0000
,
0001
0000
0100
0000
,
0010
0000
1000
0000
,
0001
0000
0100
0000
,
1000
0000
0010
0000
,
0001
0001
0001
0000
,
1000
1000
0100
0000
,
0001
0001
0100
0000
,
0002
0003
0200
0300
,
2000
3000
0000
0000
,
0002
0003
2000
3000
,
0002
0003
0000
0000
,
2000
3000
0200
0300
,
0002
0003
0000
0000
,
2000
3000
0002
0003
,
2000
3000
0000
0000
,
0020
0030
1000
0000
,
2000
3000
0100
0000
,
0200
0300
0001
0000
,
0001
0010
1000
0000
,
0020
0030
0001
0000
,
0002
0003
0100
0000
,
0200
0300
1000
0000
,
1000
0010
0001
0000
,
0020
0030
1000
1000
,
2000
3000
0100
0000
,
0200
0300
0001
0001
,
0001
0010
1000
0000
,
0020
0030
0001
0001
,
0002
0003
0100
0000
,
0200
0300
1000
1000
,
1000
0010
0001
0000
,
0000
0000
0000
0000
,
1000
0001
1000
0001
,
2000
3000
0002
0003
,
0001
1000
0001
0000
,
0020
0030
0200
0300
,
0010
0100
0010
0000
,
0002
0003
0001
0000
,
2000
3000
1000
0000
,
0001
0001
1000
1000
,
1001
0000
0000
0000
,
0020
0030
1000
0000
,
2000
3000
0100
0000
,
0200
0300
0001
0000
,
0001
0010
1000
0000
,
0020
0030
0001
0000
,
0002
0003
0100
0000
,
0200
0300
1000
0000
,
1000
0010
0001
0000
,
0020
0030
1000
1000
,
2000
3000
0100
0000
,
0200
0300
0001
0001
,
0001
0010
1000
0000
,
0020
0030
0001
0001
,
0002
0003
0100
0000
,
0200
0300
1000
1000
,
1000
0010
0001
0000
,
0020
0000
0000
0030
;

//---------------dance-single - ----------------
#NOTES:
     dance-single:
     :
     Medium:
     6:
     :
0000
0000
0000
0000
,
0000
0000
0000
0000
,
0000
0000
0000
0000
,
0000
0000
0000
0000
,
0100
0001
0010
0001
,
0100
1000
0100
0010
,
1000
0100
0001
0100
,
0001
0000
0010
0000
0001
0100
0001
0000
,
1000
0000
0010
0000
1000
0100
1000
0000
,
0010
0001
0010
1000
,
0010
1000
0010
0000
1000
0100
1000
0000
,
0010
1000
0010
0000
0100
0001
1000
0100
,
2000
3000
0200
0300
,
0002
0000
0003
0000
0100
0000
1000
0100
,
0002
0003
0200
0300
,
2000
0000
3000
0000
0001
0000
0010
0001
,
0020
0030
2000
3000
,
0020
0030
0000
0000
,
0001
0000
0010
0001
1000
0000
0100
1000
,
0010
0002
0003
0000
,
2000
0000
3010
0001
0010
0000
1000
0000
,
0200
0000
0310
0001
0010
0000
0100
0000
,
2000
0000
3010
0001
0010
0000
1000
0000
,
0100
0000
0001
0000
0010
0000
0001
1000
,
0100
0000
1000
0000
0010
0000
1000
0001
,
0100
0000
0001
0000
0010
0000
0001
1000
,
0100
0000
1000
0000
0010
0000
1000
0001
,
0100
0000
0001
0000
0010
0000
0001
0010
,
0020
0000
0030
0001
0002
0000
0003
0100
,
0200
0000
0300
1000
2000
0000
3000
0010
,
0020
0000
0030
0001
0002
0000
0003
0000
,
1000
0000
0100
0000
0001
0000
0100
0010
,
0020
0000
0030
0001
0002
0000
0003
0100
,
0200
0000
0300
1000
2000
0000
3000
0010
,
0020
0000
0030
0001
0002
0000
0003
0000
,
1000
0010
0001
0010
,
0000
0000
0000
0000
,
1010
1010
0101
0101
,
0002
0000
0203
0000
0302
0000
0103
0100
,
0010
0000
1000
0000
0001
0100
0001
0000
,
2000
0000
3020
0000
2030
0000
3010
0010
,
0100
0000
0001
0000
1000
0000
0010
1000
,
0001
0000
0100
0000
0010
1000
0010
0000
,
1000
0100
0001
0100
,
1000
0100
1000
0000
0001
0100
0001
0000
,
1000
0000
0010
0000
0100
0000
0001
0100
,
2000
3000
0200
0300
,
0002
0000
0003
0000
0100
0000
1000
0100
,
0002
0003
0200
0300
,
2000
0000
3000
0000
0001
0000
0010
0001
,
0020
0030
2000
3000
,
0020
0030
0000
0000
,
0001
0000
0010
0001
1000
0000
0100
1000
,
0010
0002
0003
0000
,
2000
0000
3010
0001
0010
0000
1000
0000
,
0200
0000
0310
0001
0010
0000
0100
0000
,
2000
0000
3010
0001
0010
0000
1000
0000
,
0100
0000
0001
0000
0010
0000
0001
1000
,
0100
0000
1000
0000
0010
0000
1000
0001
,
0100
0000
0001
0000
0010
0000
0001
1000
,
0100
0000
1000
0000
0010
0000
1000
0001
,
2000
0000
0000
3000
,
0002
0000
0000
0003
;

//---------------dance-single - ----------------
#NOTES:
     dance-single:
     :
     Hard:
     8:
     :
0000
0000
0000
0000
,
0000
0000
0000
0000
,
0000
0000
0000
0000
,
0000
0000
0000
0000
,
0010
0000
0001
1000
0100
0000
0010
0001
,
0100
0000
1000
0000
0100
0010
1000
0000
,
0010
0000
0100
1000
0010
0000
0100
0010
,
1000
0000
0001
0000
0100
0010
1000
0100
,
0001
0000
0100
1000
0010
0000
0001
0100
,
0010
0000
1000
0000
0010
0001
0100
0000
,
1000
0000
0010
0001
0100
0000
1000
0100
,
0022
0000
0033
0000
0001
0010
0100
1000
,
0011
0110
2200
3300
,
0022
0000
0033
0000
0010
0001
1000
0000
,
0010
0000
0100
0000
1000
0000
0010
0001
,
1000
0000
0010
0000
0100
0000
1000
0100
,
0011
0110
2020
3030
,
0202
0000
0303
0000
0010
0000
0100
1000
,
0001
0000
0010
0000
0100
0000
0010
1000
,
0100
0000
0010
0000
0100
0001
1000
0010
,
0100
0001
0010
0001
0100
0010
1000
0010
,
0100
0001
0010
1000
0100
0010
0001
1000
,
0100
1000
0001
0010
1000
0001
0010
0001
,
0110
0011
1100
0011
,
0100
0001
0010
0001
1000
0010
0100
1000
,
0010
0100
1000
0010
0100
0001
0010
1000
,
0100
0010
0001
0010
1000
0001
0100
1000
,
0011
1100
0101
1010
,
0010
0001
1000
0001
0010
1000
0100
0001
,
1000
0100
0010
0001
0100
0010
1000
0001
,
0010
1000
0100
0001
1000
0001
0010
0100
,
1001
0110
1010
0101
,
1000
0001
0100
0010
1000
0001
0010
1000
,
0100
0001
0010
0001
0100
0010
1000
0100
,
0010
0001
0100
0001
1000
0100
0010
1000
,
0101
1010
0220
0330
,
2002
0000
3003
0010
0100
0000
0101
0000
,
1010
0000
0101
0000
1000
0010
0100
0001
,
1000
0000
0010
1000
0001
0000
1000
0001
,
0010
0000
0100
0000
1000
0000
0010
0001
,
0100
0000
0010
0000
1000
0000
0100
1000
,
0010
0000
1000
0000
0010
0000
0100
0001
,
1000
0000
0010
0000
0100
0000
1000
0010
,
0100
0000
0010
0001
0100
0000
0001
1000
,
0010
0000
1000
0000
0100
0000
0001
0100
,
0010
0000
0001
0000
0100
0001
1000
0010
,
1100
0101
2020
3030
,
0202
0000
0303
0000
0011
0000
0100
0001
,
1000
0000
0100
0000
0010
0000
0100
0001
,
1000
0000
0010
0000
0001
0000
0100
1000
,
0011
0110
2002
3003
,
0202
0000
0303
0000
1010
0000
0100
0001
,
0010
0000
1000
0010
0001
0000
0100
1000
,
0010
0000
0100
0000
1000
0001
0100
1000
,
0001
0100
0010
0001
0100
0010
1000
0001
,
0010
0001
1000
0010
0100
1000
0001
0100
,
0010
0001
0100
0001
1000
0100
0010
1000
,
0100
0001
1000
0010
0100
1000
0001
0100
,
0010
1000
0001
0010
0100
0000
1000
0001
,
0010
0001
1000
0010
0100
1000
0001
0100
,
1000
0001
0010
1000
0001
0100
1000
0001
,
0010
0000
0001
0000
1000
0010
0100
0000
,
2002
0000
0000
3003
;
