#TITLE:Take Me;
#ARTIST:Harmony Machine;
#BANNER:Take Me.png;
#BACKGROUND:Take Me-bg.png;
#CDTITLE:./CDTITLES/DanceDanceRevolution 2010 Wii.png;
#MUSIC:Take Me.ogg;
#SAMPLESTART:16.74;
#SAMPLELENGTH:15;
#BPMS:0=100;

//---------------dance-single - ----------------
#NOTES:
     dance-single:
     :
     Beginner:
     2:
     :
0000
0000
0000
0000
,
0000
0000
0000
0000
,
0000
0000
0000
0000
,
1000
0000
0000
0000
,
0001
0000
0000
0000
,
1000
0000
0000
0000
,
0001
0000
0000
0000
,
1000
1000
0000
0000
,
0001
0001
0000
0000
,
0010
0010
0000
0000
,
0100
0100
0000
0000
,
1000
1000
1000
0000
,
0001
0001
0001
0000
,
1000
1000
1000
0000
,
1001
0000
0000
0000
,
0010
0010
0010
0000
,
0100
0100
0100
0000
,
0010
0010
0010
0000
,
1001
0000
0000
0000
,
0010
0010
0000
0000
,
0100
0100
0000
0000
,
0001
0001
0000
0000
,
1000
1000
0000
0000
,
1001
0000
1001
0000
,
1000
0000
1000
0000
,
0001
0000
0001
0000
,
1000
1000
1001
0000
,
0010
0000
0010
0000
,
1000
1000
1000
0000
,
0001
0000
0001
0000
,
0100
0000
0000
0000
,
0010
0000
0010
0000
,
1000
1000
1000
0000
,
0001
0000
0001
0000
,
0100
0000
0000
0000
,
1001
0000
1000
0000
,
1001
0000
0000
0000
,
1001
0000
0001
0000
,
1001
0000
0000
0000
,
0010
0010
0010
0010
,
1000
1000
1000
1000
,
0001
0001
0001
0001
,
1001
1001
0000
0000
;

//---------------dance-single - ----------------
#NOTES:
     dance-single:
     :
     Easy:
     4:
     :
0000
0000
0000
0000
,
0000
0000
0000
0000
,
0000
0000
0000
0000
,
0010
0010
1000
0000
,
0001
0001
0100
0000
,
1000
1000
0100
0000
,
0001
0001
0100
0000
,
0010
0010
0010
0000
,
0100
0100
0100
0000
,
0010
1000
0001
0000
,
0001
0000
0000
0000
,
0020
0032
0023
0030
,
2000
3200
2300
3000
,
0020
0230
0320
0030
,
0010
0010
0010
0000
,
0020
2030
3020
0030
,
0002
0203
0302
0003
,
0020
0230
0320
0030
,
0010
0000
0000
0000
,
0002
0003
0100
0100
,
0200
0300
1000
1000
,
2000
3000
0010
0010
,
0020
0030
1001
0000
,
2000
3000
0100
0100
,
0200
0300
0001
0001
,
0002
0003
0010
0010
,
0020
0000
0030
0000
,
2000
0000
0020
3030
,
0020
0000
0200
0330
,
0002
0000
0020
0033
,
0000
0000
0000
0000
,
0100
1000
1000
0000
,
0100
0001
0001
0000
,
0100
0010
0010
0000
,
0010
0000
0000
0000
,
0100
1000
2000
3000
,
0100
0001
0002
0003
,
0100
0010
0020
0030
,
0010
0000
0000
0000
,
0100
0001
0001
0001
,
0100
1000
1000
1000
,
0100
0010
0010
0010
,
2002
3003
0000
0000
;

//---------------dance-single - ----------------
#NOTES:
     dance-single:
     :
     Medium:
     6:
     :
0000
0000
0000
0000
,
0000
0000
0000
0000
,
0000
0000
0000
0000
,
1000
0000
1000
0000
0010
0001
0100
0001
,
0010
0000
0010
0000
1000
0100
0001
0000
,
0100
0000
0100
0000
1000
0010
0001
0000
,
0010
1000
0010
1000
0000
0100
1000
0000
,
0001
0000
0001
0000
0010
1000
0100
1000
,
0010
0000
0010
0000
0001
0100
1000
0000
,
0100
0000
0100
0000
0001
0010
1000
0000
,
0010
0001
0010
0001
0000
0100
0001
0000
,
1000
0010
0101
0011
,
1100
0000
1010
0000
0100
0001
0010
0000
,
0100
1000
0010
1000
0001
1000
0001
0020
,
1000
0000
0031
0000
0100
1000
0100
0000
,
0001
0010
1100
1010
,
0101
0000
0011
0000
0100
1000
0010
0000
,
0100
0001
0010
0001
1000
0001
1000
0020
,
0001
0000
1030
0000
0100
0001
0100
0000
,
1000
0000
0010
0001
0100
0000
0001
0000
,
0010
0000
1000
0100
0001
0000
0100
0000
,
0001
0000
0100
1000
0010
0000
0001
0000
,
0100
0000
0000
0001
0000
0000
0010
0000
0000
0000
1000
0000
0100
0000
0010
0000
,
0001
0000
0010
1000
0100
0000
1000
0000
,
0010
0000
0001
0100
1000
0000
0100
0000
,
1000
0000
0100
0001
0010
0000
1000
0000
,
0100
0000
1000
0000
0010
0000
0001
0100
,
0002
0000
0000
0000
,
0020
0000
0000
0003
,
2000
0000
0000
0000
3000
0000
1030
1000
,
0010
1000
0020
0000
0100
0000
0031
0000
,
0100
0100
0100
0000
1000
0100
0001
0100
,
0100
0000
0001
0010
1000
0010
0010
0000
,
0001
0001
0100
0100
1000
1000
0100
0001
,
0011
0000
0000
0000
,
1000
0010
1000
0010
0100
0010
0100
0001
,
0010
0001
0010
0001
0010
0100
1000
0100
,
1000
0010
0001
0000
0010
0010
1000
1000
,
0100
0001
0200
0000
0010
0000
1300
0000
,
0001
0010
0001
0010
0100
0010
0100
1000
,
0010
1000
0010
1000
0010
0100
0001
0100
,
0001
0010
1000
0000
0010
0010
0001
0001
,
0100
1000
0000
0000
0000
0000
0000
0000
;

//---------------dance-single - ----------------
#NOTES:
     dance-single:
     :
     Hard:
     8:
     :
0000
0000
0000
0000
,
0000
0000
0000
0000
,
0000
0000
0000
0000
,
0010
0000
0000
0001
0000
0000
0100
0000
1000
0100
0001
0000
0010
0000
0001
0000
,
0010
0000
0000
1000
0000
0000
0100
0000
1000
0010
0001
0000
0100
0000
1000
0000
,
0100
0000
0000
0001
0000
0000
0010
0000
1000
0010
0001
0000
1000
0000
0100
0000
,
1010
0000
0000
0101
0000
0000
0011
0000
0000
0000
0100
0000
1000
0000
0000
0000
,
0010
0000
0000
1000
0000
0000
0100
0000
0001
0100
1000
0000
0010
0000
1000
0000
,
0010
0000
0000
0001
0000
0000
0100
0000
0001
0010
1000
0000
0100
0000
0001
0000
,
0100
0000
0000
1000
0000
0000
0010
0000
0001
0010
1000
0000
0001
0000
0100
0000
,
0011
0000
0000
1100
0000
0000
1010
0000
0000
0000
0100
0000
0001
0000
1000
0000
,
0011
0000
1000
0020
0100
0000
0031
0000
1000
0010
0100
0001
0000
0000
0010
0000
,
1100
0000
0001
0200
0010
0000
1300
0000
0100
0001
0010
0000
1000
0000
0010
0000
,
0011
0000
0100
0001
1000
0000
0010
0000
1000
0100
1000
0000
0010
0000
1000
0000
,
0101
0000
0000
0000
0010
1000
0000
0000
0100
0000
1000
0010
0001
0000
0100
0000
,
1010
0000
0001
0020
0100
0000
1030
0000
0001
0010
0100
0000
1000
0000
0010
0000
,
0101
0000
1000
0200
0010
0000
0301
0000
0100
1000
0010
0000
0001
0000
0010
0000
,
1010
0000
0100
1000
0001
0000
0010
0000
0001
0100
0001
0000
0010
0000
0001
0000
,
1100
0000
0000
0000
0010
0001
0000
0000
0010
0000
0000
1000
0100
0000
0000
0000
,
0010
0000
0000
0001
0100
0000
1000
0000
0100
0001
0100
0000
0001
0010
0001
0000
,
0010
0000
0000
1000
0100
0000
1000
0000
0010
0001
0010
0000
0001
0100
1000
0000
,
0100
0000
0000
0001
0010
0000
1000
0000
0010
0001
0010
0000
0100
1000
0100
0000
,
1010
0000
0000
0101
0000
0000
0011
0000
0000
0000
0100
0000
1000
0000
0000
0000
,
0010
0000
0000
1000
0100
0000
0001
0000
0100
1000
0100
0000
1000
0010
1000
0000
,
0010
0000
0000
0001
0100
0000
0001
0000
0010
1000
0010
0000
1000
0100
0001
0000
,
0100
0000
0000
1000
0010
0000
0001
0000
0010
1000
0010
0000
0100
0001
0100
0000
,
0011
0000
0000
0000
1100
0000
0000
0000
1010
0000
0100
0000
1000
0000
0001
0010
,
0200
0000
0000
1000
,
2000
0300
0000
0010
,
3002
0000
0203
0000
0320
0000
1030
0100
,
0020
0002
0030
0000
2003
0000
0100
3001
,
0010
0000
0001
0010
0100
0000
1000
0000
0010
0000
0001
0000
0010
0000
1000
0000
,
0100
0000
0001
0100
1000
0000
0010
0000
0001
0000
0010
0000
1000
0000
0100
0000
,
0001
0000
0100
1000
0010
0000
0001
0000
0100
0000
0001
0000
0010
0000
1000
0000
,
2200
0000
0000
0000
0000
0000
3300
0000
0000
0000
1000
0010
0100
0001
0010
0000
,
0100
0000
1000
0010
0000
1000
0100
0000
0010
0001
0100
0000
1000
0000
0100
0000
,
0001
0000
0010
1000
0000
0010
0001
0000
0100
1000
0100
0000
0001
0000
0010
0000
,
0100
0000
1000
0010
0001
0000
0000
0000
0010
1000
0100
0000
0010
0000
0001
0000
,
0010
0000
1000
0000
0100
0000
1000
0010
0000
0001
0100
1000
0100
0000
0001
0000
,
0100
0000
0001
0010
0000
0001
0100
0000
0010
1000
0100
0000
0001
0000
0100
0000
,
1000
0000
0010
0001
0000
0010
1000
0000
0100
0001
0100
0000
1000
0000
0010
0000
,
0100
0000
0001
0000
0010
0000
1000
0010
0001
0000
0100
1000
0100
0000
0001
0010
,
0100
1000
0000
0000
0000
0000
0000
0000
;
