#TITLE:HOTTEST PARTY 3;
#ARTIST:Various Artists;
#BANNER:HOTTEST PARTY 3.png;
#BACKGROUND:HOTTEST PARTY 3-bg.png;
#MUSIC:HOTTEST PARTY 3.ogg;
#SAMPLESTART:40.255;
#SAMPLELENGTH:15;
#BPMS:0=155,172=130,204=125,268=105,323=150,407=160,471=170,551=95,558.5=190;
#STOPS:558.5=0.316;

//---------------dance-single - ----------------
#NOTES:
     dance-single:
     :
     Beginner:
     4:
     :
0000
0000
0000
0000
,
0000
0000
0000
0000
,
0000
0000
0000
0000
,
0000
0000
0000
0000
,
0000
0000
0000
0000
,
0000
0000
0000
0000
,
0000
0000
0000
0000
,
0000
0000
0000
0000
,
0000
0000
0000
0000
,
0000
0000
0000
0000
,
1000
0000
0001
0000
,
1000
0000
0000
0000
,
0010
0000
0000
0000
,
0100
0000
0000
0000
,
0001
0000
0000
0000
,
1000
0000
0000
0000
,
0001
0000
0000
0000
,
0010
0000
0000
0000
,
0010
0000
0000
0000
,
1000
0000
0000
0000
,
1000
1000
1000
0000
,
0001
0000
0000
0000
,
0001
0001
0001
0000
,
1000
0000
0000
0000
,
0001
0000
0000
0000
,
0010
0000
0010
0000
,
0000
0000
0000
0000
,
0001
0000
0000
0000
,
0001
0001
0001
0000
,
1000
0000
0000
0000
,
1000
1000
1000
0000
,
0001
0000
0000
0000
,
1000
0000
0000
0000
,
0010
0000
0000
0000
,
0010
0000
0000
0000
,
0001
0000
0000
0000
,
0001
0000
0000
0000
,
0010
0000
0000
0000
,
0001
0000
0000
0000
,
1000
0000
0000
0000
,
0010
0000
0000
0000
,
1000
0000
0000
0000
,
0010
0000
0000
0000
,
1000
0000
0000
0000
,
1000
0000
0001
0000
,
1000
0000
0000
0000
,
1000
0000
0001
0000
,
0001
0000
0000
0000
,
0001
0000
1000
0000
,
0001
0000
0000
0000
,
0001
0000
1000
0000
,
0100
0000
0000
0000
,
0000
0000
0000
0000
,
0100
0000
0000
0000
,
0001
0000
0000
0000
,
0100
0000
0000
0000
,
0000
0000
0000
0000
,
0100
0000
0000
0000
,
1000
0000
0000
0000
,
0001
0000
0001
0000
,
1000
0000
0000
0000
,
1000
0000
1000
0000
,
0001
0000
0000
0000
,
0001
0000
0001
0000
,
1000
1000
1000
0000
,
1000
0000
1000
0000
,
0001
0001
0001
0000
,
0010
0000
0000
0000
,
0000
0000
0000
0000
,
1000
0000
0000
0001
,
0001
0001
0000
0000
,
1000
0000
0000
0001
,
0001
0001
0000
0000
,
0001
0001
0000
0000
,
1000
1000
1000
0000
,
0001
0001
0000
0000
,
1000
1000
1000
0000
,
0001
0000
0000
0000
,
0001
0000
0000
0000
,
1000
0000
0000
0000
,
1000
0000
0000
1001
,
0000
0000
0000
1001
,
0000
0000
0000
1001
,
0000
0000
0000
0000
,
0000
0000
0000
1000
,
0000
0000
0000
0010
,
0000
0000
0000
0001
,
0000
0000
0000
0010
,
0000
0000
0000
0001
,
0000
0000
0000
1000
,
0000
0000
0000
0010
,
0000
0000
0000
1001
,
0000
0000
0000
1001
,
0000
0000
0000
1000
,
0000
0000
0000
0001
,
0001
0000
0000
0001
,
0001
0000
0000
1000
,
0000
0000
0000
0010
,
0000
0000
0000
1000
,
0000
1000
0000
1000
,
0000
0000
0000
1000
,
0000
0001
0000
1001
,
0000
0000
0000
1000
,
0000
0000
0000
0010
,
0000
0000
0000
0001
,
0000
0000
0000
0100
,
0000
0000
0000
0000
,
1000
0000
1000
0000
,
1000
0000
1000
0000
,
0001
0000
1000
1000
,
0000
0000
0000
0000
,
0001
0000
0001
0000
,
0001
0000
0001
0000
,
0001
0000
0000
1001
,
0000
0000
0000
0010
,
0000
0000
0000
0100
,
0000
0000
0000
1000
,
0000
0001
0000
0000
,
0000
0000
0000
1000
,
0000
0000
0000
1000
,
0000
0000
0000
0001
,
0000
0000
0000
0001
,
0000
0000
0000
1000
,
0000
1000
0000
0001
,
0000
0001
0000
1000
,
0000
0000
0000
0010
,
0000
0000
0000
0001
,
0000
0000
0000
0010
,
0000
0000
0000
1000
,
0000
0000
0000
0100
,
0000
0000
0000
0001
,
0001
0000
0000
1000
,
1000
0000
0000
0010
,
0000
0000
0000
0100
,
0000
0000
0000
1000
,
0000
0000
0000
0010
,
0000
0000
0000
0001
,
0000
0000
0000
0000
,
0000
0000
0000
0010
,
0010
0000
0010
0010
0010
0000
0000
0010
,
0000
0010
0000
0100
0000
0000
0000
0100
,
0000
0100
0000
0010
0000
0010
0000
0000
,
0000
0100
0000
0000
0000
0000
0000
0000
,
0000
0110
0000
0000
0000
0000
0000
0010
,
0000
0100
0000
0010
0000
0000
0000
0100
,
0000
0010
0000
0100
0000
0200
0000
0000
,
0000
0300
0000
0000
0000
0020
0000
0000
,
0000
0030
0000
0000
0000
0000
0000
0010
,
0000
0010
0000
0010
0000
0000
0000
0001
,
0000
0001
0000
0001
0000
0000
0000
0100
,
0000
0100
0000
0100
0000
0000
0000
1000
,
0000
1000
0000
1000
0000
0000
0000
0000
,
0000
0002
0000
0000
0000
2000
0000
0000
,
0000
3003
0000
0000
0000
2002
0000
0000
,
0000
0000
0000
0000
,
0000
0000
0000
3003
0000
0000
0000
0001
,
0000
0000
0000
0001
0000
0000
0000
1000
,
0000
0000
0000
1000
0000
0000
0000
0001
,
0000
0000
0000
1000
0000
0000
0000
0001
,
0000
0000
0000
1000
0000
0000
0000
0010
,
0000
0000
0000
0010
0000
0000
0000
0100
,
0000
0000
0000
0100
0000
0100
0000
0000
,
0000
0100
0000
0000
0000
0010
0000
0100
,
0000
0010
0000
0000
0000
0000
0000
0000
;

//---------------dance-single - ----------------
#NOTES:
     dance-single:
     :
     Easy:
     7:
     :
0000
0000
0000
0000
,
0000
0000
0000
0000
,
0000
0000
0000
0000
,
0000
0000
0000
0000
,
0000
0000
0000
0000
,
0000
0000
0000
0000
,
0000
0000
0000
0000
,
0000
0000
0000
0000
,
0000
0000
0000
0000
,
0000
0000
0000
0000
,
1000
0000
0001
0000
,
2000
0000
3001
0000
,
0020
0030
0010
0000
,
0200
0000
0310
0000
,
0002
0003
0020
0030
,
2000
3000
0001
0001
,
2000
3000
0100
0100
,
0002
0003
0100
0100
,
0010
0010
0010
0000
,
1000
0100
1000
0000
,
0001
0000
1000
0000
,
0010
0000
0010
0000
,
1000
1000
0001
0001
,
2000
3000
0002
0003
,
1000
0000
0001
0000
,
1000
0001
1000
0000
,
0000
0000
0000
0000
,
0001
0100
0001
0000
,
1000
0000
0001
0000
,
0010
0000
0010
0000
,
0001
0001
1000
1000
,
0002
0003
1000
1000
,
0002
0003
0100
0100
,
2000
3000
0100
0100
,
0010
0010
0010
0000
,
0001
0000
0001
0000
,
0001
0100
1000
0000
,
0001
0100
1000
0000
,
0001
0100
1000
0000
,
1000
0000
1000
0001
,
1000
0000
1000
0001
,
1000
0010
0100
0010
,
1000
0001
1000
0000
,
0001
1000
1000
0001
,
1000
0000
0000
0000
,
0001
1000
1000
0001
,
0000
0000
0010
0000
,
1000
0001
0001
1000
,
0001
0000
0000
0000
,
1000
0001
0001
1000
,
0000
0000
0010
0000
,
0002
0000
1000
0000
,
1000
0000
1003
0000
,
2000
0000
0001
0000
,
0001
0000
3001
0000
,
0002
0000
1000
0000
,
1000
0000
1003
0000
,
2000
0000
0001
0000
,
0001
0000
3001
0000
,
0002
0000
0103
0000
,
1000
1000
0100
0100
,
0002
0000
0103
0000
,
1000
1000
0100
0100
,
2000
0000
3100
0000
,
0001
0001
0100
0000
,
2000
0000
3100
0000
,
0001
0001
0100
0100
,
0200
0000
0000
0000
,
0000
0000
0000
0300
,
0010
1000
0000
0010
,
0000
0010
0000
0001
,
0010
0001
0000
0010
,
0000
0010
0000
1000
,
0001
0000
1000
0000
,
1000
0000
0001
0000
,
1000
0000
0001
0000
,
0001
0000
1000
0000
,
0001
0100
1000
0000
,
0001
0010
1000
0000
,
1000
0100
0001
0000
,
1000
0010
1000
0100
,
0100
0010
0010
0100
,
0100
0010
0010
0100
,
0100
0010
0010
0010
,
0000
0000
0000
1000
,
0000
0010
0000
0010
,
0000
1000
0000
0001
,
0001
0010
0000
0100
,
0000
0000
0000
1000
,
0000
0010
0000
0010
,
0000
1000
0000
0001
,
0001
0010
0000
1001
,
0000
0110
0000
1001
,
0000
0000
0000
1000
,
0001
1000
0000
0001
,
0000
0100
0001
0001
,
0000
0001
0000
0000
,
1000
0001
0000
0010
,
0000
0100
0000
1000
,
0100
1000
0100
1000
,
0000
0010
0000
1000
,
1000
0001
0001
1001
,
0000
0000
0000
0002
,
0000
0003
0000
2000
,
0000
3000
0000
0002
,
0000
2003
0000
3002
,
0000
1003
1000
0001
,
0010
0001
0000
0001
,
1000
0001
0000
0001
,
1000
0001
1000
0100
,
0000
0010
0010
1000
,
0001
1000
0000
0100
,
0010
0100
0000
0200
,
0000
0000
0300
0001
,
0000
0100
0100
1000
,
0000
0001
0001
0100
,
0000
0001
0000
1000
,
0000
0100
0000
2000
,
0000
3000
0000
2000
,
3000
0020
0030
2000
,
3000
0002
0003
0020
,
0030
0002
0003
2000
,
0000
3000
0000
0001
,
0010
0001
0000
1000
,
0100
1000
0000
0002
,
0003
2000
3000
0020
,
0000
0030
0000
1000
,
1000
0010
0000
0001
,
0001
0100
0000
0010
,
0000
0100
0000
1001
,
0000
0000
0000
0010
,
0000
1000
1000
1000
,
0000
0001
0001
0001
,
0000
0010
0000
0200
,
0000
0300
0000
0001
,
0001
0010
0000
1000
,
1000
0100
0000
0010
,
0000
0000
0000
0001
,
0000
1000
0000
0010
,
0010
0000
0001
1000
0001
1000
0000
0001
,
0000
0100
0000
2000
0000
0010
0000
0100
,
0000
0010
0000
3100
0000
0010
0000
0010
,
0000
0100
0000
0000
0000
0110
0000
0000
,
0000
1001
0000
0000
0000
0002
0000
0010
,
0000
2003
0000
0010
0000
3001
0000
0010
,
0000
0100
0000
1000
0000
1000
0000
0010
,
0000
0100
0000
0001
0000
0000
0000
1000
,
0000
0100
0000
2000
0000
0000
0000
3001
,
0000
0100
0000
0002
0000
0000
0000
1003
,
0000
0010
0000
2000
0000
0000
0000
3001
,
0000
0010
0000
0001
0000
0100
0000
0000
,
0000
0010
0000
0100
0000
0110
0000
0000
,
0000
1000
0000
0001
0000
1001
0000
0000
,
0000
0110
0000
0000
0000
1001
0000
0110
,
0000
1001
0000
0110
0000
1000
0000
0100
,
0000
1000
0000
0100
0000
0001
0000
0010
,
0000
1000
0000
0100
0000
0010
0000
0100
,
0000
0010
0000
0100
0000
0001
0000
1000
,
0000
1001
0000
0000
0000
0001
0000
0100
,
0000
0001
0000
0100
0000
1000
0000
0010
,
0000
0001
0000
0100
0000
1001
0000
0000
,
0000
0110
0000
0000
0000
1001
0000
0110
,
0000
1001
0000
0000
0000
0000
0000
0000
;

//---------------dance-single - ----------------
#NOTES:
     dance-single:
     :
     Medium:
     11:
     :
0000
0000
0000
0000
,
0000
0000
0000
0000
,
0000
0000
0000
0000
,
0000
0000
0000
0000
,
0000
0000
0000
0000
,
0000
0000
0000
0000
,
0000
0000
0000
0000
,
0000
0000
0000
0000
,
0000
0000
0000
0000
,
0000
0000
0000
0000
,
0001
0001
1000
1000
,
0002
1000
1003
0000
,
0200
1300
0010
0100
,
0020
0100
0130
0000
,
2000
3010
0200
0301
,
0002
0000
0000
1000
2003
0000
0000
0100
,
3200
0000
0000
0010
0320
0000
0000
0001
,
0032
0000
0000
1000
2003
0000
0000
0000
,
3001
1000
0100
0010
,
0001
0010
0001
0000
,
1000
0010
1000
0000
0001
0000
0000
0000
,
0100
0000
0100
0000
,
0001
0000
0100
0000
0010
0000
1000
0001
,
0002
0000
0000
1000
2003
0000
0000
0000
,
3001
0010
0100
1000
,
0001
1000
0001
1000
0000
0000
0000
0000
,
0200
0320
2030
3002
,
1003
0010
1000
0000
,
0001
0010
0001
0000
1000
0000
0000
0000
,
0100
0000
0100
0000
,
1000
0000
0100
0000
0010
0000
0001
1000
,
2000
0000
0000
0001
3002
0000
0000
0100
,
0203
0000
0000
0010
0320
0000
0000
1000
,
2030
0000
0000
0001
3002
0000
0000
0000
,
1003
0010
0100
0001
,
1000
0100
1000
1000
,
1000
0000
0010
0000
0000
0001
0001
0000
,
1000
0000
0010
0000
0000
0001
0001
0000
,
1000
0000
0010
0000
0000
0001
0001
0000
,
0001
0010
0001
1000
,
0001
0010
0001
1000
,
0001
0000
0100
0010
0100
0000
1000
0000
,
0001
0000
1000
0000
0001
1000
1001
0000
,
0001
0102
1000
1003
,
0010
2000
0100
3100
,
1000
0100
0001
0100
,
2000
3020
0230
0301
,
1000
2100
0001
3001
,
0010
0002
0100
0103
,
0001
0100
1000
0100
,
0002
0023
0230
1300
,
0002
0000
0203
0000
,
0310
1000
0001
0001
,
2000
0000
3200
0000
,
0310
0001
1000
1000
,
0002
0000
0203
0000
,
0310
1000
0001
0001
,
2000
0000
3200
0000
,
0310
0001
1000
1000
,
0002
0010
1003
1100
,
0001
0000
1000
0000
0010
0010
0100
0000
,
0002
0010
1003
1100
,
0001
0000
1000
0000
0010
0010
0100
0010
,
2000
0010
3001
0101
,
1000
0000
0001
0000
0010
0010
0100
0000
,
2000
0010
3001
0101
,
1000
0000
0001
0000
0010
0010
0100
0010
,
0002
0000
0000
0000
,
0000
0000
0000
0003
,
0010
1000
0001
0010
,
1000
0001
0010
0000
1000
0000
0001
0000
,
0010
0001
1000
0010
,
0001
1000
0010
0000
0001
0000
1000
0000
,
0001
0000
1000
0000
1000
1000
0100
0000
,
1000
0000
0100
0100
0001
0000
0100
0000
,
1000
0000
0001
0000
0001
0001
0100
0000
,
0001
0000
0100
0100
1000
0000
0100
0000
,
0001
1000
0100
0000
1000
0100
0010
0000
,
0001
0100
0010
0000
1000
0100
0010
0000
,
1000
0001
0100
0000
0001
0100
0010
0000
,
1000
0000
0010
0000
0010
0000
1000
0000
1000
0000
0100
0000
0100
0000
0000
0100
,
0000
0000
0001
0000
0000
0100
0000
0000
1000
0000
0001
0000
0100
0000
0000
0100
,
0000
0000
1000
0000
0000
0100
0000
0000
0001
0000
1000
0000
0100
0000
0000
0100
,
0000
0000
0001
0000
0000
0100
0000
0000
1000
0000
0001
0000
0010
0000
0000
0000
,
0000
0000
0000
1000
,
0000
0010
0001
0100
,
0001
0000
1000
0001
1000
0000
0010
0000
,
1000
0001
0100
0001
,
0100
1000
0100
0001
,
0100
0010
1000
0100
,
1000
0000
0001
1000
0001
0000
0010
0000
,
0001
1000
0100
0100
,
0010
0000
0001
0001
1000
1000
1001
0000
,
0010
1001
0000
0100
,
0100
0010
0010
0001
,
1000
0001
0100
0010
,
1000
0000
0100
0100
0100
0000
0000
0000
,
0110
1001
0000
0100
,
0010
0010
0100
1000
,
0100
0001
0010
1001
,
0110
0000
0000
0000
1001
0000
0000
0000
0000
0000
0000
0000
0010
0000
0000
0010
,
0000
0000
0100
0000
0000
0100
0000
0000
0001
0000
1000
0000
0010
0000
0000
0000
,
0000
0000
0000
0002
,
0000
2003
0000
3100
,
0000
0020
0000
0032
,
0000
0203
0000
0302
,
0000
1003
1000
0001
,
0100
0001
0010
0100
,
1000
0000
0010
0000
0100
0000
0001
0100
,
0001
0000
0001
0010
0001
1000
0100
0000
,
0000
0100
0100
1000
,
0001
0000
0100
0000
0010
0000
0100
0001
,
0010
0100
1000
0000
0010
0000
0200
0000
,
0001
0000
0301
0001
,
1000
1001
0000
1000
,
1000
0001
0001
0100
,
0010
1000
0001
0100
,
0000
0002
2000
0000
0000
0000
0000
0000
,
0000
0000
3003
2000
,
3010
0200
0301
0020
,
0031
2000
3010
0200
,
0301
0002
0103
0010
,
1000
0100
0000
0001
,
0100
0000
0010
1000
0010
0000
0100
0000
,
0010
0000
1000
0100
1000
0000
0020
0000
,
0000
0230
0000
0302
,
0000
1000
1003
0010
,
2001
0100
3001
0010
,
0102
0010
0103
2000
,
3010
0002
0103
0001
,
0101
1000
1100
1002
,
0000
0000
1003
0001
1000
0000
0210
0000
,
0000
0000
0310
0100
0010
0000
2000
0000
,
0100
3002
0010
0203
,
0000
0020
0330
0010
,
1002
0100
0103
0010
,
2100
0010
3010
0001
,
0000
0000
0000
1000
,
0000
0001
0000
0010
,
0010
0000
1000
0001
1000
0001
0000
0010
,
0001
0100
0001
0020
0000
0100
0000
1000
,
0000
0001
0000
1030
0000
0001
0100
1000
,
0000
0001
0100
1000
0000
0001
0001
1000
,
1000
1001
0000
0000
0000
0001
0010
0001
,
0000
0001
0100
0001
0000
1000
0100
1000
,
0000
1000
0010
1000
0000
1000
0010
0001
,
1000
0100
0001
1000
0010
0001
1000
0100
,
0001
0010
0100
1000
0001
0000
1000
0200
,
1000
1300
0100
1000
0200
0000
1300
0020
,
1000
1030
0010
1000
0020
0000
0130
0002
,
0100
0103
0001
0100
0002
0000
1003
0010
,
0001
0001
0010
1000
0000
0100
0000
1000
,
0010
0001
0100
1000
0000
0110
0000
0000
,
0000
1000
0000
0001
0000
1001
0000
0000
,
0000
0110
0000
0000
0000
0011
0000
1010
,
0000
1100
0000
0101
0000
0001
0000
0100
,
0000
0010
0100
0001
0000
1020
0000
0100
,
0000
0001
0000
1030
0000
0001
0010
0001
,
0000
1000
0010
1000
0000
0001
0100
0001
,
0000
0110
0000
0110
0000
1000
0000
0100
,
0000
0010
0100
1000
0000
0021
0000
0100
,
0000
1000
0000
0031
0000
1000
0010
1000
,
0000
0001
0010
0001
0000
0011
0000
1100
,
0000
0101
0000
0000
0000
0000
0000
0000
;

//---------------dance-single - ----------------
#NOTES:
     dance-single:
     :
     Hard:
     15:
     :
0000
0000
0000
0000
,
0000
0000
0000
0000
,
0000
0000
0000
0000
,
0000
0000
0000
0000
,
0000
0000
0000
0000
,
0000
0000
0000
0000
,
0000
0000
0000
0000
,
0000
0000
0000
0000
,
0000
0000
0000
0000
,
0000
0000
0000
0000
,
2000
3200
2300
3002
,
2003
0000
0000
0001
3001
0000
0000
0000
,
0020
0000
0031
0010
0100
1000
0010
0000
,
0200
0000
0000
0010
0310
0000
0110
0000
,
0002
0103
0020
1030
,
2000
0000
0000
0100
3200
0000
0000
0001
,
0302
0000
0000
0100
0203
0000
0000
1000
,
2300
0000
0000
0001
3002
0000
0000
0000
,
2003
3002
0023
0230
,
1300
0100
0000
0010
0000
0001
1000
0000
,
0001
0100
0001
0100
0000
1000
0000
0100
,
0010
0000
0000
0001
0010
0000
0000
0100
,
1000
0000
0010
0000
0100
0000
0001
1000
,
2000
0000
0000
0100
3200
0000
0000
0001
,
0302
0203
0320
0032
,
1003
0001
1000
0001
0000
0000
0000
0000
,
0020
0230
0302
2003
,
3001
0100
0000
0010
0000
1000
0001
0000
,
1000
0100
1000
0100
0000
0001
0000
0100
,
0010
0000
0000
1000
0010
0000
0000
0100
,
0001
0000
0010
0000
0100
0000
1000
0001
,
0002
0000
0000
0100
0203
0000
0000
1000
,
2300
0000
0000
0100
3200
0000
0000
0001
,
0302
0000
0000
1000
2003
0000
0000
0000
,
3002
0203
0320
2030
,
3001
0000
0010
0000
0001
0100
0001
0000
,
0001
0000
0001
0100
1000
0000
1000
0000
,
0001
0000
0001
0100
1000
0000
1000
0000
,
0001
0000
0001
0100
1000
0000
1000
0000
,
1000
0000
0100
0000
1000
0010
1000
0000
,
1000
0000
0100
0000
1000
0010
1000
0000
,
1000
0000
0010
0100
0010
0000
1000
0010
,
1000
0000
0001
0100
0100
0000
0110
0000
,
0100
0010
0001
0020
1000
0000
1000
0030
,
1000
0010
0002
0000
0100
0000
0103
0000
,
1000
0010
0100
0000
0001
0010
0100
0010
,
0001
1000
0100
0000
0010
0000
1100
0000
,
0100
0010
1000
0020
0001
0000
0001
0030
,
0001
0010
2000
0000
0100
0000
3100
0000
,
0001
0010
0100
0000
1000
0010
0100
0010
,
1000
0001
0100
0000
0010
0000
0101
0000
,
2000
0000
0000
0100
0000
0000
3200
0000
0000
0000
0000
0000
0310
0000
0000
0000
,
0002
0013
2000
3100
,
0002
0000
0000
0100
0000
0000
0203
0000
0000
0000
0000
0000
0310
0000
0000
0000
,
2000
3010
0002
0103
,
0002
0000
0000
0010
0000
0000
0023
0000
0000
0000
0000
0000
0130
0000
0000
0000
,
2000
3100
0002
0013
,
2000
0000
0000
0010
0000
0000
3020
0000
0000
0000
0000
0000
0130
0000
0000
0000
,
0002
0103
2000
3010
,
1000
0000
0000
1000
0000
0000
2000
0000
0000
0000
0010
0000
3000
0000
0100
0000
,
0001
0010
0100
1000
0010
0010
0100
0010
,
1000
0000
0000
1000
0000
0000
2000
0000
0000
0000
0010
0000
3000
0000
0100
0000
,
0001
0010
0100
1000
0010
1000
0100
0010
,
0001
0000
0000
0001
0000
0000
0002
0000
0000
0000
0010
0000
0003
0000
0100
0000
,
1000
0010
0100
0001
0010
0010
0100
0010
,
0001
0000
0000
0001
0000
0000
0002
0000
0000
0000
0010
0000
0003
0000
0100
0000
,
1000
0010
0100
0001
0010
0001
0100
0010
,
2000
0000
0000
0000
,
0000
0000
0000
3000
,
0010
0100
0000
0100
0001
0000
0000
0000
1000
0100
0000
0100
0010
0000
0000
0000
,
0001
0000
1000
0000
0010
0000
0100
0000
0001
0100
0000
0001
1000
0000
0000
0000
,
0010
0100
0000
0100
1000
0000
0000
0000
0001
0100
0000
0100
0010
0000
0000
0000
,
1000
0000
0001
0000
0010
0000
0100
0000
1000
0100
0000
1000
0001
0000
0000
0000
,
1000
0010
0000
0010
0001
0000
0000
0000
0001
1000
0001
0000
0100
0000
0000
0000
,
0001
0000
0001
0000
0100
0010
0100
0000
1000
0100
0000
0001
0100
0000
0000
0000
,
0001
0010
0000
0010
1000
0000
0000
0000
1000
0001
1000
0000
0100
0000
0000
0000
,
1000
0000
1000
0000
0100
0010
0100
0000
0001
0100
0000
1000
0100
0000
0000
0000
,
1000
0000
0001
0000
0100
0000
0001
0010
0001
0000
0100
0000
0010
0000
1000
0010
,
1000
0000
0100
0000
0010
0000
0001
0010
0001
0000
0100
0000
0010
0000
1000
0000
,
0001
0000
1000
0000
0100
0000
1000
0010
1000
0000
0100
0000
0010
0000
0001
0010
,
0001
0000
0010
1000
0010
0000
0001
0010
0001
1000
0100
0010
0100
0000
0000
1100
,
0000
0000
0001
0000
0000
0011
0000
0000
0100
0000
0010
0000
0100
0000
0000
0101
,
0000
0000
1000
0000
0000
1010
0000
0000
0100
0000
0010
0000
0100
0000
0000
1100
,
0000
0000
0001
0000
0000
0011
0000
0000
0100
0000
0010
0000
0010
0000
0000
0000
,
0000
0000
0000
0100
,
0010
0000
0000
0000
1000
0000
0000
0010
0100
0000
0010
0000
1000
0000
0000
0000
,
0100
0000
0010
0000
0000
0010
0100
0000
0001
0000
0100
0000
0010
0000
0000
0000
,
0001
0000
0100
0010
1000
0010
0100
0000
,
0001
0010
0000
0010
0000
0100
0000
0100
1000
0000
0010
0000
0100
0000
0000
0000
,
0010
0000
0000
0000
0001
0000
0000
0010
0100
0000
0010
0000
0001
0000
0000
0000
,
0100
0000
0010
0000
0000
0010
0100
0000
1000
0000
0100
0000
0010
0000
0000
0000
,
1000
0000
0100
0010
0001
0010
0100
0000
,
0110
0000
1000
1000
1000
1000
1001
0000
,
0010
0000
0011
0000
0100
0000
0010
0001
,
0000
0000
0100
0000
0010
0000
1000
0000
0100
0000
0000
0100
0010
0000
0000
0000
,
0001
0000
0000
0000
0010
0000
0000
0000
1000
0000
0000
0001
0100
0000
0010
0000
,
1000
0001
0010
0010
0100
0000
1001
0000
,
0010
0000
1010
0000
0100
0001
0010
1000
,
0000
0010
0100
0000
0010
0000
0001
0000
0100
0000
0000
0100
1000
0000
0001
0000
,
0101
0000
0010
1000
1100
0000
1001
0000
,
0110
0000
0000
0000
1001
0000
0000
0000
0000
0000
0000
0000
1000
0000
0000
1100
,
0000
0000
0001
0000
0000
0011
0000
0000
0100
0000
0010
0000
0110
0000
0000
0000
,
0000
0000
0000
0002
,
0000
0200
0003
1300
,
0100
0002
0000
2003
,
3100
0002
1000
0023
,
0000
0000
0130
0000
0100
0000
1000
0100
,
0001
0000
0000
0000
0001
0000
0100
0000
1000
0000
0010
0000
0100
0001
0000
0000
,
0001
0010
0000
0000
0010
0100
0000
0000
0100
1000
0000
0000
1000
0000
0100
0000
,
1000
0000
0000
0000
0001
0000
0100
0000
0001
0000
1000
0000
0100
1000
0000
0000
,
0000
0000
0100
0000
0100
0000
1000
0100
,
0010
0000
0010
0001
0100
0000
0100
0001
,
0100
0010
1000
0100
0001
0000
0200
0000
,
1000
0010
1300
0001
,
1000
0000
0000
0000
0100
0000
0010
0001
0010
0000
0000
0000
1000
0000
0010
0000
,
1000
0000
0000
0000
0001
0000
0010
0000
0001
0000
0000
0000
0100
0010
0000
0000
,
0010
1000
0000
0000
1000
0001
0000
0000
0001
0010
0000
0000
0100
0000
0000
0000
,
0000
0002
2000
0000
0000
0000
0000
0000
,
0000
0000
0000
0000
3003
0000
1000
0100
,
0010
0001
0100
1000
0200
0000
0301
0010
,
0001
0100
0010
1000
0200
0000
0310
0001
,
1000
0100
1000
0010
0200
0000
0301
0010
,
1000
0000
0001
0100
1000
0000
0001
0100
,
0010
0100
0001
0010
1000
0010
0100
1000
,
0010
0100
0001
1000
0010
0100
0020
0000
,
0100
0000
0130
0001
0010
0000
0200
0000
,
0000
1000
1300
0010
,
2100
0000
3001
0100
1000
0100
0001
0000
,
1020
0000
0130
0001
0100
1000
0100
0000
,
0011
0000
1000
0010
0100
0000
0021
0000
,
0130
1020
0130
1001
,
0010
0100
1000
0010
0100
0000
0011
0000
,
0100
1000
0010
0100
0001
0000
0010
0100
,
0002
0000
0103
1000
0020
0000
0230
0000
,
0302
2000
3003
1000
,
0102
0000
1003
0100
0001
0100
1000
0000
,
0021
0000
0130
1000
0100
0010
0100
0000
,
0000
0000
0000
0001
,
0000
1000
0000
0100
,
0100
0000
0000
0000
0001
0000
1000
0000
0001
0000
1000
0000
0010
1000
0020
0000
,
0130
0001
0200
0000
0301
0010
0002
0000
1003
0010
1000
0000
2000
0000
3002
0000
,
1000
0000
1000
0000
1003
0000
0001
0000
0000
0000
1000
0000
0010
0100
0010
0000
,
1000
0000
0100
0000
0010
0100
0010
0000
0001
0000
0100
0000
0010
0100
0010
0000
,
1000
0000
0100
1000
0100
1000
0001
0100
0001
0100
0010
0000
1000
0000
0010
0000
,
1000
0001
0010
0001
0010
0100
0010
0100
,
0010
0000
0001
0000
1000
0000
0001
0000
1000
0000
0001
0000
0100
0010
0100
0000
,
0001
0000
1000
0000
0100
0010
0100
0000
1000
0000
0001
0000
0100
0010
0100
0000
,
1000
0000
0001
0000
0010
0000
1000
0000
0001
0000
0000
0000
0001
0010
0100
0000
,
0010
0001
0100
0000
0010
0000
0100
0000
0002
0000
0000
0000
1003
0010
0100
0000
,
0010
1000
0100
0000
0010
0000
0100
0000
2000
0000
0000
0000
3010
1000
0001
0000
,
0010
0001
1000
0000
1000
0000
0010
0000
2000
0000
0000
0000
3001
0000
0100
0000
,
1000
0000
1000
0000
0100
0001
0100
0000
0001
0010
0100
0000
0100
0000
0001
0000
,
0100
1000
0010
1001
0000
0110
0000
0000
,
0000
0000
1001
0000
1001
0000
1001
0000
0000
0000
0011
0000
0100
1000
0100
0000
,
0000
0000
1010
0000
0100
0001
0100
0000
0000
0000
1010
0000
1000
0000
1001
0000
,
1000
0011
0001
1001
0000
1000
0001
0010
,
1000
0100
0010
1000
1020
0000
0031
1000
,
0100
0001
1000
0010
0000
0011
0100
1000
,
0000
1010
0100
0001
0000
1001
0001
1000
,
0001
0110
0000
0110
0000
0001
1000
0010
,
0001
0100
0010
0001
0021
0000
1030
0001
,
0100
0000
1000
0000
0001
0000
0010
0000
0000
0000
1010
0000
0100
0001
0100
0000
,
0000
0000
0011
0000
0100
1000
0100
0000
0000
0000
1010
0000
0000
0000
0101
0000
,
0000
2002
0000
0000
0000
0000
0000
0000
,
0000
3003
0000
0000
0000
0000
0000
0000
;
