#TITLE:crushcrushcrush;
#SUBTITLE:;
#ARTIST:Paramore;
#TITLETRANSLIT:;
#SUBTITLETRANSLIT:;
#ARTISTTRANSLIT:;
#CREDIT:;
#BANNER:crushcrushcrush.png;
#BACKGROUND:crushcrushcrush-bg.png;
#LYRICSPATH:;
#CDTITLE:./CDTITLES/DanceDanceRevolution 2010.png;
#MUSIC:CrushCrushCrush.mp3;
#OFFSET:0.827;
#SAMPLESTART:39.443;
#SAMPLELENGTH:15.000;
#SELECTABLE:YES;
#BPMS:0.000=137.000;
#STOPS:;
#BGCHANGES:;

//---------------dance-single - ----------------
#NOTES:
     dance-single:
     :
     Medium:
     6:
     0.350,0.396,0.110,0.161,0.000:
0000
0000
0000
0000
,
0000
0000
0000
0000
,
0000
0000
0000
0000
,
0000
0000
0000
0000
,
0000
0000
0000
0000
,
0001
1000
0100
1000
,
0010
0100
0001
0100
,
0001
1000
0100
0010
,
0001
0000
0000
0000
0100
0010
0100
0000
,
0110
0000
1000
0100
,
1100
0000
0010
0001
,
0100
0010
0100
0000
0100
0010
0100
0000
,
0010
0001
0010
0000
0001
0000
0000
0000
,
0110
0000
0001
0100
,
0101
0000
0010
1000
,
0100
0010
0100
0000
0100
0010
0100
0000
,
0010
1000
0010
0000
1000
0000
0000
0000
,
0100
0100
0010
0000
,
1000
0001
1000
0001
1000
0000
0000
0000
,
2001
0000
0100
0000
,
0200
0000
0000
3300
,
1002
0000
0100
0000
,
2000
0000
0000
3003
,
0020
0000
0030
0000
1000
0100
0010
0000
,
0001
0100
0001
0100
,
0020
0000
0030
0000
0001
0100
0010
0000
,
1000
0100
1000
0100
,
0020
0000
0030
0000
0001
0100
0010
0000
,
1000
0000
0010
0000
1000
0001
1000
0000
,
0100
0010
0100
0010
0100
0010
0100
0000
,
1000
0001
1000
0001
1000
0000
1100
0000
,
0001
0000
0000
0100
0000
0000
1000
0000
,
0000
0000
0100
0100
,
0010
0000
0000
1000
0000
0000
0001
0000
,
0000
0000
1000
0001
,
0001
0000
0000
0100
0000
0000
0010
0000
,
1000
0100
0010
0001
,
0100
0000
0000
0010
0000
1000
1000
0000
,
0001
0100
1000
0100
,
0001
0000
0000
0010
0000
0100
0100
0000
,
1000
0010
0001
0010
,
0100
0000
0000
0010
0000
0001
0001
0000
,
1000
0100
0001
0100
,
0010
0000
0000
0001
0000
1000
1000
0000
,
0010
0000
0100
0000
0010
0100
0010
0000
,
1000
0100
1000
1100
,
0010
0001
0010
0011
,
0100
0010
1000
1010
,
0001
0000
1000
0000
0001
1000
1001
0000
,
0020
0000
0030
0000
0001
0100
0010
0000
,
0001
0000
0010
0000
0001
1000
0001
0000
,
0100
0010
0100
0010
0100
0010
0100
0000
,
0001
1000
0001
1000
0001
0000
0101
0000
,
0020
0000
0030
0000
1000
0100
0010
0000
,
0001
0100
0001
0100
,
0020
0000
0030
0000
0001
0100
0010
0000
,
1000
0100
1000
0100
,
0020
0000
0030
0000
0001
0100
0010
0000
,
1000
0000
0010
0000
1000
0001
1000
0000
,
0100
0010
0100
0010
0100
0010
0100
0000
,
1000
0001
1000
0001
1000
0001
1000
0000
,
0020
0000
0030
1000
0020
0000
0030
0100
,
0020
0000
0030
0001
0020
0000
1030
0100
,
0020
0000
0030
0100
0020
0000
0030
0001
,
0020
0000
0030
0100
0020
0000
0130
0000
,
1000
0100
1000
0000
0001
0010
0001
0000
,
0100
0001
0100
0000
0010
1000
0010
0000
,
1001
0000
0000
0000
;

//---------------dance-single - ----------------
#NOTES:
     dance-single:
     :
     Easy:
     4:
     0.196,0.255,0.093,0.161,0.000: // measure 1
0000
0000
0000
0000
,  // measure 2
0000
0000
0000
0000
,  // measure 3
0000
0000
0000
0000
,  // measure 4
0000
0000
0000
0000
,  // measure 5
0000
0000
0000
0000
,  // measure 6
1000
0000
0001
0000
,  // measure 7
0100
0000
0010
0000
,  // measure 8
1000
0000
0100
0000
,  // measure 9
0001
0000
0000
0000
,  // measure 10
1001
0000
0000
0000
,  // measure 11
0001
0010
0001
0000
,  // measure 12
1000
1000
0100
0000
,  // measure 13
0010
0000
0000
0000
,  // measure 14
1001
0000
0000
0000
,  // measure 15
1000
0010
1000
0000
,  // measure 16
0001
0001
0100
0000
,  // measure 17
0010
0000
0000
0000
,  // measure 18
0100
0000
0100
0100
,  // measure 19
0010
0010
0010
0000
,  // measure 20
2002
0000
0000
0000
,  // measure 21
0000
0000
0000
3003
,  // measure 22
2002
0000
0000
0000
,  // measure 23
0000
0000
3003
0000
,  // measure 24
2000
0000
3001
0000
,  // measure 25
0001
0001
0001
0000
,  // measure 26
0002
0000
1003
0000
,  // measure 27
1000
1000
1000
0000
,  // measure 28
2000
0000
3100
0000
,  // measure 29
0001
0001
1000
0000
,  // measure 30
0100
0100
0100
0100
,  // measure 31
0010
0010
0010
0010
,  // measure 32
0110
0000
0000
0000
,  // measure 33
0000
0000
0000
0000
,  // measure 34
0101
0000
0000
0000
,  // measure 35
0000
0000
0000
0000
,  // measure 36
1100
0000
0000
0000
,  // measure 37
0000
0000
0000
0000
,  // measure 38
0001
0000
1000
0100
,  // measure 39
1000
0000
1000
0010
,  // measure 40
0100
0000
0100
0001
,  // measure 41
0200
0000
0300
0000
,  // measure 42
1000
0000
0001
0100
,  // measure 43
0001
0000
0001
0100
,  // measure 44
0010
0000
0010
1000
,  // measure 45
0200
0000
0000
0300
,  // measure 46
0001
0000
1001
0000
,  // measure 47
0100
0000
0110
0000
,  // measure 48
1000
0000
1001
0000
,  // measure 49
0010
0000
0220
0330
,  // measure 50
2000
0000
3100
0000
,  // measure 51
0001
0001
1000
0000
,  // measure 52
0100
0100
0100
0100
,  // measure 53
0010
0010
0010
0010
,  // measure 54
2000
0000
3001
0000
,  // measure 55
0001
0001
0001
0000
,  // measure 56
0002
0000
1003
0000
,  // measure 57
1000
1000
1000
0000
,  // measure 58
2000
0000
3100
0000
,  // measure 59
0001
0001
1000
0000
,  // measure 60
0100
0100
0100
0100
,  // measure 61
0020
0000
0030
0000
,  // measure 62
0200
0000
0000
0000
,  // measure 63
0010
0000
0310
0000
,  // measure 64
0020
0000
0000
0000
,  // measure 65
0200
0000
0330
0000
,  // measure 66
0001
0001
1000
1000
,  // measure 67
0010
0010
0010
0010
,  // measure 68
0010
0000
0000
0000
;

//---------------dance-single - ----------------
#NOTES:
     dance-single:
     :
     Hard:
     8:
     0.460,0.481,0.203,0.194,0.000:
0000
0000
0000
0000
,
0000
0000
0000
0000
,
0000
0000
0000
0000
,
0000
0000
0000
0000
,
0000
0000
0000
0000
,
0010
1000
0100
0001
,
0010
0001
0100
0010
,
0001
1000
0010
0100
,
0010
1000
0000
0100
0001
0100
0100
0000
,
1010
0000
0100
0000
0100
0000
0010
0100
,
0010
0000
1001
0000
0100
0010
1000
0000
,
0100
0010
0001
0000
0100
0010
0001
0000
,
0100
0001
0010
0000
0100
0001
1000
0000
,
0011
0000
0101
0000
0100
0000
0010
0100
,
0010
0000
1100
0000
0100
0010
0001
0000
,
0100
0010
1000
0000
0100
0010
1000
0010
,
0100
1000
0010
0000
0100
1000
0001
0000
,
0100
0100
0010
1000
,
0001
0100
0010
1000
0100
0000
0000
0000
,
2000
0100
0100
0100
,
0001
0100
0100
3100
,
0102
0100
0100
0100
,
0100
0000
0000
0000
0000
1003
0100
0010
,
0001
0000
0000
0100
0001
0100
0010
0000
,
1000
0000
1200
0000
0310
0001
0100
0000
,
2010
0000
0000
3100
1000
0100
0010
0000
,
0001
0000
1200
0000
0310
1000
0100
0000
,
0002
0000
0000
0103
0001
0000
0010
0000
,
0001
0000
1020
0000
0130
0001
0100
0000
,
1000
0001
1000
0001
0100
0010
0100
0010
,
1000
0010
1000
0010
0001
0010
0001
0010
,
1000
0000
0000
1100
0000
0000
0011
0000
,
0000
0000
0100
0000
0010
0100
0000
0001
,
1000
0000
0000
0101
0000
0000
1010
0000
,
0000
0000
0001
0000
1000
0010
0000
0100
,
0001
0000
1000
0100
0000
0100
0010
0000
,
0001
0000
0100
0000
0001
1000
0001
1000
,
0100
0000
0100
0010
0000
0001
1000
0001
,
0100
0000
0010
0000
1000
0100
0001
0100
,
1000
0000
1000
0001
0000
0100
0010
0100
,
0001
0000
1000
0000
0100
0001
0100
1000
,
0100
0000
0100
0010
0000
0001
1000
0001
,
0100
0000
0010
0000
1000
0100
0001
0100
,
0010
0000
0001
0100
0000
0010
1000
0000
,
0100
0000
0010
0000
0001
0100
1000
0100
,
0010
1010
0100
1100
,
0010
0101
0010
1100
,
0010
0000
0100
0010
0001
0000
0100
0010
,
1000
0000
0100
0000
1000
0001
1001
0000
,
0002
0000
0000
0103
0001
0000
0010
0000
,
1000
0000
0021
0000
0130
1000
0100
0000
,
0001
1000
0001
1000
0100
0010
0100
0010
,
0001
0010
0001
0010
1000
0010
1000
0010
,
0002
0000
0000
0103
0001
0100
0010
0000
,
1000
0000
1200
0000
0310
0001
0100
0000
,
2100
0000
0000
3100
1000
0100
0010
0000
,
0001
0000
1200
0000
0310
1000
0100
0000
,
0002
0000
0000
0103
0001
0000
0010
0000
,
0001
0000
1020
0000
0130
0001
0100
0000
,
0001
1000
0001
1000
0100
0010
0100
0010
,
0001
0010
0001
0010
1000
0001
1000
0010
,
0002
0000
0103
0010
0002
0000
0013
1000
,
0200
0000
1300
0010
0200
0000
0301
1000
,
0020
0000
1030
0100
0020
0000
0031
0100
,
2000
0000
3100
0010
2000
0000
3100
0000
,
0010
0100
0010
0100
1000
0010
1000
0010
,
0100
0001
0100
0001
1000
0100
0010
0001
,
0010
0000
0000
0000
;

//---------------dance-single - ----------------
#NOTES:
     dance-single:
     :
     Beginner:
     2:
     0.124,0.170,0.042,0.051,0.000:
0000
0000
0000
0000
,
0000
0000
0000
0000
,
0000
0000
0000
0000
,
0000
0000
0000
0000
,
0000
0000
0000
0000
,
1000
0000
0000
0000
,
0001
0000
0000
0000
,
0010
0000
0100
0000
,
0000
0000
0000
0000
,
1001
0000
0000
0000
,
0001
0000
0001
0000
,
0001
0000
0000
0000
,
1000
1000
1000
0000
,
1001
0000
0000
0000
,
1000
0000
1000
0000
,
1000
0000
0000
0000
,
0001
0001
0001
0000
,
0010
0000
0010
0000
,
0010
0000
0000
0000
,
2002
0000
0000
0000
,
0000
0000
0000
3003
,
2002
0000
0000
0000
,
0000
0000
3003
0000
,
1000
0000
0000
0000
,
0001
0000
0010
0000
,
1000
0000
0000
0000
,
0001
0000
0010
0000
,
0001
0000
0000
0000
,
1000
0000
0010
0000
,
1000
1000
1000
0000
,
0001
0001
0001
0000
,
0100
0000
0000
0000
,
0000
0000
0000
0000
,
0100
0000
0000
0000
,
0000
0000
0000
0000
,
0100
0000
0000
0000
,
0000
0000
0000
0000
,
0001
0000
0001
0000
,
1000
0000
1000
0000
,
0010
0000
0010
0000
,
0100
0000
0000
0000
,
1000
0000
0000
0000
,
0001
0000
0000
0000
,
0010
0000
0000
0000
,
0000
0000
0000
0000
,
0001
0000
0010
0000
,
0001
0000
0000
0000
,
1000
0000
0010
0000
,
1000
0000
0000
0000
,
0001
0000
0000
0000
,
1000
0000
0010
0000
,
1000
1000
1000
0000
,
0001
0001
0001
0000
,
1000
0000
0000
0000
,
0001
0000
0010
0000
,
1000
0000
0000
0000
,
0001
0000
0010
0000
,
0001
0000
0000
0000
,
1000
0000
0010
0000
,
1000
1000
1000
0000
,
0001
0001
0001
0000
,
0200
0000
0000
0000
,
0300
0000
0000
0000
,
0020
0000
0000
0000
,
0030
0000
0000
0000
,
1000
1000
1000
1000
,
0001
0001
0001
0001
,
1001
0000
0000
0000
;
