#TITLE:We Are Family;
#SUBTITLE:;
#ARTIST:Sister Sledge;
#TITLETRANSLIT:;
#SUBTITLETRANSLIT:;
#ARTISTTRANSLIT:;
#CREDIT:;
#BANNER:;
#BACKGROUND:We Are Family-bg.png;
#LYRICSPATH:;
#CDTITLE:./CDTITLES/DanceDanceRevolution 2010.png;
#MUSIC:We Are Family.mp3;
#OFFSET:2.928;
#SAMPLESTART:73.840;
#SAMPLELENGTH:15.000;
#SELECTABLE:YES;
#BPMS:0.000=118.400,36.000=117.600,56.000=118.600,68.000=119.200,88.000=118.200,120.000=119.200,140.000=120.000,164.000=120.200,200.000=120.600;
#DISPLAYBPM:119;
#STOPS:;
#BGCHANGES:;

//---------------dance-single - ----------------
#NOTES:
     dance-single:
     :
     Beginner:
     1:
     0.094,0.163,0.034,0.000,0.000:
0000
0000
0000
0000
,
0000
0000
0000
0000
,
0000
0000
0000
0000
,
0000
0000
0000
0000
,
0001
0000
0000
0000
,
1000
0000
0000
0000
,
0001
0001
0001
0000
,
0000
0000
0000
0000
,
0010
0010
0010
0000
,
0000
0000
0000
0000
,
1000
1000
1000
0000
,
0000
0000
0000
0000
,
0010
0010
0010
0000
,
0000
0000
0000
0000
,
0001
0001
0001
0000
,
0000
0000
0000
0000
,
0010
0010
0010
0000
,
0000
0000
0000
0000
,
1000
1000
1000
0000
,
0000
0000
0000
0000
,
0010
0010
0010
0000
,
0000
0000
0000
0000
,
1001
0000
0000
0000
,
1000
0000
0000
0000
,
0001
0000
0000
0000
,
1000
0000
0000
0000
,
1001
0000
0000
0000
,
0001
0000
0000
0000
,
1000
0000
0000
0000
,
0001
0000
0000
0000
,
1001
0000
0000
0000
,
0010
0000
0000
0000
,
0100
0000
0000
0000
,
0010
0000
0000
0000
,
1000
1000
1000
0000
,
0001
0001
0001
0000
,
1000
0000
0001
0000
,
1000
0000
0000
0000
,
0001
0001
0001
0000
,
0000
0000
0000
0000
,
0010
0010
0010
0000
,
0000
0000
0000
0000
,
1000
1000
1000
0000
,
0000
0000
0000
0000
,
0010
0010
0010
0000
,
0000
0000
0000
0000
,
0001
0001
0001
0000
,
0000
0000
0000
0000
,
0010
0010
0010
0000
,
0000
0000
0000
0000
,
1000
1000
1000
0000
,
0000
0000
0000
0000
,
0010
0010
0010
0000
,
0000
0000
0000
0000
,
1001
0000
0000
0000
;

//---------------dance-single - ----------------
#NOTES:
     dance-single:
     :
     Easy:
     3:
     0.184,0.233,0.138,0.095,0.000:
0000
0000
0000
0000
,
0000
0000
0000
0000
,
0000
0000
0000
0000
,
0000
0000
0000
0000
,
1000
0000
0001
0000
,
0001
0000
1000
0000
,
0010
1000
0001
0000
,
1001
0000
0000
0000
,
0010
0010
0100
0100
,
0010
0000
0001
0001
,
0010
0001
1000
0000
,
1001
0000
0000
0000
,
0100
1000
0001
0000
,
1001
0000
0000
0000
,
0010
0001
1000
0000
,
1001
0000
0000
0000
,
0010
0010
0100
0100
,
0010
0000
1000
1000
,
0010
1000
0001
0000
,
1001
0000
0000
0000
,
0100
0001
1000
0000
,
1001
0000
0100
0100
,
0020
0000
0030
0000
,
1000
0001
0200
0300
,
0010
0200
0300
0000
,
0002
0003
2000
3000
,
0110
0000
0000
0000
,
0001
1000
0200
0300
,
0010
0200
0300
0000
,
2000
3000
0002
0003
,
1001
0000
0000
0000
,
0020
0030
0200
0300
,
1000
0000
0001
0000
,
0100
0100
0100
0000
,
1000
1000
0010
0000
,
0001
0001
1000
0000
,
0010
0010
0100
0000
,
1000
0001
1001
0000
,
0100
1000
0001
0000
,
1001
0000
0000
0000
,
0100
0100
0010
0010
,
0100
0000
0001
0001
,
0100
0001
1000
0000
,
1001
0000
0000
0000
,
0010
1000
0001
0000
,
1001
0000
0000
0000
,
0100
0001
1000
0000
,
1001
0000
0000
0000
,
0100
0100
0010
0010
,
0100
0000
1000
1000
,
0100
1000
0001
0000
,
1001
0000
0000
0000
,
0010
0001
1000
0000
,
1001
0100
0100
0100
,
1001
0000
0000
0000
;

//---------------dance-single - ----------------
#NOTES:
     dance-single:
     :
     Medium:
     5:
     0.261,0.303,0.129,0.095,0.000:
0000
0000
0000
0000
,
0000
0000
0000
0000
,
0000
0000
0000
0000
,
0000
0000
0000
0000
,
0001
1000
0001
0000
,
1000
0000
0001
0000
,
0010
0000
0100
0000
0001
1000
0001
0000
,
0100
0010
1001
0000
,
0010
0000
0100
1000
1000
0000
1000
0000
,
0100
0010
0001
0000
,
0010
0000
0100
0000
1000
0001
1000
0000
,
0100
0010
1001
0000
,
0100
0000
0100
0000
0001
0000
1000
1001
,
0000
0000
1000
0100
,
0010
0000
0100
0000
1000
0001
1000
0000
,
0100
0010
1001
0000
,
0010
0000
0100
0001
0001
0000
0001
0000
,
0100
0010
1000
0000
,
0010
0000
0100
0000
0001
1000
0001
0000
,
0100
0010
1001
0000
,
0100
0000
0100
0000
1000
0000
0001
1001
,
0000
0000
0001
0100
,
0020
1030
0001
0000
,
0010
0001
0200
0310
,
1000
0100
0020
0030
,
0001
0100
1000
0000
,
2002
3003
0001
0100
,
0010
1000
0200
0310
,
0001
0100
0020
0030
,
1000
0100
0001
0000
,
2002
3003
0100
0100
,
0020
0130
0200
0310
,
1000
0001
0100
0000
,
0010
0100
0010
0000
,
1000
1000
0010
0010
,
1000
0000
0001
0100
1000
0000
0000
0000
,
0010
0010
0100
0010
,
1000
0000
1000
0100
0001
0000
0000
0000
,
0100
0000
0010
0000
0001
1000
0001
0000
,
0010
0100
1001
0000
,
0100
0000
0010
1000
1000
0000
1000
0000
,
0010
0100
0001
0000
,
0100
0000
0010
0000
1000
0001
1000
0000
,
0010
0100
1001
0000
,
0010
0000
0010
0000
0001
0000
1000
1001
,
0000
0000
1000
0010
,
0100
0000
0010
0000
1000
0001
1000
0000
,
0010
0100
1001
0000
,
0100
0000
0010
0001
0001
0000
0001
0000
,
0010
0100
1000
0000
,
0100
0000
0010
0000
0001
1000
0001
0000
,
0010
0100
1001
0000
,
0010
0000
0010
0000
1000
0000
0001
1001
,
0000
1000
0000
0001
0000
0100
0000
0000
,
1001
0000
0000
0000
;

//---------------dance-single - ----------------
#NOTES:
     dance-single:
     :
     Hard:
     6:
     0.339,0.349,0.052,0.095,0.052: // measure 1
0000
0000
0000
0000
,  // measure 2
0000
0000
0000
0000
,  // measure 3
0000
0000
0000
0000
,  // measure 4
0000
0000
0000
0000
,  // measure 5
0010
0001
0100
0010
,  // measure 6
1000
0100
1000
0000
,  // measure 7
0001
0000
0000
0000
1000
0000
0000
0100
1000
0000
0001
0000
1000
0000
0000
0000
,  // measure 8
0010
0100
0010
1000
,  // measure 9
0001
0000
0000
0000
1000
0000
0100
0010
0100
0000
1000
0000
0001
0000
0000
0000
,  // measure 10
0100
0010
1000
0001
,  // measure 11
1000
0000
0000
0000
0001
0000
0000
0100
0001
0000
1000
0000
0001
0000
0000
0000
,  // measure 12
0010
0100
0010
0001
,  // measure 13
1000
0000
0010
0100
0001
0010
0100
1001
,  // measure 14
0000
0000
1000
0000
0001
0100
0100
0000
,  // measure 15
1000
0000
0000
0000
0001
0000
0000
0100
0001
0000
1000
0000
0001
0000
0000
0000
,  // measure 16
0010
0100
0010
0001
,  // measure 17
1000
0000
0000
0000
0001
0000
0100
0010
0100
0000
0001
0000
1000
0000
0000
0000
,  // measure 18
0100
0010
0001
1000
,  // measure 19
0001
0000
0000
0000
1000
0000
0000
0100
1000
0000
0001
0000
1000
0000
0000
0000
,  // measure 20
0010
0100
0010
1000
,  // measure 21
0001
0000
0010
0100
1000
0010
0100
1001
,  // measure 22
0000
0000
0001
0000
1000
0100
0100
0000
,  // measure 23
0020
0000
0031
0001
1000
0010
0100
0000
,  // measure 24
0002
0013
0020
0031
,  // measure 25
1000
0000
0100
0000
1000
0001
0001
0000
,  // measure 26
1000
0100
0100
0000
0001
0010
0010
0000
,  // measure 27
2002
0000
3003
1000
0001
0100
0010
0000
,  // measure 28
2000
3010
0020
1030
,  // measure 29
0001
0000
0100
0000
0001
1000
1000
0000
,  // measure 30
0001
0100
0100
0000
1000
0010
0010
0000
,  // measure 31
2002
0000
3003
0000
0100
0010
0100
0000
,  // measure 32
0020
0000
1030
0000
0200
0001
0301
0000
,  // measure 33
1000
0100
0001
0100
,  // measure 34
0010
1000
0001
0100
0010
0000
0000
0000
,  // measure 35
1000
0100
0001
0000
0010
0001
0010
0000
,  // measure 36
0001
0100
1000
0100
0001
0000
0000
0000
,  // measure 37
1000
0100
1000
0000
0100
0000
0010
0000
,  // measure 38
0001
0010
0001
0100
0001
0000
0000
0000
,  // measure 39
0001
0000
0000
0000
1000
0000
0000
0010
1000
0000
0001
0000
1000
0000
0000
0000
,  // measure 40
0100
0010
0100
1000
,  // measure 41
0001
0000
0000
0000
1000
0000
0010
0100
0010
0000
1000
0000
0001
0000
0000
0000
,  // measure 42
0010
0100
1000
0001
,  // measure 43
1000
0000
0000
0000
0001
0000
0000
0010
0001
0000
1000
0000
0001
0000
0000
0000
,  // measure 44
0100
0010
0100
0001
,  // measure 45
1000
0000
0100
0010
0001
0100
0010
1001
,  // measure 46
0000
0000
1000
0000
0001
0010
0010
0000
,  // measure 47
1000
0000
0000
0000
0001
0000
0000
0010
0001
0000
1000
0000
0001
0000
0000
0000
,  // measure 48
0100
0010
0100
0001
,  // measure 49
1000
0000
0000
0000
0001
0000
0010
0100
0010
0000
0001
0000
1000
0000
0000
0000
,  // measure 50
0010
0100
0001
1000
,  // measure 51
0001
0000
0000
0000
1000
0000
0000
0010
1000
0000
0001
0000
1000
0000
0000
0000
,  // measure 52
0100
0010
0100
1000
,  // measure 53
0001
0000
0100
0010
1000
0100
0010
0001
,  // measure 54
1000
0001
0001
1000
0000
0100
0100
0000
,  // measure 55
1001
0000
0000
0000
;
