#TITLE:Venus;
#SUBTITLE:;
#ARTIST:Bananarama;
#TITLETRANSLIT:;
#SUBTITLETRANSLIT:;
#ARTISTTRANSLIT:;
#CREDIT:;
#BANNER:;
#BACKGROUND:Venus-bg.png;
#LYRICSPATH:;
#CDTITLE:./CDTITLES/DanceDanceRevolution 2010.png;
#MUSIC:Venus.mp3;
#OFFSET:1.581;
#SAMPLESTART:34.373;
#SAMPLELENGTH:15.000;
#SELECTABLE:YES;
#BPMS:0.000=125.630;
#STOPS:;
#BGCHANGES:;

//---------------dance-single - ----------------
#NOTES:
     dance-single:
     :
     Beginner:
     2:
     0.126,0.154,0.010,0.058,0.000:
0000
0000
0000
0000
,
0000
0000
0000
0000
,
0000
0000
0000
0000
,
0010
0000
0000
0000
,
0100
0000
0000
0000
,
0002
0000
0003
0000
,
2000
0000
3000
0000
,
0010
0000
0000
0000
,
0100
0000
0000
0000
,
0010
0000
0000
0000
,
0100
0000
0000
0000
,
0001
0000
0001
0000
,
0001
0000
0000
0000
,
1000
0000
1000
0000
,
1000
0000
0000
0000
,
0020
0000
0030
0000
,
0010
0000
0000
0000
,
0200
0000
0300
0000
,
0000
0000
0000
0000
,
1000
0000
0010
0000
,
1000
0000
0010
0000
,
0001
0000
0010
0000
,
0001
0000
0010
0000
,
1000
0000
0001
0000
,
1000
1000
1000
0000
,
0010
0000
0001
0000
,
1000
0000
0010
0000
,
1000
0000
0001
0000
,
1000
1000
1000
0000
,
0010
0000
0001
0000
,
1000
0000
0000
0000
,
1000
0000
1000
0000
,
1000
0000
0000
0000
,
0001
0000
0001
0000
,
0001
0000
0000
0000
,
0020
0000
0030
0000
,
0010
0000
0000
0000
,
0200
0000
0300
0000
,
0000
0000
0000
0000
,
0001
0000
0010
0000
,
0001
0000
0010
0000
,
1000
0000
0010
0000
,
1000
0000
0010
0000
,
0001
0000
1000
0000
,
0001
0001
0001
0000
,
0010
0000
1000
0000
,
0001
0000
0010
0000
,
0001
0000
1000
0000
,
0001
0001
0001
0000
,
0010
0000
1000
0000
,
0001
0000
0010
0000
,
0001
0000
1000
0000
,
0001
1000
0001
1000
,
1001
0000
0000
0000
;

//---------------dance-single - ----------------
#NOTES:
     dance-single:
     :
     Easy:
     3:
     0.165,0.180,0.010,0.097,0.000:
0000
0000
0000
0000
,
0000
0000
0000
0000
,
0000
0000
0000
0000
,
1000
0000
0001
0000
,
0010
0000
0010
0000
,
2000
0000
0000
3000
,
0002
0000
0000
0003
,
1000
0000
0001
0000
,
0010
0000
0010
0000
,
0001
0000
1000
0000
,
0010
0000
0010
0000
,
1000
0000
0100
0000
,
0010
0010
0010
0000
,
0001
0000
0100
0000
,
0010
0010
0010
0000
,
2000
0000
3100
0000
,
0002
0000
0013
0000
,
1000
1000
0001
0000
,
0100
0100
0010
0000
,
0020
0000
0000
0030
,
0200
0000
0000
0300
,
0001
0000
0001
0000
,
1000
0000
1000
0000
,
0010
0000
0100
0000
,
0010
0100
0010
0000
,
1000
0000
0100
0000
,
0010
0000
0001
0000
,
0010
0000
0100
0000
,
0010
0100
0010
0000
,
1000
0000
0100
0000
,
0010
0000
0000
0000
,
0001
0000
0100
0000
,
0010
0010
0010
0000
,
1000
0000
0100
0000
,
0010
0010
0010
0000
,
0002
0000
0103
0000
,
2000
0000
3010
0000
,
0001
0001
1000
0000
,
0100
0100
0010
0000
,
0020
0000
0000
0030
,
0200
0000
0000
0300
,
1000
0000
1000
0000
,
0001
0000
0001
0000
,
0010
0000
0100
0000
,
0010
0100
0010
0000
,
0001
0000
0100
0000
,
0010
0000
1000
0000
,
0010
0000
0100
0000
,
0010
0100
0010
0000
,
0001
0000
0100
0000
,
0010
0000
1000
0000
,
0001
0000
0001
0000
,
1000
0100
0010
0001
,
1001
0000
0000
0000
;

//---------------dance-single - ----------------
#NOTES:
     dance-single:
     :
     Medium:
     5:
     0.297,0.309,0.097,0.097,0.000:
0000
0000
0000
0000
,
0000
0000
0000
0000
,
0000
0000
0000
0000
,
1000
0100
0001
0100
,
0001
0001
0100
0000
0001
0001
0100
0000
,
0020
0000
0100
0130
,
0200
0000
0010
0310
,
0001
0100
1000
0100
,
1000
1000
0100
0000
1000
1000
0100
0000
,
1000
0100
0001
0110
,
0001
0001
0100
0000
0001
0001
0100
0100
,
0010
1000
0100
0010
,
0002
0000
0100
1003
,
0010
0001
0100
0010
,
2000
0000
0100
3001
,
0010
1000
0001
0100
,
0010
0000
1000
0001
,
1000
0100
1000
0000
0001
0100
0001
0000
,
0001
0100
0010
0000
1000
0010
0100
0000
,
0020
0000
1000
1030
,
0200
0000
1000
1300
,
0001
0000
0000
0010
0001
0000
1000
0000
,
0100
0000
0000
1000
0010
0000
0010
0000
,
0100
0010
1000
0100
,
0001
1100
0011
0000
,
1000
0000
0000
0100
0010
0000
0000
0000
,
0001
1000
0000
0000
0010
0100
0000
0000
,
0100
0010
0001
0100
,
1000
0101
1010
0000
,
0001
0000
0000
0100
0010
0000
0000
0000
,
1000
0001
0000
0000
0010
0100
0000
0000
,
0010
0001
0100
0000
,
2000
0100
0100
3001
,
0010
1000
0100
0000
,
0002
0100
0100
1003
,
0010
0001
1000
0100
,
0010
0000
0001
1000
,
0001
0100
0001
0000
1000
0100
1000
0000
,
1000
0100
0010
0000
0001
0010
0100
0000
,
0020
0000
0001
0031
,
0200
0000
0001
0301
,
1000
0000
0000
0010
1000
0000
0001
0000
,
0100
0000
0000
0001
0010
0000
0010
0000
,
0100
0010
0001
0100
,
1000
0101
1010
0000
,
0001
0000
0000
0100
0010
0000
0000
0000
,
1000
0001
0000
0000
0010
0100
0000
0000
,
0100
0010
1000
0100
,
0001
1100
0011
0000
,
1000
0000
0000
0100
0010
0000
0000
0000
,
0001
1000
0000
0000
0010
0100
0000
0000
,
0001
0000
0001
0000
,
0100
0100
0010
0010
,
1001
0000
0000
0000
;

//---------------dance-single - ----------------
#NOTES:
     dance-single:
     :
     Hard:
     6:
     0.374,0.360,0.155,0.165,0.019: // measure 1
0000
0000
0000
0000
,  // measure 2
0000
0000
0000
0000
,  // measure 3
0000
0000
0000
0000
,  // measure 4
0001
0100
0001
1100
,  // measure 5
0010
0010
0100
0000
0002
0100
0103
0000
,  // measure 6
0020
0000
1000
1030
,  // measure 7
0200
0000
0001
0301
,  // measure 8
1000
0100
1000
0101
,  // measure 9
0010
0010
0100
0000
2000
0100
3100
0000
,  // measure 10
0001
0110
0001
1100
,  // measure 11
0010
0010
0100
0000
0002
0100
0103
0001
,  // measure 12
1000
0000
0010
0000
0100
0000
0010
0010
,  // measure 13
0200
0301
0020
1030
,  // measure 14
0001
0000
0010
0000
0100
0000
0010
0010
,  // measure 15
0200
1300
0020
0031
,  // measure 16
1000
0100
0001
0100
,  // measure 17
0010
1000
0001
0010
,  // measure 18
0001
1000
0100
0100
0001
1000
0010
0000
,  // measure 19
1000
0100
0010
0001
0001
0010
0100
0000
,  // measure 20
0010
0010
0000
0200
0001
0000
0301
0000
,  // measure 21
0020
0000
1000
0031
,  // measure 22
1000
0000
0000
0000
0000
0100
0010
0000
0001
0000
1000
0000
0000
0000
0001
0000
,  // measure 23
0100
0000
0000
0000
0000
1000
0010
0000
0100
0000
0010
0000
0000
0000
0010
0000
,  // measure 24
1000
0100
0010
0001
,  // measure 25
1010
0100
1001
0010
,  // measure 26
0001
0000
0000
0100
0001
0000
0100
0000
,  // measure 27
0010
1000
0000
1000
0100
0010
0000
0010
,  // measure 28
0001
0100
0010
1000
,  // measure 29
0011
0100
1001
0010
,  // measure 30
1000
0000
0000
0100
1000
0000
0100
0000
,  // measure 31
0010
0001
0000
0001
0100
0010
0100
0010
,  // measure 32
1000
0010
0100
0010
,  // measure 33
0200
0000
0301
0000
0020
0000
1030
1000
,  // measure 34
0001
0010
0100
0010
,  // measure 35
0200
0000
1300
0000
0020
0000
0031
0001
,  // measure 36
0100
0000
0010
1001
,  // measure 37
0010
1000
0001
0100
,  // measure 38
0010
1000
0001
0001
0010
1000
0001
0000
,  // measure 39
0001
0100
0010
1000
1000
0010
0100
0000
,  // measure 40
0010
0010
0000
0200
0001
0000
0301
0000
,  // measure 41
0020
0000
1000
0031
,  // measure 42
1000
0000
0000
0000
0000
0100
0010
0000
0001
0000
1000
0000
0000
0000
0001
0000
,  // measure 43
0100
0000
0000
0000
0000
1000
0010
0000
0100
0000
0010
0000
0000
0000
0010
0000
,  // measure 44
1000
0100
0010
0001
,  // measure 45
1010
0100
1001
0010
,  // measure 46
0001
0000
0000
0100
0001
0000
0100
0000
,  // measure 47
0010
1000
0000
1000
0100
0010
0000
0010
,  // measure 48
0001
0100
0010
1000
,  // measure 49
0011
0100
1001
0010
,  // measure 50
1000
0000
0000
0100
1000
0000
0100
0000
,  // measure 51
0010
0001
0000
0001
0100
0010
0100
0010
,  // measure 52
1000
0000
1000
0000
,  // measure 53
0100
0110
0010
0011
,  // measure 54
1001
0000
0000
0000
;
