#TITLE:The Island Song;
#SUBTITLE:;
#ARTIST:TAG feat. Eric Anthony;
#TITLETRANSLIT:;
#SUBTITLETRANSLIT:;
#ARTISTTRANSLIT:;
#CREDIT:;
#BANNER:The Island Song.png;
#BACKGROUND:The Island Song-bg.png;
#LYRICSPATH:;
#CDTITLE:./CDTITLES/DanceDanceRevolution 2010.png;
#MUSIC:The Island Song.mp3;
#OFFSET:0.137;
#SAMPLESTART:47.840;
#SAMPLELENGTH:15.000;
#SELECTABLE:YES;
#BPMS:0.000=85.000;
#STOPS:;
#BGCHANGES:;

//---------------dance-single - ----------------
#NOTES:
     dance-single:
     :
     Beginner:
     2:
     0.092,0.131,0.011,0.000,0.000:
0000
0000
0000
0000
,
0000
0000
0000
0000
,
0000
0000
0000
0000
,
0001
0000
0001
0000
,
1000
0000
1000
0000
,
0010
0000
0010
0000
,
0100
0000
0100
0000
,
0001
0001
0001
0001
,
0001
0000
0000
0000
,
1000
1000
1000
0000
,
0010
0010
0010
0000
,
0100
0100
0100
0100
,
0100
0000
0000
0000
,
0001
0000
0001
0000
,
0100
0000
0100
0000
,
0010
0000
0010
0000
,
0000
0000
0000
0000
,
0010
0000
0010
0000
,
0001
0000
0001
0000
,
0010
0000
0010
0000
,
1000
0000
1000
0000
,
0100
0000
0100
0000
,
0001
0001
0001
0000
,
1000
1000
1000
0000
,
0010
0010
0010
0010
,
0010
0000
0000
0000
,
0000
0000
0000
0000
,
0001
0000
0001
0000
,
1000
0000
1000
0000
,
0010
0000
0010
0000
,
0100
0000
0100
0000
,
1001
0000
0000
0000
;

//---------------dance-single - ----------------
#NOTES:
     dance-single:
     :
     Easy:
     3:
     0.119,0.150,0.021,0.116,0.000:
0000
0000
0000
0000
,
0000
0000
0000
0000
,
0000
0000
0000
0000
,
1000
0000
0001
0000
,
1000
0000
0001
0000
,
0010
0010
0001
0000
,
1000
1000
0100
0000
,
1000
0100
0001
0100
,
0001
0000
0000
0000
,
0010
1000
0010
0000
,
0001
0010
0001
0000
,
0010
0001
1000
0100
,
0002
0003
0000
0000
,
2000
3000
0002
0003
,
0010
1000
0001
0000
,
2000
3000
0002
0003
,
0000
0000
0000
0000
,
0001
0010
1000
0000
,
0001
0100
1000
0000
,
0001
0000
1000
0000
,
2002
0000
0000
3003
,
1000
0010
0001
0000
,
1000
0100
0001
0000
,
1000
0000
0001
0000
,
1000
0000
0001
0000
,
2002
3003
0000
0000
,
0000
0000
0000
0000
,
2000
3000
0000
0000
,
1000
0100
0001
0100
,
1000
0100
0001
0100
,
1000
0100
0001
0000
,
2000
0000
0000
3000
;

//---------------dance-single - ----------------
#NOTES:
     dance-single:
     :
     Medium:
     6:
     0.236,0.234,0.000,0.168,0.121:
0000
0000
0000
0000
,
0000
0000
0000
0000
,
0000
0000
0000
0000
,
0001
0000
0100
0000
1000
0100
0001
0100
,
1000
0000
0100
0000
0001
0100
1000
0100
,
0001
0010
0100
1000
,
0001
0000
0200
0000
1300
0100
0000
0000
,
0001
0000
0010
0000
1000
0000
0010
0001
,
0010
1000
0010
0001
,
0010
0001
0010
0001
1000
0000
0001
0000
,
1000
0100
1000
0100
0010
0000
0001
0000
,
0020
0031
0100
0001
,
0010
0001
0010
0000
1000
0100
1000
0000
,
0200
0000
0000
1300
0000
0000
0000
0000
0002
0000
0000
0103
0000
0000
0000
0000
,
2000
0000
0000
3100
0000
0000
0000
0000
0002
0000
0000
0103
0000
0000
0000
0000
,
2000
0000
0000
3001
0000
0000
0000
0000
0002
0000
0000
1003
0000
0000
0000
0000
,
0001
1000
0001
1000
0001
1000
0001
0000
0000
0000
0000
0000
,
1000
0100
0001
0100
,
1000
0100
1000
0100
1000
0100
1000
0000
0000
0000
0000
0000
,
0010
0000
0000
0010
0000
0000
0000
0000
1000
0000
0000
1000
0000
0000
0000
0000
,
0001
0000
0000
0001
0000
0000
0000
0000
1000
0000
0100
0000
0001
0000
1000
0000
,
0001
0000
0000
0001
0000
0000
0000
0000
0100
0000
0000
0100
0000
0000
0000
0000
,
0001
0100
0001
0100
0001
0100
0001
0000
0000
0000
0000
0000
,
0010
1000
0001
0000
0010
0001
1000
0000
,
0100
1000
0001
0000
0100
0001
1000
0100
,
0002
0000
0103
0000
1000
0000
0001
1000
,
0001
0010
0100
1000
,
0002
0013
1000
0100
,
0002
0103
2000
3100
,
2000
3100
0002
0103
,
0200
0001
1300
0001
,
0200
0000
0000
0300
;

//---------------dance-single - ----------------
#NOTES:
     dance-single:
     :
     Hard:
     7:
     0.305,0.284,0.011,0.021,0.184: // measure 1
0000
0000
0000
0000
,  // measure 2
0000
0000
0000
0000
,  // measure 3
0000
0000
0000
0000
,  // measure 4
0010
0000
0001
0000
0000
0000
0010
0000
0000
0000
0100
0000
0000
0000
0001
1000
,  // measure 5
0010
0000
0100
0000
0000
0000
0001
0000
0000
0000
1000
0000
0000
0000
0100
0010
,  // measure 6
1000
0000
0100
0000
0000
0000
0010
0000
0000
0000
0100
0000
0000
0000
0001
0010
,  // measure 7
0100
0000
0001
0000
0000
0000
1000
0000
0000
0000
0010
0000
0000
0000
1000
0100
,  // measure 8
0001
0000
0010
0000
0000
0000
0100
0000
0000
0000
0010
0000
0000
0000
0100
0010
,  // measure 9
1000
0000
0001
0000
0000
0000
0010
0000
0000
0000
1000
0000
0000
0000
0010
0001
,  // measure 10
1000
0000
0001
0000
0100
0000
0010
0000
0000
0000
0010
0000
0100
0000
0001
1000
,  // measure 11
0001
0000
0010
0000
0100
0000
1000
0000
0000
0000
0010
0000
1000
0000
0100
0010
,  // measure 12
0001
0000
0100
0000
1000
0000
0010
0000
0000
0000
0010
0000
0100
0000
1000
0100
,  // measure 13
0001
0000
0010
0000
0100
0000
1000
0000
0000
0000
1000
0000
0010
0000
0100
0010
,  // measure 14
1000
0000
0100
0000
0000
0000
0010
0000
0000
0000
0100
0000
0000
0000
0001
1000
,  // measure 15
0100
0000
0010
0000
0000
0000
0001
0000
0000
0000
0100
0000
0000
0000
1000
0001
,  // measure 16
0010
0000
1000
0000
0000
0000
1000
0000
0000
0000
0100
0000
0000
0000
0010
0100
,  // measure 17
0001
0000
1000
0000
1000
0000
0010
0000
0100
0000
0100
0000
0001
0000
0000
0010
0000
0000
0100
0000
0000
0010
0000
0000
,  // measure 18
1000
0100
0000
0010
0000
1000
0010
0010
,  // measure 19
1000
0000
0000
0000
0100
0000
0000
0000
0100
0000
0000
0000
0001
0000
0000
0000
0010
0000
0000
0000
0010
0000
0000
0000
1000
0000
0000
0000
0000
0000
0100
0000
0000
0000
0000
0000
0000
0000
0000
0100
0000
0000
0010
0000
0000
0000
0000
0000
,  // measure 20
0001
0000
0010
0000
0000
0000
1000
0000
0000
0000
0001
0000
0000
0100
0010
0000
,  // measure 21
1000
0000
0100
0000
0000
0000
0010
0000
0000
0000
1000
0000
0000
0010
0100
0000
,  // measure 22
0001
0010
0000
1000
0000
0010
0000
0100
,  // measure 23
0001
0000
0000
0000
0010
0000
0000
0000
0010
0000
0000
0000
1000
0000
0000
0000
0100
0000
0000
0000
0100
0000
0000
0000
0001
0000
0000
0000
0000
0000
0010
0000
0000
0000
0000
0000
0000
0000
0000
0100
0000
0000
0010
0000
0000
0000
0000
0000
,  // measure 24
1000
0100
0010
0001
0000
1000
0000
0100
,  // measure 25
0001
0010
1000
0100
0000
1000
0000
0100
,  // measure 26
0010
0000
0001
0000
1000
0000
0100
0000
0000
0000
0100
0000
1000
0000
0010
0001
,  // measure 27
0010
0000
0100
0000
0000
0000
0001
0000
0100
0000
0100
0000
0010
0000
0100
0010
,  // measure 28
0001
0000
0010
0000
1000
0000
0100
0000
0000
0000
0010
0000
1000
0000
0001
1000
,  // measure 29
0100
0000
0010
0000
0001
0000
0100
0000
0000
0000
0010
0000
0100
0000
0001
1000
,  // measure 30
0010
0000
0001
0000
1000
0000
0100
0000
0000
0000
0010
0000
0100
0000
1000
0010
,  // measure 31
0001
0000
0010
0000
1000
0000
0100
0000
0000
0000
0010
0000
0100
0000
0010
0100
,  // measure 32
2002
0000
0000
3003
;
