#TITLE:So Fine;
#SUBTITLE:;
#ARTIST:Sean Paul;
#TITLETRANSLIT:;
#SUBTITLETRANSLIT:;
#ARTISTTRANSLIT:;
#CREDIT:;
#BANNER:;
#BACKGROUND:So Fine-bg.png;
#LYRICSPATH:;
#CDTITLE:./CDTITLES/DanceDanceRevolution 2010.png;
#MUSIC:So Fine.mp3;
#OFFSET:1.721;
#SAMPLESTART:13.806;
#SAMPLELENGTH:15.000;
#SELECTABLE:YES;
#BPMS:0.000=137.000;
#STOPS:;
#BGCHANGES:;

//---------------dance-single - ----------------
#NOTES:
     dance-single:
     :
     Beginner:
     1:
     0.073,0.138,0.000,0.000,0.000:
0000
0000
0000
0000
,
0000
0000
0000
0000
,
0000
0000
0000
0000
,
0000
0000
0000
0000
,
0000
0000
0000
0000
,
0000
0000
0000
0000
,
0000
0000
0000
0000
,
0000
0000
0000
0000
,
0000
0000
0000
0000
,
0000
0000
0000
1000
,
0000
0000
0000
0001
,
0000
0000
0000
1000
,
0000
0000
0000
0001
,
0000
0000
0000
0100
,
0000
0000
0000
0100
,
0000
0000
0000
0100
,
0000
0000
0000
0100
,
0000
0000
0000
1000
,
0000
0000
0000
0001
,
0000
0000
0000
0010
,
0000
0000
0000
0010
,
0000
0000
0000
0100
,
0000
0000
0000
0100
,
0000
0000
0000
0100
,
0000
0000
0000
0100
,
0000
0000
0000
1000
,
0000
0000
0000
0001
,
0000
0000
0000
1000
,
0000
0000
0000
0001
,
0000
0000
0000
0000
,
1000
0000
0000
1000
,
1000
0000
0000
0001
,
0001
0000
0000
0001
,
0000
0000
0000
1000
,
0000
0000
0000
0001
,
0000
0000
0000
1000
,
0000
0000
0000
0001
,
0000
0000
0000
0100
,
0000
0000
0000
0100
,
0000
0000
0000
0100
,
0000
0000
0000
0100
,
0000
0000
0000
1000
,
0000
0000
0000
1000
,
0000
0000
0000
0001
,
0000
0000
0000
0001
,
0000
0000
0000
1000
,
1000
0000
0000
0001
,
0001
0000
0000
1000
,
1000
0000
0000
0000
,
0000
0000
0000
0001
,
0000
0000
0000
1000
,
0000
0000
0000
0001
,
0000
0000
0000
1000
,
0000
0000
0000
0100
,
0000
0000
0000
0100
,
0000
0000
0000
0100
,
0000
0000
0000
0100
,
0000
0000
0000
1000
,
0000
0000
0000
0001
,
0000
0000
0000
1000
,
0000
0000
0000
0001
,
0000
0000
0000
0100
,
0000
0000
0000
0100
,
0000
0000
0000
0100
,
0000
0000
0000
0100
;

//---------------dance-single - ----------------
#NOTES:
     dance-single:
     :
     Easy:
     4:
     0.171,0.193,0.000,0.000,0.000:
0000
0000
0000
0000
,
0000
0000
0000
0000
,
0000
0000
0000
0000
,
0000
0000
0000
0000
,
0000
0000
0000
0000
,
0000
0000
0000
0000
,
0000
0000
0000
0000
,
0000
0000
0000
0000
,
0000
0000
0000
0000
,
1000
0000
0100
0000
,
0001
0000
0100
0000
,
0010
0000
1000
0000
,
0100
0000
0010
0000
,
1000
0001
1000
0000
,
0100
0010
0100
0000
,
0001
1000
0001
0000
,
0010
0100
0010
0000
,
1000
0000
0000
0001
,
0001
0000
0000
1000
,
1000
0000
0000
0100
,
1000
0000
0001
0000
,
0001
0001
0001
0000
,
1000
1000
1000
0000
,
0100
0100
0100
0000
,
1000
0000
0001
0000
,
1000
1000
0000
0000
,
0001
0001
0000
0000
,
0010
0100
0010
0000
,
0100
0010
0100
0000
,
1000
0000
0000
0000
,
0100
0000
1000
1000
,
0001
0000
0010
0010
,
0100
0000
1000
1000
,
1000
0000
0010
0000
,
0001
0000
0010
0000
,
0100
0000
1000
0000
,
0010
0000
0100
0000
,
0001
1000
0001
0000
,
0010
0100
0010
0000
,
1000
0001
1000
0000
,
0100
0010
0100
0000
,
1000
0100
1000
0000
,
1000
0000
0100
0000
,
0001
0100
0001
0000
,
0001
0000
0100
0000
,
0010
0000
1000
0000
,
0001
0000
0100
0000
,
0001
0000
1000
0000
,
0001
0000
0100
0000
,
0001
0100
1000
0100
,
1000
0000
0001
0000
,
1000
0100
0000
0100
,
0010
0100
0000
0000
,
0001
1000
0001
0000
,
0010
0100
0010
0000
,
1000
0001
1000
0000
,
0100
0010
0100
0000
,
0001
0000
0010
0000
,
1000
0000
0010
0000
,
0100
0000
0001
0000
,
0010
0000
0100
0000
,
0001
1000
0001
0000
,
0010
0100
0010
0000
,
1000
0001
1000
0000
,
0100
0010
0100
0000
;

//---------------dance-single - ----------------
#NOTES:
     dance-single:
     :
     Medium:
     5:
     0.251,0.332,0.171,0.000,0.000:
0000
0000
0000
0000
,
0000
0000
0000
0000
,
0000
0000
0000
0000
,
0000
0000
0000
0000
,
0000
0000
0000
0000
,
0000
0000
0000
0000
,
0000
0000
0000
0000
,
0000
0000
0000
0000
,
0000
0000
0000
0000
,
1000
0100
0000
0001
,
0001
0100
0000
0010
,
0010
1000
0000
0100
,
0100
0010
0000
0100
,
1001
0000
0000
0000
0001
0010
0001
0000
,
0100
0000
0000
0000
0010
0100
0010
0000
,
1000
0000
0000
0000
1000
0100
1000
0000
,
0100
0010
0001
0100
,
1010
0000
0000
1000
,
0101
0000
0000
0100
,
1001
0000
0000
0001
,
1100
0000
0001
1000
,
1001
0000
0001
0100
,
1001
0000
1000
0100
,
1001
0000
0010
0100
,
0110
1000
0001
1000
,
1100
0000
1000
0100
0000
0000
0100
0000
,
0110
0000
0010
0001
0000
0000
0100
0000
,
0110
0000
0100
0010
0000
0000
1000
0000
,
1010
0000
1000
0100
0000
0000
0010
0000
,
1001
0000
0000
0000
,
0100
0000
0000
1000
0000
1000
0000
0000
,
0001
0000
0000
0010
0000
0010
0000
0000
,
0100
0000
0000
1000
0000
1000
0000
0001
,
1000
0010
0000
0001
,
0001
0010
0000
0100
,
0100
1000
0000
0010
,
0010
0100
0000
0010
,
1001
0000
0000
0000
0001
0010
0001
0000
,
0100
0000
0000
0000
0010
0100
0010
0000
,
1000
0000
0000
0000
1000
0100
1000
0000
,
0100
0010
0001
0100
,
1000
0100
1100
0000
,
1000
0100
0100
0100
0000
0000
0000
0000
,
0001
0100
0101
0000
,
0001
0100
0100
0100
0000
0000
0000
0000
,
0010
0000
0000
0100
0000
0000
0000
0000
,
0010
0000
0000
1000
0000
0000
0000
0000
,
1000
0000
0000
0001
0000
0000
0000
0000
,
0001
0000
0000
0100
0000
0000
0000
0000
,
1000
0100
0010
0100
,
0010
0001
0000
0011
,
1000
0001
0000
0100
,
0010
0000
0100
0000
0000
0010
1000
0000
,
1001
0000
0000
0000
0001
0010
0001
0000
,
0100
0000
0000
0000
0010
0100
0010
0000
,
1000
0000
0000
0000
1000
0100
1000
0000
,
0100
0010
0001
0100
,
0001
0010
0000
1000
,
1000
0010
0000
0100
,
0100
0001
0000
0010
,
0010
0100
0000
0010
,
1001
0000
0000
0000
0001
0010
0001
0000
,
0100
0000
0000
0000
0010
0100
0010
0000
,
1000
0000
0000
0000
1000
0100
1000
0000
,
0100
0010
0001
0100
;

//---------------dance-single - ----------------
#NOTES:
     dance-single:
     :
     Hard:
     7:
     0.335,0.388,0.180,0.000,0.000: // measure 1
0000
0000
0000
0000
,  // measure 2
0000
0000
0000
0000
,  // measure 3
0000
0000
0000
0000
,  // measure 4
0000
0000
0000
0000
,  // measure 5
0000
0000
0000
0000
,  // measure 6
0000
0000
0000
0000
,  // measure 7
0000
0000
0000
0000
,  // measure 8
0000
0000
0000
0000
,  // measure 9
0000
0000
0000
0000
,  // measure 10
1000
0000
0100
0010
0000
0010
0001
0000
,  // measure 11
0100
0000
0010
1000
0000
1000
0100
0000
,  // measure 12
0010
0000
0001
0100
0000
0100
0010
0000
,  // measure 13
1000
0000
0100
0001
0000
0001
0100
0000
,  // measure 14
1001
0000
1000
0100
0000
0010
0000
0001
,  // measure 15
0100
0000
0010
1000
0000
0100
0000
0010
,  // measure 16
0001
0000
0000
1000
0000
0001
0000
1000
,  // measure 17
0100
0000
0010
0000
0001
1000
0100
0000
,  // measure 18
1100
0000
0000
1000
0000
0000
1000
0000
,  // measure 19
0011
0000
0000
0100
0000
0000
0100
0000
,  // measure 20
0110
0000
0000
1000
0000
0000
0001
0000
,  // measure 21
0101
0000
0000
0001
0000
0000
1000
0100
,  // measure 22
1001
0000
0000
0001
0000
0100
0000
0010
,  // measure 23
1001
0000
0000
1000
0000
0100
0000
0010
,  // measure 24
1001
0000
0000
0001
0000
0100
0001
1000
,  // measure 25
0110
0000
0000
1000
0000
0001
1000
0100
,  // measure 26
1100
1000
0000
0100
0000
0001
0100
0000
,  // measure 27
0101
0001
0000
0010
0000
0010
1000
0000
,  // measure 28
1010
1000
0000
0001
0000
0010
0100
0000
,  // measure 29
0011
0001
0000
1000
0000
0010
0100
0000
,  // measure 30
1001
0000
0000
0000
,  // measure 31
0100
1000
0000
1000
0000
0010
0000
1000
,  // measure 32
0001
0000
0000
0010
0000
0010
0000
0001
,  // measure 33
1000
0100
0000
1000
0000
1000
0000
0001
,  // measure 34
1000
0000
0010
0100
0000
0100
0001
0000
,  // measure 35
0010
0000
0100
1000
0000
1000
0010
0000
,  // measure 36
0100
0000
0001
0010
0000
0010
0100
0000
,  // measure 37
1000
0000
0010
0001
0000
0001
0010
0000
,  // measure 38
1001
0000
1000
0100
0000
0010
0000
0001
,  // measure 39
0100
0000
0010
1000
0000
0100
0000
0010
,  // measure 40
0001
0000
0000
1000
0000
0001
0000
1000
,  // measure 41
0100
0000
0010
0000
0001
1000
0100
0000
,  // measure 42
1000
0000
1000
0100
0000
0000
1100
0000
,  // measure 43
1000
0001
1000
0001
0000
0000
1001
0000
,  // measure 44
0001
0000
0001
0100
0000
0000
0101
0000
,  // measure 45
0001
1000
0001
1000
0000
0000
1001
0000
,  // measure 46
1000
0000
0000
0100
0000
0000
1000
0000
,  // measure 47
0010
0000
0000
0100
0000
0000
0010
0000
,  // measure 48
0001
0000
0000
0100
0000
0000
0001
0000
,  // measure 49
1000
0000
0000
0001
0000
0000
1000
0000
,  // measure 50
0100
0000
0100
1000
0010
1000
0100
0000
,  // measure 51
0010
0000
0001
0000
0000
0100
0010
0000
,  // measure 52
1000
0000
0001
0100
0000
0001
0010
0001
,  // measure 53
0100
0000
0010
1000
0000
0100
0010
0000
,  // measure 54
1001
0000
1000
0100
0000
0010
0000
0001
,  // measure 55
0100
0000
0010
1000
0000
0100
0000
0010
,  // measure 56
0001
0000
0000
1000
0000
0001
0000
1000
,  // measure 57
0100
0000
0010
0000
0001
1000
0100
0000
,  // measure 58
0001
0000
0010
0100
0000
0100
1000
0000
,  // measure 59
0010
0000
0100
0001
0000
0001
0010
0000
,  // measure 60
0100
0000
1000
0010
0000
0010
0100
0000
,  // measure 61
0001
0000
0010
1000
0000
1000
0010
0000
,  // measure 62
1001
0000
1000
0100
0000
0010
0000
0001
,  // measure 63
0100
0000
0010
1000
0000
0100
0000
0010
,  // measure 64
0001
0000
0000
1000
0000
0001
0000
1000
,  // measure 65
0100
0000
0010
0000
0001
1000
0100
0000
;
