#TITLE:Plastic Beach;
#SUBTITLE:;
#ARTIST:Gorillaz (feat. Mick Jones & Paul Simonon);
#TITLETRANSLIT:;
#SUBTITLETRANSLIT:;
#ARTISTTRANSLIT:;
#CREDIT:;
#BANNER:;
#BACKGROUND:Plastic Beach-bg.png;
#LYRICSPATH:;
#CDTITLE:./CDTITLES/DanceDanceRevolution 2010.png;
#MUSIC:Plastic Beach.mp3;
#OFFSET:2.565;
#SAMPLESTART:30.056;
#SAMPLELENGTH:15.000;
#SELECTABLE:YES;
#BPMS:0.000=91.880;
#STOPS:;
#BGCHANGES:;

//---------------dance-single - ----------------
#NOTES:
     dance-single:
     :
     Beginner:
     1:
     0.070,0.096,0.000,0.000,0.000:
0000
0000
0000
0000
,
0000
0000
0000
0000
,
0000
0000
0000
0000
,
0000
0000
0000
0000
,
0000
0000
0000
0000
,
1000
0000
0000
0000
,
1000
0000
0000
0000
,
0001
0000
0000
0000
,
0001
0000
0000
0000
,
1000
0000
0000
0000
,
1000
0000
0000
0000
,
0001
0000
0000
0000
,
0001
0000
0000
0000
,
1000
0000
0000
0000
,
0000
0000
0001
0001
,
0001
0000
0000
0000
,
0000
0000
1000
1000
,
1000
0000
0000
0000
,
0000
0000
0001
0001
,
0001
0000
0000
0000
,
0000
0000
1000
1000
,
1000
0000
0000
0000
,
0001
0000
0001
0000
,
0001
0000
0000
0000
,
1000
0000
1000
0000
,
1000
0000
0000
0000
,
0001
0000
0001
0000
,
0001
0000
0000
0000
,
1000
0000
0000
0000
,
0001
0000
0000
0000
,
0000
0000
1000
1000
,
1000
0000
0000
0000
,
0000
0000
0001
0001
,
0001
0000
0000
1000
,
1000
1000
0000
0000
,
0000
0000
0001
0001
,
0001
0000
0000
0000
,
0000
0000
0000
0000
,
0001
0001
0001
0000
,
0000
0000
0000
0000
,
1000
1000
1000
0000
,
0000
0000
0000
0000
,
0001
0001
0001
0000
,
0000
0000
0000
0000
,
1000
1000
1000
1000
;

//---------------dance-single - ----------------
#NOTES:
     dance-single:
     :
     Easy:
     3:
     0.109,0.115,0.000,0.034,0.000:
0000
0000
0000
0000
,
0000
0000
0000
0000
,
0000
0000
0000
0000
,
0000
0000
0000
0000
,
0000
0000
0000
0000
,
1000
0000
0010
0000
,
2000
0000
0000
3000
,
1000
0000
0100
0000
,
0020
0000
0000
0030
,
0001
0000
0010
0000
,
0200
0000
0000
0300
,
0001
0000
0100
0000
,
0002
0000
0000
0003
,
1000
0000
0000
0010
,
0010
0000
0000
0100
,
0100
0000
0000
0001
,
0001
0000
0000
1000
,
1000
0000
0000
0100
,
0100
0000
0000
0010
,
0010
0000
0000
0001
,
0001
0000
0000
1000
,
0001
0001
1000
0000
,
0000
0000
0100
0100
,
1000
1000
0001
0000
,
0000
0000
0010
0010
,
0001
0001
1000
0000
,
0000
0000
0010
0010
,
1000
1000
0001
0000
,
0100
0100
0100
0000
,
1000
0000
0000
0001
,
0001
0000
0000
0100
,
0100
0000
0000
1000
,
1000
0000
0000
1000
,
1000
0000
0000
0100
,
0100
0000
0000
0010
,
0010
0000
0000
0001
,
0001
0000
0000
1000
,
0001
0001
0001
0100
,
0000
0000
0000
0000
,
0001
0001
0001
0010
,
0000
0000
0000
0000
,
1000
1000
1000
0100
,
0000
0000
0000
0000
,
1000
1000
1000
0010
,
1000
0100
0010
0001
;

//---------------dance-single - ----------------
#NOTES:
     dance-single:
     :
     Medium:
     5:
     0.177,0.192,0.000,0.060,0.000:
0000
0000
0000
0000
,
0000
0000
0000
0000
,
0000
0000
0000
0000
,
0000
0000
0000
0000
,
0000
0000
0000
0000
,
1000
0100
0010
0001
,
2000
0000
0001
3001
,
1000
0001
0100
0010
,
2000
0000
0100
3100
,
0001
0100
0010
1000
,
0002
0000
1000
1003
,
0001
1000
0100
0010
,
0002
0000
0000
0003
,
1000
0000
0100
0100
,
0010
0000
0010
0001
,
0001
0000
0100
0100
,
0010
0000
0010
1000
,
1000
0000
0010
0010
,
0100
0000
0100
0001
,
0001
0000
0010
0010
,
0100
0000
0100
1000
,
0010
0010
1000
1000
,
0010
0000
0010
0000
1000
0001
1000
0000
,
0100
0100
1000
1000
,
0100
0000
0100
0000
1000
0001
1000
0000
,
0010
0010
0001
0001
,
0010
0000
0010
0000
0001
1000
0001
0000
,
0100
0100
0001
0001
,
0100
0100
0100
0000
,
1000
0000
0001
0010
,
0001
0000
1000
0100
,
1000
0000
0001
0010
,
0001
0000
1000
0100
,
1000
0000
0010
0010
,
0100
0000
0100
0001
,
0001
0000
0010
0010
,
0100
0000
0100
1000
,
0001
0000
0100
0000
0001
0000
0010
0200
,
0000
0000
0000
0300
0000
1000
0001
0000
,
0001
0000
0010
0000
0001
0000
0100
0020
,
0000
0000
0000
0030
0000
1000
0001
0000
,
1000
0000
0100
0000
1000
0000
0010
0200
,
0000
0000
0000
0300
0000
0001
1000
0000
,
1000
0010
1000
0100
,
1000
0000
0100
0000
0010
0000
0001
0001
;

//---------------dance-single - ----------------
#NOTES:
     dance-single:
     :
     Hard:
     6:
     0.271,0.307,0.077,0.034,0.017: // measure 1
0000
0000
0000
0000
,  // measure 2
0000
0000
0000
0000
,  // measure 3
0000
0000
0000
0000
,  // measure 4
0000
0000
0000
0000
,  // measure 5
0000
0000
0000
0000
,  // measure 6
1000
0100
0010
0001
1000
0100
0010
0001
,  // measure 7
1000
0100
0010
0001
,  // measure 8
1000
0001
0100
0010
1000
0001
0100
0010
,  // measure 9
1000
0001
0100
0010
,  // measure 10
0001
0010
0100
1000
0001
0010
0100
1000
,  // measure 11
0001
0010
0100
1000
,  // measure 12
0001
1000
0100
0010
0001
1000
0100
0010
,  // measure 13
0200
0000
0000
0300
,  // measure 14
1000
0100
1000
0010
,  // measure 15
0100
0000
0001
0000
0010
0100
1000
0000
,  // measure 16
0001
0100
0001
0010
,  // measure 17
0100
0000
1000
0000
0010
0100
0001
0000
,  // measure 18
1000
0010
1000
0100
,  // measure 19
0010
0000
0001
0000
0100
0010
1000
0000
,  // measure 20
0001
0010
0001
0100
,  // measure 21
0010
0000
1000
0000
0100
0010
0001
0000
,  // measure 22
1000
0100
1000
0000
0001
0010
0001
0000
,  // measure 23
0100
0010
0100
0000
1100
1100
0101
0000
,  // measure 24
1000
0010
1000
0000
0001
0100
0001
0000
,  // measure 25
0010
0100
0010
0000
1010
1010
0011
0000
,  // measure 26
0001
0100
0001
0000
1000
0010
1000
0000
,  // measure 27
0100
0010
0100
0000
0101
0101
1100
0000
,  // measure 28
1000
0010
1000
0000
0001
0100
0001
0000
,  // measure 29
0010
0100
0010
0000
1000
0100
0010
0001
,  // measure 30
1000
0100
0001
0100
,  // measure 31
1000
0000
0010
0000
1000
0010
0100
0000
,  // measure 32
0001
0100
1000
0100
,  // measure 33
0001
0000
0010
0000
0001
0010
0100
0000
,  // measure 34
1000
0010
1000
0100
,  // measure 35
0010
0000
0001
0000
0100
0010
1000
0000
,  // measure 36
0001
0010
0001
0100
,  // measure 37
0010
0000
1000
0000
0100
0010
0001
0000
,  // measure 38
0001
0000
0000
0000
0010
0000
0000
0010
0001
0000
1000
0000
0010
0000
0200
0000
,  // measure 39
0000
0000
0000
0300
0010
0010
0010
0000
,  // measure 40
0001
0000
0000
0000
0100
0000
0000
0100
0001
0000
1000
0000
0100
0000
0020
0000
,  // measure 41
0000
0000
0000
0030
0100
0100
0100
0000
,  // measure 42
1000
0000
0000
0000
0010
0000
0000
0010
1000
0000
0001
0000
0010
0000
0200
0000
,  // measure 43
0000
0000
0000
0300
0010
0010
0010
0000
,  // measure 44
1000
0000
0000
0000
0100
0000
0000
0100
1000
0000
0001
0000
0100
0000
0000
0000
,  // measure 45
0010
0100
1000
0000
1000
0100
0010
0001
;
