#TITLE:Need You Now;
#SUBTITLE:;
#ARTIST:Lady Antebellum;
#TITLETRANSLIT:;
#SUBTITLETRANSLIT:;
#ARTISTTRANSLIT:;
#CREDIT:;
#BANNER:;
#BACKGROUND:Need You Now-bg.png;
#LYRICSPATH:;
#CDTITLE:./CDTITLES/DanceDanceRevolution 2010.png;
#MUSIC:Need You Now.mp3;
#OFFSET:2.165;
#SAMPLESTART:39.478;
#SAMPLELENGTH:15.000;
#SELECTABLE:YES;
#BPMS:0.000=108.000;
#STOPS:;
#BGCHANGES:;

//---------------dance-single - ----------------
#NOTES:
     dance-single:
     :
     Beginner:
     1:
     0.092,0.106,0.000,0.000,0.000:
0000
0000
0000
0000
,
0000
0000
0000
0000
,
0000
0000
0000
0000
,
0000
0000
0000
0000
,
0000
0000
0000
0000
,
0000
0000
0000
1000
,
0000
0000
0000
0001
,
0000
0000
0000
0010
,
0000
0000
0000
0100
,
0000
0000
0000
1000
,
0000
0000
0000
0001
,
0000
0000
0000
0010
,
0000
0000
0000
0000
,
0000
1000
0000
0001
,
0000
0001
0000
1000
,
0000
0010
0000
0010
,
0000
0010
0000
0000
,
0000
1000
0000
0001
,
0000
0000
0000
0000
,
0000
1000
0000
0010
,
0000
0001
0000
0010
,
0000
1000
1000
1000
,
0000
0001
0001
0001
,
0000
1000
0000
0010
,
0000
0001
0000
0010
,
0000
1000
1000
1000
,
0000
0001
0001
0001
,
0000
0010
0000
0100
,
0000
0010
0000
0000
,
0000
0000
0000
0000
,
0000
1000
0000
0100
,
0000
0001
0000
0100
,
0000
0010
0000
1000
,
0000
0010
0000
0001
,
0000
1000
0000
0100
,
0000
0001
0000
0100
,
0000
0010
0000
1000
,
0001
0000
0000
0000
,
0000
0010
0000
1000
,
0000
0010
0000
0001
,
0000
0100
0000
0100
,
0000
0100
0000
0000
,
0000
0010
0000
1000
,
0000
0010
0000
0001
,
0000
0100
0000
0100
,
0000
0100
0000
0010
,
0010
0000
0000
0000
;

//---------------dance-single - ----------------
#NOTES:
     dance-single:
     :
     Easy:
     3:
     0.156,0.190,0.018,0.046,0.000:
0000
0000
0000
0000
,
0000
0000
0000
0000
,
0000
0000
0000
0000
,
0000
0000
0000
0000
,
0000
0000
0000
0000
,
0000
1000
0000
0001
,
0000
0010
0000
0010
,
0000
0100
0100
0100
,
0000
0010
0010
0010
,
0000
1000
0000
0001
,
0000
0010
0000
0010
,
0000
0100
0100
0100
,
0000
1000
0001
1000
,
0000
0001
0000
0010
,
0000
1000
0000
0010
,
0000
0001
0000
0001
,
0000
1000
0000
1000
,
0000
0001
0000
0010
,
0010
0000
0000
0000
,
1000
0010
0010
0000
,
0100
0100
0001
0000
,
1000
1000
0001
0001
,
1000
0001
1000
0000
,
0001
0010
0010
0000
,
0100
0100
1000
0000
,
0001
0001
1000
1000
,
0001
1000
0001
0000
,
2000
3000
0002
0003
,
0020
0030
0200
0300
,
0020
0000
0000
0030
,
0001
0001
0001
0001
,
0001
0100
0100
0000
,
1000
1000
1000
1000
,
1000
0100
0100
0000
,
0001
0001
0001
0001
,
0001
0100
0100
0000
,
1000
1000
1000
1000
,
1000
0001
1001
0000
,
0010
0000
0010
0000
,
0010
0010
1000
0000
,
0100
0000
0100
0000
,
0100
0100
1000
0000
,
0010
0000
0010
0000
,
0010
0010
0001
0000
,
0100
0000
0100
0000
,
0100
0100
0100
0010
,
1001
0000
0000
0000
;

//---------------dance-single - ----------------
#NOTES:
     dance-single:
     :
     Medium:
     5:
     0.284,0.295,0.064,0.294,0.000:
0000
0000
0000
0000
,
0000
0000
0000
0000
,
0000
0000
0000
0000
,
0000
0000
0000
0000
,
0000
0000
0000
0000
,
1000
0100
0001
0100
,
1000
0000
1000
0010
0100
0000
0010
0000
,
1000
0000
1000
0000
0001
0100
1000
0000
,
0010
0000
0010
0000
1000
0100
0001
0000
,
0001
0100
1000
0100
,
0001
0000
0001
0010
0100
0000
0010
0000
,
0001
0000
0001
0000
1000
0100
0001
0000
,
0100
0000
1000
0000
0001
0100
1000
0000
,
0200
0310
0200
0310
,
2000
3100
2000
3010
,
2000
0000
3200
0000
,
0320
0000
0031
0001
,
0200
0310
0200
0310
,
0020
0000
0000
0030
,
0100
0000
1000
0100
0020
0000
0130
0000
,
1000
0000
0010
0100
0020
0000
0130
0000
,
0001
0100
0001
1000
,
0100
0010
0001
1000
,
0100
0000
0001
0100
0020
0000
0130
0000
,
0001
0000
0010
0100
0020
0000
0130
0000
,
1000
0100
1000
0001
,
0100
0010
0100
0001
,
0101
0100
0010
1000
,
1010
0010
1000
0001
,
2002
0000
0000
3003
,
0100
0010
0100
0000
0100
0010
0100
0000
,
2000
3020
0230
0301
,
1000
0001
1000
0000
1000
0001
1000
0000
,
0010
0001
1000
0110
,
0100
0010
0100
0000
0100
0010
0100
0000
,
0002
0023
0230
1300
,
0001
1000
0001
0000
0001
1000
0001
0000
,
0100
0000
0100
0000
0100
0010
0000
0000
,
0200
0000
0310
0000
1000
0010
1000
0000
,
0020
0230
0302
1003
,
0200
0000
0310
0000
0001
0100
0001
0000
,
1000
0001
0100
0110
,
0200
0000
0310
0000
0001
0010
0001
0000
,
0020
0230
2300
3001
,
0200
0000
0310
0000
1000
0100
1000
0000
,
0001
1000
0100
1001
,
0110
0000
0000
0000
;

//---------------dance-single - ----------------
#NOTES:
     dance-single:
     :
     Hard:
     7:
     0.379,0.359,0.193,0.349,0.000: // measure 1
0000
0000
0000
0000
,  // measure 2
0000
0000
0000
0000
,  // measure 3
0000
0000
0000
0000
,  // measure 4
0000
0000
0000
0000
,  // measure 5
0000
0000
0000
0000
,  // measure 6
1000
0100
0010
0100
2000
0000
3100
0000
,  // measure 7
0010
0001
0100
0001
0020
0000
0031
0000
,  // measure 8
0100
0000
0010
0000
0001
0010
1000
0010
,  // measure 9
0100
0000
0001
0000
0010
1000
0010
0001
,  // measure 10
0001
0100
0010
0100
0002
0000
0103
0000
,  // measure 11
0010
1000
0100
1000
0020
0000
1030
0000
,  // measure 12
0100
0000
0010
0000
1000
0010
0001
0010
,  // measure 13
1000
0100
1000
0010
0100
0001
0010
0100
,  // measure 14
2000
0000
3100
0000
0002
0100
0103
0000
,  // measure 15
0020
0000
1030
0000
0200
0001
0301
0000
,  // measure 16
0020
0000
2000
0030
,  // measure 17
0200
3000
0001
1300
,  // measure 18
0002
0103
2000
3100
,  // measure 19
0022
0000
0000
0033
,  // measure 20
0100
1000
0001
0100
0120
0000
1030
0100
,  // measure 21
0010
0001
0100
0010
0100
1000
0100
0001
,  // measure 22
0012
0000
0100
0000
1003
0000
0100
0010
,  // measure 23
1020
1000
0100
0130
,  // measure 24
0100
0001
1000
0100
0120
0000
0031
0100
,  // measure 25
0010
1000
0100
0010
0100
0001
0100
1000
,  // measure 26
2010
0000
0100
0000
3001
0000
0100
0010
,  // measure 27
0120
0100
0001
0031
,  // measure 28
2100
0000
3020
0000
0130
0001
0010
0000
,  // measure 29
0012
0000
0203
0000
0310
1000
0001
0000
,  // measure 30
0200
0000
0000
0300
,  // measure 31
0010
1000
0010
1000
0010
1000
0010
1000
,  // measure 32
0020
0000
2030
0000
3200
0000
0310
0001
,  // measure 33
0100
0010
0100
0010
0100
0010
0100
0010
,  // measure 34
1000
1100
0011
0110
,  // measure 35
0010
0001
0010
0001
0010
0001
0010
0001
,  // measure 36
0020
0000
0032
0000
0203
0000
0310
1000
,  // measure 37
0100
0010
0100
0010
0100
0010
0100
0010
,  // measure 38
0001
0100
0100
0100
0100
0110
0000
0000
,  // measure 39
1001
0000
0010
0100
1000
0010
0100
0001
,  // measure 40
0020
0000
0032
0000
0203
0000
0301
1000
,  // measure 41
0100
0010
0001
0100
0010
0100
0001
0010
,  // measure 42
0001
1100
1010
0101
,  // measure 43
1001
0000
0010
0100
0001
0010
0100
1000
,  // measure 44
0020
0000
2030
0000
3200
0000
1300
0001
,  // measure 45
0100
0010
1000
0100
0010
0100
1000
0010
,  // measure 46
1000
0001
0110
1001
,  // measure 47
0110
0000
0000
0000
;
