#TITLE:My Life Would Suck Without You;
#SUBTITLE:;
#ARTIST:Kelly Clarkson;
#TITLETRANSLIT:;
#SUBTITLETRANSLIT:;
#ARTISTTRANSLIT:;
#CREDIT:;
#BANNER:;
#BACKGROUND:My Life Would Suck Without You-bg.png;
#LYRICSPATH:;
#CDTITLE:./CDTITLES/DanceDanceRevolution 2010.png;
#MUSIC:My Life Would Suck Without You.mp3;
#OFFSET:1.588;
#SAMPLESTART:27.290;
#SAMPLELENGTH:15.000;
#SELECTABLE:YES;
#BPMS:0.000=145.000;
#STOPS:;
#BGCHANGES:;

//---------------dance-single - ----------------
#NOTES:
     dance-single:
     :
     Beginner:
     2:
     0.093,0.172,0.044,0.000,0.000:
0000
0000
0000
0000
,
0000
0000
0000
0000
,
0000
0000
0000
0000
,
0000
0000
0000
0000
,
0000
0000
0000
0000
,
0000
0000
0000
0000
,
0000
0000
0000
0000
,
0000
0000
0000
0000
,
0000
0000
0000
0000
,
0001
0000
0000
0000
,
0000
0000
0000
0000
,
1000
0000
0000
0000
,
0000
0000
0000
0000
,
0010
0000
0000
0000
,
0010
0000
0000
0000
,
1000
0000
0000
0000
,
1001
0000
0000
0000
,
0000
0000
0000
0000
,
1000
0000
1000
0000
,
1000
0000
0000
0000
,
0001
0000
0001
0000
,
0010
0000
0000
0000
,
0001
0000
0001
0000
,
0001
0000
0000
0000
,
1000
0000
1000
0000
,
0010
0000
0000
0000
,
1000
0000
1000
0000
,
0001
0000
0001
0000
,
1000
0000
0001
0000
,
1000
0000
0000
0000
,
0010
0010
0000
0000
,
0010
0010
0000
0000
,
0010
0010
0000
0000
,
1001
0000
0000
0000
,
0001
0000
0000
0000
,
0000
0000
0000
0000
,
1000
0000
0000
0000
,
0000
0000
0000
0000
,
0010
0000
0000
0000
,
0010
0000
0000
0000
,
1000
0000
0000
0000
,
1001
0000
0000
0000
,
1000
0000
0000
0000
,
0000
0000
0000
0000
,
0001
0000
0000
0000
,
0000
0000
0000
0000
,
0010
0000
0000
0000
,
0010
0000
0000
0000
,
0001
0000
0000
0000
,
1001
0000
0000
0000
,
0000
0000
0000
0000
,
1000
0000
1000
0000
,
1000
0000
0000
0000
,
0001
0000
0001
0000
,
0010
0000
0000
0000
,
0001
0000
0001
0000
,
0001
0000
0000
0000
,
1000
0000
1000
0000
,
0010
0000
0000
0000
,
1000
0000
1000
0000
,
0001
0000
0001
0000
,
1000
0000
0001
0000
,
1000
0000
0000
0000
,
0010
0010
0000
0000
,
0010
0010
0000
0000
,
0010
0010
0000
0000
,
1001
0000
0000
0000
;

//---------------dance-single - ----------------
#NOTES:
     dance-single:
     :
     Easy:
     4:
     0.213,0.292,0.044,0.278,0.000: // measure 1
0000
0000
0000
0000
,  // measure 2
0000
0000
0000
0000
,  // measure 3
0000
0000
0000
0000
,  // measure 4
0000
0000
0000
0000
,  // measure 5
0000
0000
0000
0000
,  // measure 6
0000
0000
0000
0000
,  // measure 7
0000
0000
0000
0000
,  // measure 8
0000
0000
0000
0000
,  // measure 9
0000
0000
0000
0000
,  // measure 10
1000
0000
0010
0000
,  // measure 11
0001
0000
0010
0000
,  // measure 12
0001
0001
0001
0000
,  // measure 13
0100
0000
0100
0000
,  // measure 14
0010
0100
0010
0000
,  // measure 15
1000
0001
0100
0000
,  // measure 16
0001
0001
1000
1000
,  // measure 17
0002
0003
2000
3000
,  // measure 18
1001
0000
0000
0000
,  // measure 19
2000
0000
0000
3000
,  // measure 20
0001
1000
0100
0000
,  // measure 21
0002
0000
0000
0003
,  // measure 22
0100
0010
1000
0000
,  // measure 23
0002
0000
0000
0003
,  // measure 24
1000
0001
0100
0000
,  // measure 25
2000
0000
0000
3000
,  // measure 26
0100
0010
0001
0000
,  // measure 27
2000
3000
0002
0003
,  // measure 28
1000
1000
1000
0000
,  // measure 29
0200
0300
0020
0030
,  // measure 30
0001
1000
1001
0000
,  // measure 31
0001
0002
0000
0003
,  // measure 32
0100
0020
0000
0030
,  // measure 33
1000
2000
0000
3000
,  // measure 34
0002
0003
0200
0300
,  // measure 35
0001
0000
0100
0000
,  // measure 36
1000
0000
0100
0000
,  // measure 37
1000
1000
1000
0000
,  // measure 38
0010
0000
0010
0000
,  // measure 39
0100
0010
0100
0000
,  // measure 40
0001
1000
0010
0000
,  // measure 41
1000
1000
0001
0001
,  // measure 42
2000
3000
0002
0003
,  // measure 43
0001
0000
0010
0000
,  // measure 44
1000
0000
0010
0000
,  // measure 45
1000
1000
1000
0000
,  // measure 46
0100
0000
0100
0000
,  // measure 47
0010
0100
0010
0000
,  // measure 48
0001
1000
0100
0000
,  // measure 49
1000
1000
0001
0001
,  // measure 50
2000
3000
0002
0003
,  // measure 51
1001
0000
0000
0000
,  // measure 52
2000
0000
0000
3000
,  // measure 53
0001
1000
0100
0000
,  // measure 54
0002
0000
0000
0003
,  // measure 55
0100
0010
1000
0000
,  // measure 56
0002
0000
0000
0003
,  // measure 57
1000
0001
0100
0000
,  // measure 58
2000
0000
0000
3000
,  // measure 59
0100
0010
0001
0000
,  // measure 60
2000
3000
0002
0003
,  // measure 61
1000
1000
1000
0000
,  // measure 62
0200
0300
0020
0030
,  // measure 63
0001
1000
1001
0000
,  // measure 64
0001
0002
0000
0003
,  // measure 65
0100
0020
0000
0030
,  // measure 66
1000
2000
0000
3000
,  // measure 67
0002
0003
0200
0300
,  // measure 68
1001
0000
0000
0000
;

//---------------dance-single - ----------------
#NOTES:
     dance-single:
     :
     Medium:
     5:
     0.282,0.354,0.044,0.296,0.000:
0000
0000
0000
0000
,
0000
0000
0000
0000
,
0000
0000
0000
0000
,
0000
0000
0000
0000
,
0000
0000
0000
0000
,
0000
0000
0000
0000
,
0000
0000
0000
0000
,
0000
0000
0000
0000
,
0000
0000
0000
0000
,
1000
0000
1000
0000
,
0010
0000
0100
0000
,
0001
0010
0001
0000
,
1000
0001
0100
0000
,
0001
1000
0100
0100
,
1000
0001
0100
0000
,
0001
0010
0001
0000
0100
0000
0100
0000
,
1000
0000
1000
0000
0001
1000
0001
0000
,
1001
0000
0000
0000
,
1000
0002
0003
0001
,
1000
0100
1000
0000
0000
0000
0001
0000
,
2000
0000
3200
0300
,
1000
0100
0010
0000
0200
0000
0300
0000
,
0001
2000
3000
1000
,
0001
0100
0001
0000
0000
0000
1000
0000
,
0002
0000
0203
0300
,
0001
0100
0010
0000
0200
0000
0300
0000
,
2000
0000
3001
0000
,
0001
1000
0001
1000
,
0200
0000
0310
0001
,
0001
0100
0010
0000
1001
0000
0000
0000
,
0002
0000
0203
0300
,
0020
0000
1030
1000
,
0001
2000
3001
0002
,
1003
1000
0200
0310
,
0001
0000
0001
0000
,
0100
0000
0010
0000
,
1000
0100
1000
0000
,
0001
1000
0010
0000
,
1000
0001
0010
0010
,
0001
1000
0010
0000
,
1000
0100
1000
0000
0010
0000
0010
0000
,
0001
0000
0001
0000
1000
0001
1000
0000
,
0001
0000
0001
0000
,
0010
0000
0100
0000
,
1000
0010
1000
0000
,
0001
1000
0100
0000
,
1000
0001
0100
0100
,
0001
1000
0100
0000
,
1000
0010
1000
0000
0100
0000
0100
0000
,
0001
0000
0001
0000
1000
0001
1000
0000
,
1001
0000
0000
0000
,
0001
2000
3000
1000
,
0001
0010
0001
0000
0000
0000
1000
0000
,
0002
0000
0023
0030
,
0001
0010
0100
0000
0020
0000
0030
0000
,
1000
0002
0003
0001
,
1000
0010
1000
0000
0000
0000
0001
0000
,
2000
0000
3020
0030
,
1000
0010
0100
0000
0020
0000
0030
0000
,
0002
0000
1003
0000
,
1000
0001
1000
0001
,
0020
0000
0130
1000
,
1000
0010
0100
0000
1001
0000
0000
0000
,
2000
0000
3020
0030
,
0200
0000
0301
0001
,
1000
0002
1003
2000
,
3001
0001
0020
0130
,
2002
0000
0000
3003
;

//---------------dance-single - ----------------
#NOTES:
     dance-single:
     :
     Hard:
     7:
     0.434,0.501,0.070,0.444,0.000:
0000
0000
0000
0000
,
0000
0000
0000
0000
,
0000
0000
0000
0000
,
0000
0000
0000
0000
,
0000
0000
0000
0000
,
0000
0000
0000
0000
,
0000
0000
0000
0000
,
0000
0000
0000
0000
,
0000
0000
0000
0000
,
1000
0000
0100
0000
1000
0100
0001
0000
,
0010
0100
0010
1000
0001
0000
0000
0000
,
0010
0000
0100
0000
0010
0100
1000
0000
,
0001
0100
0010
1000
0001
0000
0000
0000
,
1000
0100
0001
0000
0000
0010
0100
0000
,
0001
0100
0010
0000
1000
0100
0010
0000
,
0001
0010
0001
1000
0001
0010
0001
0000
,
1000
0100
1000
0000
0001
0100
0001
0000
,
1100
0101
0000
0000
,
2000
0001
3200
1300
,
0020
0100
0032
0000
0000
0103
0001
0000
,
2000
0000
3020
0130
,
0001
0100
0010
1000
0200
0000
1300
0000
,
0002
1000
0203
0301
,
0020
0100
2030
0000
0000
3100
1000
0000
,
0002
0000
0023
0130
,
1000
0100
0010
0001
0200
0000
0301
0000
,
2000
0001
0100
3001
,
0200
0000
0310
0000
0001
0010
0100
0000
,
2100
0000
3200
0301
,
0001
0100
1000
0001
1001
0000
0000
0000
,
2000
0000
3100
1000
2000
0000
3100
0000
,
0002
0000
0103
0010
0002
0000
0103
0000
,
0100
0010
2000
0000
3001
0100
0002
0000
,
1003
0100
1000
0010
2000
0100
3001
0000
,
1000
0000
0010
0000
1000
0010
0001
0000
,
0100
0010
0100
1000
0001
0000
0000
0000
,
0100
0000
0010
0000
0100
0010
1000
0000
,
0001
0010
0100
1000
0001
0000
0000
0000
,
1000
0010
0001
0000
0000
0100
0010
0000
,
0001
0010
0100
0000
1000
0010
0100
0000
,
0001
0100
0001
1000
0001
0100
0001
0000
,
1000
0010
1000
0000
0001
0010
0001
0000
,
0001
0000
0100
0000
0001
0100
1000
0000
,
0010
0100
0010
0001
1000
0000
0000
0000
,
0010
0000
0100
0000
0010
0100
0001
0000
,
1000
0100
0010
0001
1000
0000
0000
0000
,
0001
0100
1000
0000
0000
0010
0100
0000
,
1000
0100
0010
0000
0001
0100
0010
0000
,
1000
0010
1000
0001
1000
0010
1000
0000
,
0001
0100
0001
0000
1000
0100
1000
0000
,
0101
1100
0000
0000
,
0002
1000
0023
0031
,
0200
0010
2300
0000
0000
3010
1000
0000
,
0002
0000
0203
0310
,
1000
0010
0100
0001
0020
0000
0031
0000
,
2000
0001
3020
1030
,
0200
0010
0302
0000
0000
0013
0001
0000
,
2000
0000
3200
0310
,
0001
0010
0100
1000
0020
0000
1030
0000
,
0002
1000
0010
1003
,
0020
0000
0130
0000
1000
0100
0010
0000
,
0012
0000
0023
1030
,
1000
0010
0001
1000
1001
0000
0000
0000
,
0002
0000
0013
0001
0002
0000
0013
0000
,
2000
0000
3010
0100
2000
0000
3010
0000
,
0010
0100
0002
0000
1003
0010
2000
0000
,
3001
0010
0001
0100
0002
0010
1003
0001
,
0200
0000
0000
0300
;
