#TITLE:Missing;
#SUBTITLE:;
#ARTIST:Everything But The Girl;
#TITLETRANSLIT:;
#SUBTITLETRANSLIT:;
#ARTISTTRANSLIT:;
#CREDIT:;
#BANNER:;
#BACKGROUND:Missing-bg.png;
#LYRICSPATH:;
#CDTITLE:./CDTITLES/DanceDanceRevolution 2010.png;
#MUSIC:Missing.mp3;
#OFFSET:1.892;
#SAMPLESTART:30.114;
#SAMPLELENGTH:15.000;
#SELECTABLE:YES;
#BPMS:0.000=123.660;
#STOPS:;
#BGCHANGES:;

//---------------dance-single - ----------------
#NOTES:
     dance-single:
     :
     Beginner:
     1:
     0.097,0.145,0.000,0.079,0.000:
0000
0000
0000
0000
,
0000
0000
0000
0000
,
0000
0000
0000
0000
,
0000
0000
0000
0000
,
0000
0000
0000
0000
,
1000
0000
0000
0000
,
0000
0000
0000
0000
,
0001
0000
0000
0000
,
0000
0000
0000
0000
,
1000
0000
0000
0000
,
1000
0000
0000
0000
,
0001
0000
0000
0000
,
0001
0000
0000
0000
,
1000
0000
0001
0000
,
1000
0000
0001
0000
,
1000
1000
1000
0000
,
0001
0001
0001
0000
,
2000
0000
3000
0000
,
0002
0000
0003
0000
,
0010
0000
0010
0000
,
0010
0000
0000
0000
,
2000
0000
3000
0000
,
0002
0000
0003
0000
,
0010
0000
0010
0000
,
0010
0000
0000
0000
,
1000
0000
0000
0000
,
0010
0000
0000
0000
,
0001
0000
0000
0000
,
0100
0000
0000
0000
,
1000
0000
1000
0000
,
0010
0000
0010
0000
,
0001
0000
0001
0000
,
0100
0000
0100
0000
,
1000
0000
0000
0000
,
0010
0000
0000
0000
,
0001
0000
0000
0000
,
0100
0000
0000
0000
,
1000
0000
1000
0000
,
0010
0000
0010
0000
,
0001
0000
0001
0000
,
0100
0000
0100
0000
,
2000
0000
3000
0000
,
0002
0000
0003
0000
,
0010
0000
0010
0000
,
0010
0000
0000
0000
,
2000
0000
3000
0000
,
0002
0000
0003
0000
,
0010
0000
0010
0000
,
0010
0000
0000
0000
,
0100
0000
0000
0000
;

//---------------dance-single - ----------------
#NOTES:
     dance-single:
     :
     Easy:
     2:
     0.141,0.193,0.020,0.039,0.000:
0000
0000
0000
0000
,
0000
0000
0000
0000
,
0000
0000
0000
0000
,
0000
0000
0000
0000
,
0000
0000
0000
0000
,
0001
0000
0000
0000
,
0010
0000
0000
0000
,
1000
0000
0000
0000
,
0100
0000
0000
0000
,
0001
0000
0001
0000
,
0010
0000
0010
0000
,
1000
0000
1000
0000
,
0100
0000
0100
0000
,
0001
0001
0001
0000
,
0010
0010
0010
0000
,
1000
1000
1000
0000
,
0100
0100
0100
0000
,
0010
0000
0001
0000
,
1000
0000
0010
0000
,
0100
0000
0010
0000
,
0100
0010
0100
0000
,
0010
0000
0001
0000
,
1000
0000
0010
0000
,
0100
0000
0010
0000
,
0100
0010
0100
0000
,
0001
0000
0000
0000
,
1000
0000
0100
0000
,
0001
0000
0100
0000
,
0010
0010
0100
0000
,
1000
0000
0100
0000
,
0001
0000
0100
0000
,
2000
0000
0000
0000
,
0002
0000
3003
0000
,
0001
0000
0100
0000
,
1000
0000
0100
0000
,
0002
0000
0000
0000
,
2000
0000
3003
0000
,
0100
0000
0001
0000
,
0010
0000
1000
0000
,
0001
1000
0001
0000
,
1000
0001
1000
0000
,
0010
0000
0001
0000
,
1000
0000
0010
0000
,
0100
0000
0010
0000
,
0100
0010
0100
0000
,
0010
0000
0001
1001
,
1000
0000
0010
0110
,
0100
0000
0010
0000
,
1000
0100
0010
0001
,
1000
0000
0000
0000
;

//---------------dance-single - ----------------
#NOTES:
     dance-single:
     :
     Medium:
     5:
     0.246,0.266,0.039,0.049,0.000:
0000
0000
0000
0000
,
0000
0000
0000
0000
,
0000
0000
0000
0000
,
0000
0000
0000
0000
,
0000
0000
0000
0000
,
1000
0000
0010
0000
0000
1000
1000
0000
,
0010
0000
0010
0000
0000
0100
0100
0000
,
0001
0000
1000
0000
0000
1000
0001
0000
,
0100
0000
0100
0000
0010
0100
0010
0000
,
1000
0001
0100
0010
,
1000
0000
0010
0000
0100
0001
0100
0000
,
0001
0010
0100
1000
,
0010
0000
0100
0000
0010
1000
0100
0000
,
0010
0001
1000
0100
,
1000
0000
0001
0000
0100
0010
0100
0000
,
0001
1000
0010
0001
,
0100
0000
0100
0000
0001
1000
0001
0000
,
0100
0000
0000
0000
0001
0100
0010
0000
,
1000
0000
0000
0000
1000
0100
0001
0000
,
1000
0001
0100
0100
,
0010
0100
0001
0000
,
0100
0000
0000
0000
1000
0100
0010
0000
,
0001
0000
0000
0000
0001
0100
1000
0000
,
0001
1000
0100
0110
,
0010
0010
0010
0000
,
0001
0000
0100
1000
,
0001
0000
1000
0100
,
0001
0000
0100
1001
,
0010
0100
0010
0010
,
1000
0000
0100
0001
,
1000
0000
0001
0100
,
0020
0000
1000
0000
,
0100
0100
0130
0000
,
0001
0000
0010
1000
,
0001
0000
1000
0010
,
0200
0000
0001
0000
,
0010
0010
0310
0000
,
1000
0000
0001
0001
,
0100
0000
0010
0010
,
1000
0000
0100
0100
,
1000
0001
1000
0000
,
0200
0000
0000
0000
0301
0100
0010
0000
,
1000
0000
0000
0000
1000
0100
0001
0000
,
1000
0001
0100
0100
,
0010
0100
0001
1001
,
0200
0000
0000
0000
1300
0100
0010
0000
,
0002
0000
0000
0003
0001
0100
1000
0000
,
0001
1000
0100
0110
,
1000
0100
0010
0000
0001
0100
0010
1000
,
0001
0000
0000
0000
;

//---------------dance-single - ----------------
#NOTES:
     dance-single:
     :
     Hard:
     6:
     0.315,0.338,0.079,0.059,0.010: // measure 1
0000
0000
0000
0000
,  // measure 2
0000
0000
0000
0000
,  // measure 3
0000
0000
0000
0000
,  // measure 4
0000
0000
0000
0000
,  // measure 5
0000
0000
0000
0000
,  // measure 6
0100
0000
0100
0000
0000
0010
0001
0000
,  // measure 7
1000
0000
1000
0000
0010
1000
0010
0000
,  // measure 8
0001
0000
0001
0000
0000
1000
0010
0000
,  // measure 9
0100
0000
0100
0000
0001
0100
0001
0000
,  // measure 10
0010
0001
1000
0010
,  // measure 11
1000
0000
0101
0000
1000
0001
1000
0010
,  // measure 12
1000
0100
0010
0001
,  // measure 13
0010
0000
1100
0000
0010
0100
0001
0010
,  // measure 14
0001
0010
1000
0100
,  // measure 15
0010
0000
0010
0000
0100
0010
0100
0010
,  // measure 16
1000
0001
0001
1000
,  // measure 17
0100
0000
0100
0000
1000
0001
1000
0001
,  // measure 18
0100
0000
1000
0020
0000
0130
0010
0000
,  // measure 19
1000
0000
0100
0010
0001
0010
0100
0000
,  // measure 20
1000
0000
0001
0000
0100
0001
0101
0000
,  // measure 21
0010
0000
0000
0000
1000
0000
0000
0000
0100
0000
0000
1000
0001
0000
0000
0000
,  // measure 22
0100
0000
0001
0020
0000
0130
0010
0000
,  // measure 23
0001
0000
0100
0010
1000
0010
0100
0000
,  // measure 24
0001
0000
1000
0000
0100
1000
1001
0000
,  // measure 25
0001
0000
1000
0000
0010
1000
0010
1000
,  // measure 26
0001
0000
0000
0000
0100
0000
0010
1000
,  // measure 27
0010
0000
0000
0000
0100
0000
0001
0010
,  // measure 28
0001
1100
0001
1100
,  // measure 29
0010
0000
1000
0000
0001
0100
0100
0000
,  // measure 30
1000
0000
0000
0000
0100
0000
0010
0001
,  // measure 31
0010
0000
0000
0000
0100
0000
1000
0010
,  // measure 32
0020
0100
1000
0100
,  // measure 33
0001
0100
0031
0000
,  // measure 34
0001
0000
0000
1000
0100
0000
0010
1000
,  // measure 35
0010
0000
0000
0001
0100
0000
0001
0010
,  // measure 36
0200
0000
0001
1000
,  // measure 37
0010
0010
1300
0000
,  // measure 38
0010
0000
1000
0001
,  // measure 39
0100
0000
0010
1000
,  // measure 40
0100
0000
0010
0001
,  // measure 41
1000
0001
1000
0000
,  // measure 42
0100
0000
1000
0020
0000
0130
0010
1000
,  // measure 43
1000
0000
0100
0010
0001
0010
0100
0000
,  // measure 44
1000
0000
0001
0000
0100
0001
0101
0000
,  // measure 45
0010
0000
0000
0000
1000
0000
0001
0000
0100
0000
0000
1000
0001
0000
0000
0000
,  // measure 46
0100
0000
0001
0020
0000
0130
0010
1000
,  // measure 47
0001
0000
0100
0010
0001
0010
0100
0000
,  // measure 48
0001
0000
1000
0000
0010
1000
1100
0000
,  // measure 49
0010
0100
0010
1000
0001
1000
0001
0010
,  // measure 50
0100
0000
0000
0000
;
