#TITLE:MAX 300;
#SUBTITLE:;
#ARTIST:Ω;
#TITLETRANSLIT:;
#SUBTITLETRANSLIT:;
#ARTISTTRANSLIT:OMEGA;
#CREDIT:;
#BANNER:MAX 300.png;
#BACKGROUND:MAX 300-bg.png;
#LYRICSPATH:;
#CDTITLE:./CDTITLES/DanceDanceRevolution 2010.PNG;
#MUSIC:MAX 300.mp3;
#OFFSET:-0.058;
#SAMPLESTART:0.020;
#SAMPLELENGTH:15.500;
#SELECTABLE:YES;
#DISPLAYBPM:300.000;
#BPMS:0.000=300.100,286.000=214.290,287.000=145.160,288.000=104.650,289.000=64.290,290.000=300.130;
#STOPS:290.000=1.200
;
#BGCHANGES:;

//---------------dance-single - ----------------
#NOTES:
     dance-single:
     :
     Easy:
     6:
     0.448,0.475,0.177,0.044,0.000:
0000
0000
0000
0000
,
0000
0000
0000
0000
,
0000
0000
0000
0000
,
0000
0000
0000
0000
,
1000
0000
1000
0000
,
0001
0000
0001
0000
,
1000
0000
0100
0000
,
0010
0001
1000
0000
,
0001
0000
0100
0000
,
0001
0000
0010
0000
,
0100
0000
1000
0000
,
0001
1000
0001
0000
,
1000
0100
1000
0000
,
0001
0010
0001
0000
,
1000
0100
1000
0100
,
0010
0001
0010
0000
,
0001
0000
0010
0000
,
0100
0000
1000
0000
,
0001
0010
0001
0000
,
1000
0100
1000
0100
,
0001
0000
0010
0000
,
0100
0000
1000
0000
,
0001
0010
0001
0000
,
1000
0100
1000
0100
,
0001
0000
0100
0000
,
0010
0000
1000
0000
,
0001
0100
0001
0000
,
1000
0010
1000
0010
,
1000
0000
1000
0000
,
0001
1000
0001
0000
,
1000
0000
0000
0001
0000
0000
1000
0000
,
0010
0100
0010
0000
,
1000
0100
0010
0000
,
0001
0000
1000
0000
,
0001
0100
0010
0000
,
1000
0000
0001
0000
,
1000
0100
0010
0000
,
0001
0000
0100
0000
,
0010
0000
1000
0000
,
0001
0100
1000
0000
,
0100
0000
0001
0000
,
1000
0100
0001
0000
,
0100
0000
1000
0000
,
0001
0100
0001
0000
,
1000
0100
1000
0000
,
0001
0100
0001
0000
,
1000
0010
1000
0000
,
0001
0010
0001
0000
,
1000
0100
1000
0000
,
0001
0100
0001
0000
,
1000
0010
1000
0000
,
0001
0010
0001
0000
,
1000
0100
0001
0000
,
0100
0000
1000
0000
,
0001
0100
1000
0000
,
0100
0000
0001
0000
,
1000
0100
1000
0000
,
0001
0010
0001
0000
,
1000
0100
0010
0001
,
1000
0100
1000
0000
,
0010
0001
0010
0000
,
0100
1000
0100
0000
,
0010
0001
1000
0100
,
0010
0001
0010
0000
,
0001
1000
0100
0000
,
1000
0001
0100
0000
,
0001
1000
0010
0100
,
0010
1000
0001
0000
,
1000
0001
0010
0000
,
0001
1000
0010
0000
,
1100
0000
0011
0000
,
0101
0000
2002
0000
,
0000
0000
3003
0001
,
0000
0001
0000
0000
,
1000
0001
0000
1000
,
0000
1000
0001
0000
,
0001
1000
0000
0001
,
0100
0010
1000
0000
,
0100
1000
0000
0001
,
0100
0010
1000
0000
,
0100
1000
0001
0010
,
0000
0010
0000
0000
,
0100
0010
0000
0100
,
0000
0100
0000
0000
,
0010
0100
0000
1000
,
1000
1000
1000
0000
,
0001
0001
0000
0010
,
0010
0010
0010
0000
,
0100
0100
0100
1000
,
0000
0001
0000
0000
1000
0000
1001
0000
,
0000
0000
0000
1000
,
0000
0100
0000
0000
1000
0000
1100
0000
,
0000
0000
0000
0001
,
0000
0100
0000
0000
0001
0000
0101
0000
,
0000
0000
0000
0010
,
0000
0100
0000
0000
0010
0000
0110
0000
,
0000
0000
0000
1000
,
0000
0100
0000
0000
0010
0000
0011
0000
,
0000
0000
0000
0001
,
0000
0100
0000
0000
0010
0000
1010
0000
,
0000
0000
0000
1000
,
0000
0001
0000
0000
0100
0000
0110
0000
,
0000
0000
0000
1001
,
0000
0000
0000
0110
,
0000
0000
0000
1100
,
0000
0101
0000
2002
,
0000
0000
0000
0000
,
0000
0000
3003
0000
;

//---------------dance-single - ----------------
#NOTES:
     dance-single:
     :
     Medium:
     8:
     0.667,0.831,0.144,0.409,0.033:
0000
0000
0000
0000
,
0000
0000
0000
0000
,
0000
0000
0000
0000
,
0000
0000
0000
0000
,
0001
0100
0020
0030
,
1000
0100
0020
0030
,
0001
1000
0001
1000
,
0001
1000
2000
3000
,
0001
0010
0200
0300
,
1000
0010
0200
0300
,
0001
1000
0001
1000
,
0001
1000
2000
3000
,
0010
1000
0001
0100
,
0010
1000
0001
0100
,
0001
0100
0010
1000
,
0001
0100
0010
1000
0001
0100
0010
1000
,
0010
1000
0010
1000
,
0001
0100
0001
0100
,
0010
1000
0100
0010
,
0001
1000
0100
0010
,
0001
1000
0002
0003
,
1000
0001
2000
3000
,
0001
1000
0001
1000
,
0110
0000
1001
0000
,
0010
0100
0020
0030
,
0100
0010
0200
0300
,
0010
0100
0020
0030
,
1001
0000
0110
0000
,
0001
1000
0002
0003
,
0010
0100
0020
0030
,
1000
0000
0000
0101
0000
0000
1100
0000
,
0010
0001
1000
0100
0010
0001
1000
0100
,
0010
0100
1000
0001
,
0100
0010
0100
0001
,
1000
0100
1000
0010
,
0100
0001
0100
0010
,
0100
0100
0010
0010
,
1000
1000
0001
0001
,
2000
3000
0100
0010
,
0001
0010
0200
0300
,
2000
3000
0100
0010
,
0001
1000
0200
0300
,
1000
0010
0100
0020
,
0000
0030
1000
0001
,
1000
0010
1000
0010
,
1000
0010
1000
0010
,
0100
0001
0100
0001
,
0100
0001
0100
0001
,
1000
0010
0100
0001
,
1000
0100
0010
0001
,
1000
0100
0001
0010
,
1000
0100
0001
0010
,
1000
0100
0010
0001
,
1000
0100
0010
0001
,
1000
0010
0200
0300
,
1010
0000
0101
0000
,
1000
0000
0010
0000
1000
0010
0000
0000
,
1000
0000
0100
0000
1000
0100
0000
0000
,
1000
0100
0010
0001
,
1000
0001
2000
3000
,
0001
0000
0010
0000
0001
0010
0000
0000
,
0001
0000
0100
0000
0001
0100
0000
0000
,
0001
0100
0010
1000
,
0001
1000
0002
0003
,
0010
0000
0100
0000
0010
0100
0000
0000
,
0001
0000
1000
0000
0001
1000
0000
0000
,
1000
0100
0010
0100
,
1000
0010
0200
0300
,
0001
1000
0200
0300
,
1000
0001
0200
0300
,
1000
0000
0000
0000
0000
0100
0000
0000
0000
0000
1000
0000
0000
0000
0000
0000
0001
0000
0000
0000
0000
0100
0000
0000
0000
0000
0001
0000
0000
0000
0000
0000
,
0100
0000
2002
0000
,
0000
0000
3003
0001
,
0010
0100
1000
0001
,
0100
0020
0030
1000
,
0100
0010
0001
1000
,
0100
0020
0030
0001
,
0100
0001
0100
0010
,
1000
0010
0000
1000
,
0100
1000
0100
0010
,
0001
0010
0001
1000
,
0001
1000
0001
1000
,
0001
0100
0010
0100
,
0010
0100
0000
0001
,
0001
0002
1003
1000
,
2000
3100
0100
0200
,
0310
0010
0020
0031
,
0100
0001
1000
0100
,
1000
0001
1000
0001
,
0000
0010
0000
0000
0010
0000
0001
0000
,
0000
1000
0000
0000
1000
0000
0001
0000
,
0000
0100
0000
0000
0100
0000
0001
0000
,
0000
0101
0000
0001
,
0000
0100
0000
0001
0100
0000
0001
0000
,
0000
1000
0000
0001
1000
0000
0001
0000
,
0000
0010
0000
0100
0010
0000
0002
0000
,
0000
0000
0003
1000
,
0000
0001
0000
0100
0010
0000
1000
0000
,
0000
0001
0000
0100
0010
0000
1000
0000
,
0000
0001
0000
0100
0010
0000
1000
0000
,
0000
0001
0000
0100
0010
0000
1000
0001
,
0100
0010
1000
0100
0010
0001
1000
0100
,
0010
0000
0001
0000
1000
0000
0001
0000
0100
0000
0010
0000
1000
0000
0000
0001
,
0000
0000
2000
0000
0000
0000
0000
0000
3000
0000
0000
0000
0001
0000
0000
1000
,
0000
0002
0000
0000
0003
0000
1100
0000
,
0000
0101
0000
2002
,
0000
0000
0000
0000
,
0000
0000
3003
0000
;

//---------------dance-single - ----------------
#NOTES:
     dance-single:
     :
     Hard:
     10:
     0.910,1.000,0.199,0.044,0.077:
0000
0000
0000
0000
,
0000
0000
0000
0000
,
0000
0000
0000
0000
,
0000
0000
0000
0000
,
0001
0000
0100
0000
0010
1000
0000
0010
,
1000
0000
0100
0000
0010
0001
0000
0010
,
0001
0000
1000
0000
0001
0100
0000
0010
,
1000
0001
0001
0000
,
1000
0000
0100
0000
0010
0001
0000
0010
,
0001
0000
0100
0000
0010
1000
0000
0010
,
1000
0000
0001
0000
1000
0100
0000
0010
,
0001
1000
1000
0000
,
0001
0000
1000
0100
1000
0100
1000
0100
,
1000
0000
0001
0100
0001
0100
0001
0100
,
0010
1000
0010
0000
0100
0001
0100
0000
,
0001
0010
0100
1000
0010
0100
0001
1000
,
0010
1000
0010
1000
,
0001
0100
0001
0100
,
0010
1000
0100
0010
,
0001
1000
0100
0010
,
0001
0010
0001
0010
0001
0010
0001
0010
,
0100
1000
0100
1000
0100
1000
0100
1000
,
0001
0010
0100
1000
0010
0100
0001
1000
,
0100
0010
0001
0100
0010
1000
0001
0100
,
0010
0100
0010
1000
,
0100
0010
0001
0100
,
0001
1000
0010
0100
,
0010
1000
0100
0010
,
0001
0100
0001
0100
0001
1000
0001
1000
,
0001
0010
0001
0010
0001
1000
0001
1000
,
0001
0000
0000
0000
0000
0000
0000
0000
0000
0000
0000
0101
0000
0000
0000
0000
0000
0000
0000
0000
0000
0000
1100
0000
0000
0000
0000
0000
0000
0000
0000
0000
,
0010
0001
1000
0100
,
0010
0001
0010
0000
0001
0100
0001
0000
,
0100
0010
1000
0001
,
1000
0010
1000
0000
0010
0100
0010
0000
,
0100
0001
1000
0010
,
1000
0001
1000
0000
0001
1000
0001
0000
,
1000
1000
0001
0001
,
0010
0000
0001
0100
0001
0000
0100
0010
,
0100
0001
1000
0010
,
1000
0000
0100
0010
0100
0000
0010
0001
,
0010
0100
1000
0001
,
1000
0000
0001
0100
0010
1000
0001
0100
,
0010
0010
0100
0100
,
0001
1000
0001
0000
1000
0001
1000
0000
,
0001
0100
0001
0000
0100
0010
0100
0000
,
0010
1000
0010
0000
1000
0100
1000
0000
,
0100
0010
0100
0000
0010
0001
0010
0000
,
0001
0100
0001
0000
1000
0100
1000
0000
,
0001
0010
0001
0000
1000
0100
1000
0000
,
0001
1000
0100
0000
0010
0001
0100
0000
,
0001
1000
0010
0000
0100
0001
1000
0000
,
0100
1000
0001
0000
0010
0001
1000
0000
,
0010
0100
0001
0000
1000
0100
0010
0000
,
0001
1000
0001
0000
1000
0000
0000
0000
,
1100
0000
0101
0000
,
1000
0000
0100
1000
0000
0001
0100
0001
,
1000
0000
0010
1000
0000
0001
0010
0001
,
0010
0000
0100
0000
1000
0001
1000
0001
,
1000
1100
0011
0000
,
0001
0000
0100
0001
0000
1000
0100
1000
,
0001
0000
0010
0001
0000
1000
0010
1000
,
0010
0000
0100
0000
0001
1000
0001
1000
,
0001
0101
1010
0000
,
0010
0000
1000
0001
1000
0100
1000
0001
,
0010
0000
0001
1000
0001
0100
0001
1000
,
0010
0000
1000
0100
0010
0001
0100
0010
,
1000
1100
0101
0000
,
1000
0000
0001
0100
0001
0100
0001
0100
,
0001
0000
1000
0100
1000
0100
1000
0100
,
1000
0000
0000
0000
0000
0001
0000
0000
0000
0000
1000
0000
0000
0000
0000
0000
0001
0000
0000
0000
0000
1000
0000
0000
0000
0000
0001
0000
0000
0000
0000
0000
,
0100
0000
2002
0000
,
0000
0000
3003
1000
,
0001
0000
0010
0100
1000
0001
1000
0100
,
0010
0001
1000
0001
0100
0000
0010
0000
,
1000
0100
1000
0001
1000
0000
0010
1000
,
0001
0100
0001
0000
0010
0100
1000
0100
,
1000
0001
1000
0010
1000
0001
0100
0000
,
0010
1000
0100
0010
0001
0000
0100
0001
,
0000
0000
1000
0000
0001
0100
0010
1000
,
0010
1000
0001
0000
1000
0000
0001
0100
,
0001
0100
0001
0000
1000
0100
1000
0100
,
1000
0000
0010
0100
0010
0100
0010
0000
,
1000
0001
1000
0001
1000
0000
0001
0100
,
0001
0010
0001
0000
1000
0100
1000
0010
,
1000
0000
0010
0100
0010
1000
0001
0000
,
1000
0001
1000
0010
0100
0000
0001
0010
,
0100
1000
0001
0000
1000
0100
1000
0010
,
1000
0001
1000
0010
1000
0100
0010
0000
,
0001
1000
0000
1000
0001
0000
0010
0000
,
0011
0000
0000
1100
0000
0000
0100
0000
,
1000
0001
0000
0001
1000
0000
0100
0000
,
1100
0000
0000
0011
0000
0000
0001
0000
,
0010
0100
0000
0100
0010
0000
0001
0000
,
0100
0010
0000
0010
0100
0000
0010
0000
,
1000
0001
0000
0001
1000
0000
0001
0000
,
1001
0000
0000
1001
0000
0000
0010
0000
,
0001
1000
0001
0000
0100
0000
0001
0000
,
0010
0100
0010
0000
0001
0000
0100
0000
,
0001
1000
0001
0000
0010
0000
1000
0000
,
0100
0010
0100
0000
1000
0000
0010
0100
,
0010
1000
0001
0100
0010
1000
0001
0010
,
0100
0000
0000
0000
1000
0000
0000
0000
0010
0000
0000
0000
0100
0000
0000
0000
0001
0000
0000
0000
1000
0000
0000
0000
0001
0000
0000
0000
0000
0001
0000
0000
,
0000
0000
0001
0000
0000
0000
0000
0000
0000
0000
0000
0000
0000
0000
0000
0000
0000
0000
0000
0000
0000
0000
0000
0000
1000
0000
0000
0000
0000
1000
0000
0000
,
0000
0000
1000
0000
0000
0000
0000
0000
0000
0000
0000
0000
0000
0000
0000
0000
0000
0000
0000
0000
0000
0000
0000
0000
0010
0000
0000
0000
0000
0010
0000
0000
,
0000
0000
0010
0000
0000
0000
0000
0000
0100
0000
0000
0000
0000
0100
0000
0000
0000
0000
0100
0000
0000
0000
0000
0000
2002
0000
0000
0000
0000
0000
0000
0000
,
0000
0000
0000
0000
,
0000
0000
3003
0000
;

//---------------dance-single - ----------------
#NOTES:
     dance-single:
     :
     Beginner:
     3:
     0.136,0.175,0.011,0.000,0.000:
0000
0000
0000
0000
,
0000
0000
0000
0000
,
0000
0000
0000
0000
,
0000
0000
0000
0000
,
0001
0000
0000
0000
,
0000
0000
0000
0000
,
0001
0000
0000
0000
,
0000
0000
0000
0000
,
1000
0000
0000
0000
,
0000
0000
0000
0000
,
1000
0000
0000
0000
,
0000
0000
0000
0000
,
0010
0000
0000
0000
,
0000
0000
0000
0000
,
0010
0000
0000
0000
,
0010
0000
0000
0000
,
0010
0000
0000
0000
,
0001
0000
0000
0000
,
1000
0000
0000
0000
,
0001
0000
0000
0000
,
1000
0000
0000
0000
,
0001
0000
0000
0000
,
1000
0000
0000
0000
,
0001
0000
0000
0000
,
0010
0000
0000
0000
,
0100
0000
0000
0000
,
0010
0000
0000
0000
,
0100
0000
0000
0000
,
1000
0000
0000
0000
,
0001
0000
0000
0000
,
1000
0000
0000
0000
,
1000
0000
0000
0000
,
1000
0000
0000
0000
,
0000
0000
0000
0000
,
0001
0000
0000
0000
,
0000
0000
0000
0000
,
0010
0000
0000
0000
,
0000
0000
0000
0000
,
0100
0000
0000
0000
,
0000
0000
0000
0000
,
0001
0000
0000
0000
,
0000
0000
0000
0000
,
0100
0000
0000
0000
,
0000
0000
0000
0000
,
1000
0000
0000
0000
,
0001
0000
0000
0000
,
1000
0000
0000
0000
,
0001
0000
0000
0000
,
1000
0000
0000
0000
,
0001
0000
0000
0000
,
1000
0000
0000
0000
,
0001
0000
0000
0000
,
0001
0000
0000
0000
,
1000
0000
0000
0000
,
0001
0000
0000
0000
,
1000
0000
0000
0000
,
0001
0000
0000
0000
,
0001
0000
0000
0000
,
0001
0000
0000
0000
,
0001
0000
0000
0000
,
1000
0000
0000
0000
,
1000
0000
0000
0000
,
1000
0000
0000
0000
,
1000
0000
0000
0000
,
0010
0000
0000
0000
,
0100
0000
0000
0000
,
0010
0000
0000
0000
,
0100
0000
0000
0000
,
0001
0000
0000
0000
,
1000
0000
0000
0000
,
0001
0000
0000
0000
,
1000
0000
0000
0000
,
0000
0000
0000
0001
,
0000
0000
0000
0000
,
0000
0000
0000
1000
,
0000
0000
0000
0000
,
0000
0000
0000
0001
,
0000
0000
0000
0000
,
0000
0000
0000
0001
,
0000
0000
0000
0000
,
0000
0000
0000
0010
,
0000
0000
0000
0000
,
0000
0000
0000
0100
,
0000
0000
0000
0000
,
0000
0000
0000
1000
,
0000
0000
0000
1000
,
0000
0000
0000
1000
,
0000
0000
0000
0001
,
0000
0000
0000
0100
,
0000
0000
0000
1000
,
0000
0000
0000
0010
,
0000
0000
0000
0001
,
0000
0000
0000
1000
,
0000
0000
0000
0100
,
0000
0000
0000
0001
,
0000
0000
0000
0010
,
0000
0000
0000
0100
,
0000
0000
0000
1000
,
0000
0000
0000
0010
,
0000
0000
0000
0001
,
0000
0000
0000
1000
,
0000
0000
0000
0100
,
0000
0000
0000
0001
,
0000
0000
0000
0010
,
0000
0000
0000
1000
,
0000
0000
0000
1001
;
