#TITLE:Love Shack;
#SUBTITLE:;
#ARTIST:The B-52's;
#TITLETRANSLIT:;
#SUBTITLETRANSLIT:;
#ARTISTTRANSLIT:;
#CREDIT:;
#BANNER:;
#BACKGROUND:Love Shack-bg.png;
#LYRICSPATH:;
#CDTITLE:./CDTITLES/DanceDanceRevolution 2010.png;
#MUSIC:Love Shack.mp3;
#OFFSET:2.671;
#SAMPLESTART:47.063;
#SAMPLELENGTH:15.000;
#SELECTABLE:YES;
#DISPLAYBPM:134.000;
#BPMS:0.000=133.330,28.000=134.720,32.000=134.000,148.000=131.620,158.000=134.800,160.000=133.520,188.000=137.640,192.000=134.460,212.000=132.080,232.000=134.870,238.000=112.470,239.000=85.000;
#STOPS:;
#BGCHANGES:;

//---------------dance-single - ----------------
#NOTES:
     dance-single:
     :
     Medium:
     6:
     0.348,0.365,0.146,0.120,0.000:
0000
0000
0000
0000
,
0000
0000
0000
0000
,
0000
0000
0000
0000
,
0000
0000
0000
0000
,
0010
0001
1000
0001
,
0100
0100
0010
0010
,
1000
0001
1000
0001
,
1000
0010
1000
0000
,
0010
0000
0100
0000
0001
1000
0010
0000
,
1000
1000
0001
0001
,
0010
0000
0001
0000
1000
0010
1000
0000
,
0001
0001
1000
1000
,
0000
0000
1000
0000
1000
0001
1000
0000
,
0010
1000
0001
1000
0000
0000
1001
0000
,
0002
0103
0020
0130
,
0001
1000
0001
1000
0001
0000
0000
0000
,
1000
0000
0001
0000
0001
1000
0001
0000
,
0100
0001
1000
0001
0000
0000
1001
0000
,
2000
0000
3010
0000
0200
0000
0310
1000
,
0000
0001
0000
1000
0001
1000
0001
0000
,
0010
0010
0001
1000
,
0002
0000
1000
1003
,
0010
0010
1000
0001
,
2000
0000
0001
3001
,
1000
1000
0001
0100
,
0020
0000
0100
0130
,
0001
0001
1000
0010
,
0200
0000
0010
0310
,
1000
1001
0001
1001
,
0001
0000
1000
0000
0001
1000
0010
0100
,
0010
0000
1000
0000
0001
0100
0010
0000
,
1000
0001
0100
0000
1100
0000
0011
0000
,
0020
0000
1000
0000
1000
1000
1030
0000
,
0001
0100
0001
0000
1000
0100
1000
0000
,
0020
0000
0100
0000
0100
0100
0130
0000
,
1000
0010
1000
0000
0001
0010
0001
0000
,
1000
0000
0001
1000
0010
0100
0100
0000
,
0010
0101
0010
1100
,
0001
0000
1000
0001
0100
0010
0010
0000
,
0100
1010
0100
0011
,
0010
0000
0010
1000
,
0100
0010
0100
1000
,
0010
0000
0010
1000
,
0010
0100
0010
1000
,
0001
1001
1000
1001
,
1000
0000
0001
0000
1000
0001
0100
0010
,
0100
0000
0001
0000
1000
0010
0100
0000
,
0001
1000
0010
0000
0011
0000
1100
0000
,
0020
0000
1000
0000
1000
1000
1030
0000
,
0001
0100
0001
0000
1000
0100
1000
0000
,
0020
0000
0100
0000
0100
0100
0130
0000
,
1000
0010
1000
0000
0011
0000
0101
0000
,
0010
0000
0010
0000
0000
1000
0001
0000
,
1000
0000
0010
0000
1000
0100
1000
0000
,
0001
0000
0001
0000
0000
0100
0010
0000
,
0100
0000
0001
0000
0010
0100
0010
0000
,
0100
0000
0010
0000
0000
0001
1000
0000
,
0001
0000
0100
0000
0001
0010
0001
0000
,
1000
0000
1000
0000
0000
0010
0100
0000
,
0010
0000
1000
0000
0100
0010
0100
0000
,
2002
0000
0000
3003
;

//---------------dance-single - Blank----------------
#NOTES:
     dance-single:
     Blank:
     Hard:
     7:
     0.443,0.443,0.420,0.137,0.000: // measure 1
0000
0000
0000
0000
,  // measure 2
0000
0000
0000
0000
,  // measure 3
0000
0000
0000
0000
,  // measure 4
0000
0000
0000
0000
,  // measure 5
0010
0001
1000
0010
1000
0000
0011
0000
,  // measure 6
0100
1100
0010
0011
,  // measure 7
2000
3010
0002
0103
,  // measure 8
1000
0010
1000
0001
0100
0001
1000
0000
,  // measure 9
0010
0000
0100
0001
1000
0001
0010
0000
,  // measure 10
1100
1010
0101
0011
,  // measure 11
0010
0000
0001
1000
0010
1000
0100
0000
,  // measure 12
0011
0101
1010
1100
,  // measure 13
0000
0000
1100
0000
0001
1000
0001
0100
,  // measure 14
0010
1000
0001
1000
0010
0000
1001
0000
,  // measure 15
0002
0003
0100
0001
0020
0030
0100
1000
,  // measure 16
0001
0100
0010
1000
0001
0000
0110
0000
,  // measure 17
0000
0000
0011
0000
1000
0001
1000
0010
,  // measure 18
0100
0001
1000
0001
0100
0000
1001
0000
,  // measure 19
2000
3000
0010
1000
0200
0300
0010
0001
,  // measure 20
0000
1000
0010
1000
0001
0000
0110
0000
,  // measure 21
0010
1000
0010
0100
0001
0000
1000
0000
,  // measure 22
0012
0000
0000
0000
1000
1000
1003
0000
,  // measure 23
0001
0100
0001
1000
0010
0000
0100
0000
,  // measure 24
1020
0000
0000
0000
0100
0100
0130
0000
,  // measure 25
0100
0001
0100
0010
1000
0000
0001
0000
,  // measure 26
2100
0000
0000
0000
0001
0001
3001
0000
,  // measure 27
1000
0010
1000
0001
0100
0000
0010
0000
,  // measure 28
0201
0000
0000
0000
0010
0010
0310
0000
,  // measure 29
1100
1001
0101
1001
,  // measure 30
0001
1000
0010
0100
0001
1000
0010
0100
,  // measure 31
0010
0000
1000
0001
0100
0010
0010
1000
,  // measure 32
1000
0001
0100
0010
1100
0000
0011
0000
,  // measure 33
0020
0000
0001
0000
1000
1000
1030
0000
,  // measure 34
0001
0100
0010
1000
0100
0010
0001
0000
,  // measure 35
0020
0000
0001
0000
0100
0100
0130
0000
,  // measure 36
1000
0010
0100
0001
0010
0001
1000
0001
,  // measure 37
0000
0010
0001
1000
0010
0100
0100
0010
,  // measure 38
0000
0000
0101
0000
0110
0000
1100
1100
,  // measure 39
0000
0100
1000
0001
0100
0010
0010
0100
,  // measure 40
0000
1010
0110
0011
,  // measure 41
0010
0000
0010
1000
,  // measure 42
0010
0001
0010
0001
,  // measure 43
0010
0000
0010
0001
,  // measure 44
0010
1000
0010
1000
,  // measure 45
0011
1001
1010
1001
,  // measure 46
1000
0001
0100
0010
1000
0001
0100
0010
,  // measure 47
0100
0000
0001
1000
0010
0100
0100
0001
,  // measure 48
0001
1000
0010
0100
0011
0000
1100
0000
,  // measure 49
0020
0000
0001
0000
1000
1000
1030
0000
,  // measure 50
0001
0100
0010
1000
0100
0010
0001
0000
,  // measure 51
0020
0000
0001
0000
0100
0100
0130
0000
,  // measure 52
1000
0010
0100
0001
0010
0001
0000
1000
,  // measure 53
0010
0000
0011
0000
0000
1000
0001
0000
,  // measure 54
1000
0000
0011
0000
1000
0100
1000
0000
,  // measure 55
0001
0000
0011
0000
0000
0100
0010
0000
,  // measure 56
0100
0000
0011
0000
0010
0100
0010
0000
,  // measure 57
0100
0000
1100
0000
0000
0001
1000
0000
,  // measure 58
0001
0000
1100
0000
0001
0010
0001
0000
,  // measure 59
1000
0000
1100
0000
0000
0010
0100
0000
,  // measure 60
0010
0000
1100
0000
0100
0010
0100
0000
,  // measure 61
2020
0000
0000
3030
;

//---------------dance-single - Blank----------------
#NOTES:
     dance-single:
     Blank:
     Easy:
     4:
     0.194,0.205,0.017,0.069,0.000:
0000
0000
0000
0000
,
0000
0000
0000
0000
,
0000
0000
0000
0000
,
0000
0000
0000
0000
,
0010
0010
0000
0000
,
0010
0010
0010
0000
,
1000
1000
1000
0000
,
0001
0000
1000
0000
,
0010
0000
0010
0000
,
0001
0001
0001
0000
,
0010
0000
0010
0000
,
1000
1000
1000
0000
,
0000
1000
1000
0000
,
0010
1000
0010
0000
,
0001
0000
0001
0000
,
1000
0001
1000
0000
,
0000
0001
0001
0000
,
0010
0001
0010
0000
,
1000
0000
1000
0000
,
0001
1000
0001
0000
,
0010
0000
0010
0010
,
0002
0000
0000
0003
,
0010
0000
0010
0010
,
2000
0000
0000
3000
,
0001
0000
0001
0001
,
0020
0000
0000
0030
,
1000
0000
1000
1000
,
0200
0000
0000
0300
,
1000
1000
1000
0000
,
0001
1000
0001
1000
,
0010
0000
0010
0010
,
0010
0000
1001
0000
,
0020
0000
0000
0030
,
0001
0001
1000
1000
,
0020
0000
0000
0030
,
1000
1000
0001
0001
,
1000
0000
0001
0001
,
0010
0010
0001
0000
,
0001
0000
1000
1000
,
0010
0010
1000
0000
,
0010
0000
0010
0000
,
0100
0100
0100
0100
,
0010
0000
0010
0000
,
0001
1000
0001
1000
,
0001
0001
0001
0000
,
1000
0001
1000
0001
,
0010
0000
0010
0010
,
0010
0000
1001
0000
,
0020
0000
0000
0030
,
0001
0001
1000
1000
,
0020
0000
0000
0030
,
1000
1000
0001
0001
,
0010
0010
0000
0001
,
1000
0000
1000
1000
,
0010
0010
0000
1000
,
0001
0000
0001
0001
,
1000
1000
0000
0100
,
0010
0000
0010
0010
,
0001
0001
0000
0010
,
0100
0000
0100
0100
;

//---------------dance-single - Blank----------------
#NOTES:
     dance-single:
     Blank:
     Beginner:
     2:
     0.114,0.153,0.017,0.000,0.000:
0000
0000
0000
0000
,
0000
0000
0000
0000
,
0000
0000
0000
0000
,
0000
0000
0000
0000
,
0010
0000
0000
0000
,
0010
0000
0000
0000
,
1000
0000
0000
0000
,
0001
0000
0001
0000
,
0010
0000
0000
0000
,
0001
0000
0001
0000
,
0010
0000
0000
0000
,
1000
0000
1000
0000
,
0001
0000
0000
0000
,
0010
0000
0000
0000
,
0001
0000
0000
0000
,
1000
0000
0000
0000
,
1000
0000
0000
0000
,
0010
0000
0000
0000
,
1000
0000
0000
0000
,
0001
0000
0000
0000
,
0010
0000
0010
0000
,
0001
0000
0000
0000
,
0010
0000
0010
0000
,
1000
0000
0000
0000
,
0010
0000
0010
0000
,
0001
0000
0000
0000
,
0010
0000
0010
0000
,
1000
0000
0000
0000
,
1000
0000
1000
0000
,
0001
0001
0001
0000
,
0010
0000
0010
0000
,
0000
0000
1001
0000
,
0010
0000
0000
0000
,
0001
0001
0001
0000
,
0010
0000
0000
0000
,
1000
1000
1000
0000
,
0001
0000
0000
0000
,
0001
0001
0000
0000
,
1000
0000
0000
0000
,
1000
1000
0000
0000
,
0010
0000
0000
0000
,
0100
0000
0100
0000
,
0010
0000
0000
0000
,
0001
0000
1000
0000
,
0001
0000
0001
0000
,
1000
1000
1000
0000
,
0010
0000
0010
0000
,
0000
0000
1001
0000
,
0010
0000
0000
0000
,
0001
0001
0001
0000
,
0010
0000
0000
0000
,
1000
1000
1000
0000
,
0010
0010
0000
0000
,
0001
0000
1000
0000
,
0010
0010
0000
0000
,
1000
0001
0000
0000
,
0001
0001
0000
0000
,
0001
0000
1000
0000
,
1000
1000
0000
0000
,
1000
0000
0001
0000
;
