#TITLE:Love Like This;
#SUBTITLE:;
#ARTIST:Natasha Bedingfield;
#TITLETRANSLIT:;
#SUBTITLETRANSLIT:;
#ARTISTTRANSLIT:;
#CREDIT:;
#BANNER:;
#BACKGROUND:Love Like This-bg.png;
#LYRICSPATH:;
#CDTITLE:./CDTITLES/DanceDanceRevolution 2010.png;
#MUSIC:Love Like This.mp3;
#OFFSET:3.009;
#SAMPLESTART:6.326;
#SAMPLELENGTH:15.000;
#SELECTABLE:YES;
#BPMS:0.000=77.000;
#STOPS:;
#BGCHANGES:;

//---------------dance-single - ----------------
#NOTES:
     dance-single:
     :
     Beginner:
     1:
     0.063,0.079,0.041,0.062,0.000:
0000
0000
0000
0000
,
0000
0000
0000
0000
,
0000
0000
0000
0000
,
0002
0000
0003
0000
,
0001
0000
0000
0000
,
2000
0000
3000
0000
,
1000
0000
0000
0000
,
0001
0000
0000
0000
,
1000
0000
0000
0000
,
1000
0000
0000
0000
,
0001
0000
0000
0000
,
0010
0000
0000
0000
,
0010
0000
0010
0000
,
0000
0000
0000
0000
,
0000
0000
0000
0000
,
1001
0000
0000
0000
,
1000
0000
0001
0000
,
1001
0000
0000
0000
,
1000
0000
0001
0000
,
0001
0000
0001
0000
,
1000
0000
1000
0000
,
1001
0000
0000
0000
,
0001
0000
1000
0000
,
0002
0000
0003
0000
,
0001
0000
0000
0000
,
2000
0000
3000
0000
,
1000
0000
0000
0000
,
0020
0000
0030
0000
,
0010
0000
0000
0000
,
0002
0000
0003
0000
,
0100
0000
1001
0000
;

//---------------dance-single - ----------------
#NOTES:
     dance-single:
     :
     Easy:
     2:
     0.131,0.143,0.062,0.103,0.000:
0000
0000
0000
0000
,
0000
0000
0000
0000
,
0000
0000
0000
0000
,
0002
0000
0013
0000
,
0001
0010
0001
0000
,
2000
0000
3010
0000
,
1000
0010
1000
0000
,
0001
0000
0001
0000
,
1000
0001
1000
0000
,
1000
0000
1000
0000
,
0001
1000
0001
0000
,
1000
0001
1000
0010
,
0100
0010
0100
0000
,
0001
0000
0010
0000
,
0100
0010
0100
0000
,
0001
0100
0101
0000
,
1000
0001
1001
0000
,
1000
0100
1100
0000
,
0001
1000
1001
0000
,
0002
0000
0003
0000
,
2000
0000
3100
0000
,
1000
0010
1000
0000
,
0001
1000
1001
0000
,
0002
0000
0103
0000
,
0001
0100
0001
0000
,
2000
0000
3100
0000
,
1000
0100
1000
0000
,
0200
0000
0310
0000
,
0100
0010
0100
0000
,
0002
0000
1003
0000
,
0001
1000
2002
3003
;

//---------------dance-single - ----------------
#NOTES:
     dance-single:
     :
     Medium:
     5:
     0.286,0.334,0.279,0.021,0.000:
0000
0000
0000
0000
,
0000
0000
0000
0000
,
0000
0000
0000
0000
,
0010
0001
0000
0010
0001
0100
0000
0010
,
1000
1000
0010
0010
1000
0100
0011
0000
,
0010
1000
0000
0010
1000
0100
0000
0010
,
0001
0001
0010
0010
0001
0100
1010
0000
,
0001
0000
1000
0000
0100
0100
1000
0000
,
1000
0001
0100
0000
0010
0010
1000
0000
,
1000
0000
0001
0000
0100
0100
0001
0000
,
0001
1000
0100
0000
0010
0001
0100
0000
,
0010
0010
1000
1000
0001
0001
0100
0100
,
0010
1000
0100
0100
0010
0001
0100
0000
,
0001
0000
1000
0000
0010
0010
1000
0000
,
1000
0001
0010
0000
0100
0000
0010
0000
,
0001
0100
0101
0101
0010
1000
1010
1010
,
0100
1100
0010
0101
1001
0000
0000
0000
,
1000
0100
1100
1100
0010
0001
0011
0011
,
0100
0101
0010
1100
1001
0000
0000
0000
,
0001
0000
0100
0001
,
1000
0000
0010
0100
,
1000
0010
1010
1010
0100
0001
0101
0101
,
0010
0011
0100
1010
1001
0000
0100
0000
,
0100
0001
0000
0100
0001
0010
0000
0100
,
1000
1000
0100
0100
1000
0010
0101
0000
,
0100
1000
0000
0100
1000
0010
0000
0100
,
0001
0001
0100
0100
0001
0010
1100
0000
,
0100
0010
0000
0001
0100
0010
0000
1000
,
0010
0010
1000
1000
0100
0010
0011
0000
,
0001
0000
1000
0000
,
0001
0001
0100
0100
2002
0000
3003
0000
;

//---------------dance-single - ----------------
#NOTES:
     dance-single:
     :
     Hard:
     7:
     0.400,0.429,0.258,0.041,0.341: // measure 1
0000
0000
0000
0000
,  // measure 2
0000
0000
0000
0000
,  // measure 3
0000
0000
0000
0000
,  // measure 4
0010
0000
1000
0100
0000
1000
0100
0000
0010
0001
0010
0000
0100
0000
0100
0000
,  // measure 5
0010
1000
0010
0000
0100
0000
0100
0000
0001
0010
0100
0000
1100
0000
0000
0000
,  // measure 6
0010
0000
0001
0100
0000
0001
0100
0000
0010
1000
0010
0000
0100
0000
0100
0000
,  // measure 7
0010
0001
0010
0000
0100
0000
0010
0000
0010
1000
0100
0000
0011
0000
0000
0000
,  // measure 8
1000
0000
0000
1000
0100
0000
0000
0000
0010
0100
0010
0000
0001
0000
0000
0000
,  // measure 9
0001
0000
0100
0000
0001
0000
0000
0000
0010
0100
0010
0000
1000
0000
0000
0000
,  // measure 10
0001
0000
0000
0001
0100
0000
0000
0000
0010
0100
0010
0000
1000
0000
0000
0000
,  // measure 11
1000
0000
0100
0000
1000
0000
0000
0000
0100
0010
0001
0000
0100
0000
0000
0000
,  // measure 12
0010
1000
0010
0000
0100
0000
0100
0000
0001
0010
0001
0000
0100
0000
0100
0000
,  // measure 13
0010
1000
0001
0000
0100
0000
0100
0000
0010
0001
1000
0000
0100
0000
0000
0000
,  // measure 14
1000
0000
0000
1000
0010
0000
0000
0000
0100
0010
0100
0000
0001
0000
0000
0000
,  // measure 15
0001
0000
0010
0000
0001
0000
0000
0000
1000
0010
0000
0010
1000
0000
0000
0000
,  // measure 16
1000
0100
0011
0000
0101
0010
1000
0000
1000
0100
1100
0000
1010
0100
0001
0000
,  // measure 17
0101
0000
0000
1100
1000
0100
0010
0000
0002
0000
0000
0000
0003
0000
0000
0000
,  // measure 18
0001
0100
1010
0000
1100
0010
0001
0000
0001
0100
0101
0000
0011
0100
1000
0000
,  // measure 19
1100
0000
0000
0101
0001
0100
0010
0000
2000
0000
0000
0000
3000
0000
0000
0000
,  // measure 20
1000
0000
0000
0100
0000
0000
1000
0000
0100
0010
0001
0000
1000
0000
0000
0000
,  // measure 21
0001
0000
0000
0100
0000
0000
0010
0000
1000
0100
1000
0000
1100
0000
0000
0000
,  // measure 22
1000
0010
0101
0000
0011
0100
1000
0000
1000
0010
1010
0000
1100
0010
0001
0000
,  // measure 23
0011
0000
0000
1010
1000
0010
0100
0000
0001
0000
0000
0000
1000
0000
1000
0000
,  // measure 24
0100
0000
1000
0010
0000
1000
0010
0000
0100
0001
0100
0000
0010
0000
0010
0000
,  // measure 25
0100
1000
0100
0000
0010
0000
0010
0000
0001
0100
0010
0000
1010
0000
0000
0000
,  // measure 26
0100
0000
0001
0010
0000
0001
0010
0000
0100
1000
0100
0000
0010
0000
0010
0000
,  // measure 27
0100
0001
0100
0000
0010
0000
0010
0000
1000
0100
0010
0000
0011
0000
0000
0000
,  // measure 28
0100
0000
1000
0100
0000
1000
0010
0000
0100
0001
0100
0000
0010
0000
0100
0000
,  // measure 29
0010
1000
0010
0000
0100
0000
0010
0000
1000
0100
0010
0000
0011
0000
0000
0000
,  // measure 30
1000
0000
1000
0100
0000
1000
0100
0000
0001
0000
0001
0100
0000
0001
0100
0000
,  // measure 31
1000
0100
1000
0000
0100
0000
0010
0000
2002
0000
0000
0000
3003
0000
0000
0000
;
