#TITLE:I'm Yours;
#SUBTITLE:;
#ARTIST:Jason Mraz;
#TITLETRANSLIT:;
#SUBTITLETRANSLIT:;
#ARTISTTRANSLIT:;
#CREDIT:;
#BANNER:;
#BACKGROUND:I'm Yours-bg.png;
#LYRICSPATH:;
#CDTITLE:./CDTITLES/DanceDanceRevolution 2010.png;
#MUSIC:I'm Yours.mp3;
#OFFSET:2.511;
#SAMPLESTART:79.375;
#SAMPLELENGTH:15.000;
#SELECTABLE:YES;
#BPMS:0.000=75.500;
#DISPLAYBPM:75;
#STOPS:;
#BGCHANGES:;

//---------------dance-single - ----------------
#NOTES:
     dance-single:
     :
     Beginner:
     1:
     0.047,0.089,0.034,0.017,0.000:
0000
0000
0000
0000
,
0000
0000
0000
0000
,
0000
0000
0000
0000
,
0000
0000
0000
0000
,
0000
0000
0000
0000
,
1000
0000
0000
0000
,
0001
0000
0000
0000
,
1000
0000
0000
0000
,
0010
0000
0000
0000
,
0001
0001
0000
0000
,
1000
1000
0000
0000
,
0001
0001
0000
0000
,
1001
0000
0000
0000
,
0000
0000
0000
0000
,
0001
0000
0000
0000
,
1000
0000
0000
0000
,
0100
0000
0000
0000
,
0001
0000
0000
0000
,
1000
0000
0000
0000
,
0010
0000
0000
0000
,
0002
0000
0003
0000
,
1000
0000
0000
0000
,
0001
0000
0000
0000
,
0010
0000
0000
0000
,
2000
0000
3000
0000
,
1001
0000
0000
0000
,
1000
0000
0000
0000
,
0001
0000
0000
0000
,
1000
0000
0000
0000
,
1001
0000
0000
0000
,
0001
0000
0000
0000
,
1000
0000
0000
0000
,
0001
0000
0000
0000
,
1001
0000
0000
0000
,
1000
0000
0000
0000
,
0001
0000
0000
0000
;

//---------------dance-single - ----------------
#NOTES:
     dance-single:
     :
     Easy:
     2:
     0.089,0.150,0.034,0.059,0.000: // measure 1
0000
0000
0000
0000
,  // measure 2
0000
0000
0000
0000
,  // measure 3
0000
0000
0000
0000
,  // measure 4
0000
0000
0000
0000
,  // measure 5
0000
0000
0000
0000
,  // measure 6
1000
0000
0010
0000
,  // measure 7
0001
0000
0100
0000
,  // measure 8
0001
0000
0001
0000
,  // measure 9
1000
0001
1000
0001
,  // measure 10
0000
0001
0000
0001
,  // measure 11
0000
1000
0000
1000
,  // measure 12
0000
0001
0000
0001
,  // measure 13
1000
0000
1001
0000
,  // measure 14
0000
0000
0000
0000
,  // measure 15
0001
0000
0000
0000
,  // measure 16
1000
0000
0000
0000
,  // measure 17
0100
0000
0000
0000
,  // measure 18
0001
0000
0001
0001
,  // measure 19
1000
0000
1000
0000
,  // measure 20
1000
0000
0100
0100
,  // measure 21
0002
2003
3002
0003
,  // measure 22
1000
0000
1000
1000
,  // measure 23
0001
0000
0001
0000
,  // measure 24
0001
0000
0100
0100
,  // measure 25
0002
0003
2000
3000
,  // measure 26
1001
0000
0000
0000
,  // measure 27
1000
0000
1000
0000
,  // measure 28
0001
0000
0001
0000
,  // measure 29
0001
0000
1000
0000
,  // measure 30
1001
0000
0200
0300
,  // measure 31
0001
0000
0001
0000
,  // measure 32
1000
0000
1000
0000
,  // measure 33
1000
0000
0001
0000
,  // measure 34
1001
0000
0200
0300
,  // measure 35
1000
0000
1000
0000
,  // measure 36
0100
0000
0100
0000
;

//---------------dance-single - ----------------
#NOTES:
     dance-single:
     :
     Medium:
     4:
     0.171,0.210,0.135,0.119,0.000:
0000
0000
0000
0000
,
0000
0000
0000
0000
,
0000
0000
0000
0000
,
0000
0000
0000
0000
,
0000
0000
0000
0000
,
0001
0000
0100
0000
0010
0010
0000
0000
,
1000
0000
0010
0000
0100
0100
0000
0000
,
1000
0000
0100
0000
1000
1000
0000
0000
,
0001
0000
1000
0000
0001
0001
0001
0000
,
1100
1100
1000
1000
,
0101
0101
0001
0001
,
1010
1010
1000
1000
,
0011
0000
1000
0001
,
0000
0100
0000
0100
0000
0100
0000
0000
,
0000
1000
0000
1000
0000
1000
0000
0000
,
0000
0001
0000
0001
0000
0001
0000
0000
,
0000
0010
0000
0010
0000
0010
0010
0000
,
2000
3000
0100
1000
,
0001
0001
0000
0000
0001
0000
0100
0000
,
0001
1000
0000
0000
0100
0000
0100
0000
,
2001
3002
2003
3001
,
0002
0003
0100
0001
,
1000
1000
0000
0000
1000
0000
0100
0000
,
1000
0001
0000
0000
0100
0000
0100
0000
,
2000
3000
0012
0103
,
2001
0000
0000
3000
,
0001
0100
0001
0101
,
1000
0010
1000
1010
,
1000
1000
0001
0001
,
1001
0002
0023
0230
,
1300
0010
1000
1010
,
0001
0100
0001
0101
,
0001
0001
1000
1000
,
1001
2000
3200
0320
,
0031
0000
0001
0000
,
0100
0000
0100
0000
;

//---------------dance-single - ----------------
#NOTES:
     dance-single:
     :
     Hard:
     6:
     0.252,0.303,0.178,0.279,0.000:
0000
0000
0000
0000
,
0000
0000
0000
0000
,
0000
0000
0000
0000
,
0000
0000
0000
0000
,
0000
0000
0000
0000
,
0010
0000
0100
0000
0010
0001
1000
0010
,
0100
0000
0010
0000
0100
0001
0010
0100
,
1000
0000
0100
0000
1000
0100
0010
0000
,
0001
0010
1000
0010
0001
1000
0001
0000
,
0000
1000
0000
1000
0000
1000
0000
0100
,
0000
0001
0000
0001
0000
0001
0000
0010
,
0100
1000
0000
1000
0000
1000
0000
0100
,
0010
0001
0000
0100
0010
1000
0002
0000
,
2003
0100
0000
0000
0000
0000
3000
0000
,
0002
0100
0000
0100
0000
0100
0003
0000
,
2000
0100
0000
0100
0000
0100
3000
0100
,
0002
0100
0000
0100
0000
0100
0103
0000
,
1000
2000
3000
0000
0100
0100
1000
1000
,
0002
0003
0010
0001
0010
0000
0100
0010
,
0001
1000
0000
0010
0000
0100
0100
1000
,
0012
0003
2100
3000
0012
0003
2100
3000
,
0001
0002
0003
0000
0100
0100
0001
0001
,
2000
3000
0010
1000
0010
0000
0100
0010
,
1000
0001
0000
0010
0000
0100
0100
0001
,
2000
0000
0000
3100
0012
0003
2100
3000
,
1002
0000
0000
0000
0000
1000
1003
0000
,
0002
0003
0101
0000
0002
0003
0101
0000
,
2000
3000
1010
0000
2000
3000
1010
0000
,
1000
0100
1000
0000
0001
0000
0010
0001
,
1000
0000
0000
0000
2002
0003
3000
0000
0220
0330
0000
0000
1001
0000
0000
0000
,
2000
3000
1010
0000
2000
3000
1010
0000
,
0002
0003
0101
0000
0002
0003
0101
0000
,
0001
0100
0001
0000
1000
0000
0010
1000
,
0001
0000
2002
3003
0220
0330
1001
0000
,
1000
1000
1000
0000
0001
0001
0001
0000
,
0100
0100
0100
0000
0100
0100
0100
0000
;
