#TITLE:I Got You;
#SUBTITLE:;
#ARTIST:Leona Lewis;
#TITLETRANSLIT:;
#SUBTITLETRANSLIT:;
#ARTISTTRANSLIT:;
#CREDIT:;
#BANNER:;
#BACKGROUND:I Got You-bg.png;
#LYRICSPATH:;
#CDTITLE:./CDTITLES/DanceDanceRevolution 2010.png;
#MUSIC:I Got You.mp3;
#OFFSET:2.380;
#SAMPLESTART:32.458;
#SAMPLELENGTH:15.000;
#SELECTABLE:YES;
#BPMS:0.000=99.000;
#STOPS:;
#BGCHANGES:;

//---------------dance-single - ----------------
#NOTES:
     dance-single:
     :
     Beginner:
     2:
     0.090,0.124,0.000,0.000,0.000:
0000
0000
0000
0000
,
0000
0000
0000
0000
,
0000
0000
0000
0000
,
0000
0000
0000
0000
,
0000
0000
0000
0000
,
0001
0000
0000
0000
,
0010
0000
0000
0000
,
0001
0000
0000
0000
,
1000
0000
0000
0000
,
0010
0000
0010
0000
,
1000
0000
0000
0000
,
0010
0000
0010
0000
,
0001
0000
0000
0000
,
0100
0000
0000
0000
,
0000
0000
0000
0000
,
0001
0001
0001
0000
,
1000
0000
0001
0000
,
1000
1000
1000
0000
,
0001
0000
1000
0000
,
0010
0000
0010
0000
,
1000
1000
0000
0000
,
0100
0000
0100
0000
,
0001
0001
0000
0000
,
0001
0000
0001
0000
,
0010
0000
0000
0000
,
1000
0000
1000
0000
,
0100
0000
0000
0000
,
0001
0001
0000
0000
,
1000
1000
0000
0000
,
0010
0000
0000
0000
,
0010
0000
0010
0000
,
0000
0000
0001
0001
,
0000
0000
0100
0000
,
0000
0000
1000
1000
,
0000
0000
0100
0000
,
0001
0000
0000
0000
,
0100
0000
0000
0000
,
1000
1000
1000
0000
,
0001
0000
1000
0000
,
0001
0001
0001
0000
,
1000
0000
0001
0000
,
0100
0000
0100
0000
,
0001
0001
0000
0000
,
0010
0000
0010
0000
,
1000
1000
0000
0000
,
0000
0000
0000
0001
,
0001
0000
0000
0000
,
1000
0000
0000
1000
,
1000
0000
0010
0000
;

//---------------dance-single - ----------------
#NOTES:
     dance-single:
     :
     Easy:
     4:
     0.158,0.186,0.017,0.051,0.000: // measure 1
0000
0000
0000
0000
,  // measure 2
0000
0000
0000
0000
,  // measure 3
0000
0000
0000
0000
,  // measure 4
0000
0000
0000
0000
,  // measure 5
0000
0000
0000
0000
,  // measure 6
0001
0001
0001
0000
,  // measure 7
0010
0000
0010
0000
,  // measure 8
0001
0001
0001
0000
,  // measure 9
1000
0000
1000
0000
,  // measure 10
0010
0000
0010
0000
,  // measure 11
1000
0000
0000
0000
,  // measure 12
0010
0000
0100
0000
,  // measure 13
0001
1000
0001
0000
,  // measure 14
0100
0000
0010
0000
,  // measure 15
1001
0000
0000
0000
,  // measure 16
0001
1000
0001
1000
,  // measure 17
0001
0001
0001
0000
,  // measure 18
1000
0001
1000
0001
,  // measure 19
1000
1000
1000
0000
,  // measure 20
0010
0000
0010
0010
,  // measure 21
1000
1000
0001
1000
,  // measure 22
0100
0000
0100
0100
,  // measure 23
0010
0010
0010
0010
,  // measure 24
0001
0000
1000
1000
,  // measure 25
0020
0000
0000
0030
,  // measure 26
1000
0000
0001
0001
,  // measure 27
0200
0000
0000
0300
,  // measure 28
0001
0001
0001
0001
,  // measure 29
1000
0001
1000
0000
,  // measure 30
0010
0000
0010
0000
,  // measure 31
0100
0100
0100
0000
,  // measure 32
0010
1000
0001
0001
,  // measure 33
2000
3000
0002
0003
,  // measure 34
0010
0001
1000
1000
,  // measure 35
0200
0000
0000
0300
,  // measure 36
0020
0030
0001
0000
,  // measure 37
1001
0000
0000
0000
,  // measure 38
1000
0001
1000
0001
,  // measure 39
1000
1000
1000
0000
,  // measure 40
0001
1000
0001
1000
,  // measure 41
0001
0001
0001
0000
,  // measure 42
0100
0000
0100
0100
,  // measure 43
0001
0001
1000
0001
,  // measure 44
0010
0000
0010
0010
,  // measure 45
0100
0100
0100
0100
,  // measure 46
1000
0000
0000
0001
,  // measure 47
0001
1000
0001
0001
,  // measure 48
1000
0000
0000
1000
,  // measure 49
1000
0001
0010
0000
;

//---------------dance-single - ----------------
#NOTES:
     dance-single:
     :
     Medium:
     5:
     0.271,0.269,0.085,0.111,0.000: // measure 1
0000
0000
0000
0000
,  // measure 2
0000
0000
0000
0000
,  // measure 3
0000
0000
0000
0000
,  // measure 4
0000
0000
0000
0000
,  // measure 5
0000
0000
0000
0000
,  // measure 6
0001
0100
0001
0000
0001
1000
0001
0000
,  // measure 7
0010
0000
0000
0100
0010
0000
0001
0000
,  // measure 8
1000
0100
1000
0000
1000
0001
1000
0000
,  // measure 9
0010
0000
0000
0100
0010
0000
1000
0000
,  // measure 10
0010
0000
0100
0000
0001
1000
0001
0000
,  // measure 11
0002
0000
1003
0001
,  // measure 12
0010
0000
0100
0000
1000
0001
1000
0000
,  // measure 13
0001
1000
0001
0100
0001
0000
0000
0000
,  // measure 14
0100
0000
0000
0010
0100
0000
0010
0000
,  // measure 15
1001
0000
0000
0000
,  // measure 16
0001
1000
0001
0000
0100
0001
1000
0000
,  // measure 17
0001
0110
1000
0001
,  // measure 18
1000
0001
1000
0000
0100
1000
0001
0000
,  // measure 19
1000
0110
0001
1000
,  // measure 20
0010
0000
0100
0000
0010
0100
0010
0000
,  // measure 21
1000
1000
0001
1100
,  // measure 22
0010
1000
0001
1000
0100
0000
0010
0000
,  // measure 23
0001
0001
1000
0011
,  // measure 24
0002
0000
0000
0000
1000
1000
1003
0000
,  // measure 25
0020
0100
1000
0130
,  // measure 26
2000
0000
0000
0000
0001
0001
3001
0000
,  // measure 27
0200
0010
0001
0310
,  // measure 28
0001
0000
1000
0001
1000
0000
0001
0000
,  // measure 29
1000
0000
0001
0000
1000
0010
0100
0000
,  // measure 30
0010
1000
0010
1000
,  // measure 31
0100
0000
0100
0000
0100
0010
0100
0000
,  // measure 32
0010
1000
0001
0100
0001
0000
1000
0000
,  // measure 33
2000
3001
0002
1003
,  // measure 34
0010
0001
1000
0100
1000
0000
0001
0000
,  // measure 35
0200
0000
0000
0000
0000
0001
0301
0000
,  // measure 36
0020
2030
3002
0103
,  // measure 37
2002
0000
0000
3003
,  // measure 38
1000
0001
1000
0000
0010
1000
0001
0000
,  // measure 39
1000
0110
0001
1000
,  // measure 40
0001
1000
0001
0000
0010
0001
1000
0000
,  // measure 41
0001
0110
1000
0001
,  // measure 42
0100
0000
0010
0000
0100
0010
0100
0000
,  // measure 43
0001
0001
1000
0011
,  // measure 44
0100
0001
1000
0001
0010
0000
0100
0000
,  // measure 45
1000
1000
0001
1100
,  // measure 46
1000
0000
0010
0000
1000
0001
0001
0000
,  // measure 47
0001
0000
1000
0000
0010
0001
0100
0001
,  // measure 48
1000
0000
0001
0000
0000
1000
1000
0000
,  // measure 49
1000
0000
0001
1000
0010
0000
0000
0000
;

//---------------dance-single - ----------------
#NOTES:
     dance-single:
     :
     Hard:
     6:
     0.374,0.393,0.247,0.137,0.081: // measure 1
0000
0000
0000
0000
,  // measure 2
0000
0000
0000
0000
,  // measure 3
0000
0000
0000
0000
,  // measure 4
0000
0000
0000
0000
,  // measure 5
0000
0000
0000
0000
,  // measure 6
0001
0100
0001
0010
0001
1000
0001
0100
,  // measure 7
0010
0000
0000
0100
0010
1000
0001
0000
,  // measure 8
1000
0100
1000
0010
1000
0001
1000
0100
,  // measure 9
0010
0000
0010
0100
0010
0001
1000
0000
,  // measure 10
0011
0000
1100
0000
0001
1000
0001
0000
,  // measure 11
0002
0000
1000
1000
1003
0000
0001
0000
,  // measure 12
1010
0000
0101
0000
1000
0001
1000
0000
,  // measure 13
0001
1000
0001
0100
0001
1000
0010
1000
,  // measure 14
0100
0000
0000
0010
0100
1000
0010
0000
,  // measure 15
1001
0000
0000
0000
,  // measure 16
0010
1000
0000
0000
1000
0100
0000
0000
0100
0010
0000
0000
0001
0000
1000
0000
,  // measure 17
0010
0000
0000
0000
1000
0000
0001
0000
0100
0000
0001
0010
0001
0000
0000
0000
,  // measure 18
0100
0001
0000
0000
0001
0010
0000
0000
0010
0100
0000
0000
1000
0000
0001
0000
,  // measure 19
0100
0000
0000
0000
0001
0000
1000
0000
0010
0000
1000
0100
1000
0000
0000
0000
,  // measure 20
0010
0100
0001
1000
0010
0100
0010
0000
,  // measure 21
1100
1010
0101
1100
,  // measure 22
0010
0000
1000
0000
0001
0000
1000
0000
0100
0000
0010
1000
0010
0000
0000
0000
,  // measure 23
0101
0011
1100
0011
,  // measure 24
0002
0000
0000
0000
1000
1000
1003
0000
,  // measure 25
0020
0000
0100
0000
1000
0100
1030
0000
,  // measure 26
2000
0000
0000
0000
0001
0001
3001
0000
,  // measure 27
0200
0000
0010
0000
0001
0010
0301
0000
,  // measure 28
0001
1000
0000
0001
1000
0010
0100
0001
,  // measure 29
1000
0000
0001
0100
0001
0010
0100
0000
,  // measure 30
0011
1100
0011
1100
,  // measure 31
0100
1000
0100
1000
0100
0010
0100
0000
,  // measure 32
0010
1000
0001
0100
0001
0000
1100
0000
,  // measure 33
2000
3020
0230
0302
2003
0000
3001
0000
,  // measure 34
0010
0001
1000
0100
1000
0000
0011
0000
,  // measure 35
0200
0000
0000
0010
0010
0001
0301
0000
,  // measure 36
0002
0013
0020
0130
0200
1300
0001
0000
,  // measure 37
2002
0000
0000
3003
,  // measure 38
0100
0001
0000
0000
0001
0010
0000
0000
0010
0100
0000
0000
1000
0000
0001
0000
,  // measure 39
0100
0000
0000
0000
0001
0000
1000
0000
0010
0000
1000
0100
1000
0000
0000
0000
,  // measure 40
0010
1000
0000
0000
1000
0100
0000
0000
0100
0010
0000
0000
0001
0000
1000
0000
,  // measure 41
0010
0000
0000
0000
1000
0000
0001
0000
0100
0000
0001
0010
0001
0000
0000
0000
,  // measure 42
0100
0010
1000
0001
0100
0010
0100
0000
,  // measure 43
0011
0101
1010
0011
,  // measure 44
0100
0000
0001
0000
1000
0000
0001
0000
0010
0000
0100
0001
0100
0000
0000
0000
,  // measure 45
1010
1100
0011
1100
,  // measure 46
1000
0010
1000
0100
1000
0010
1000
0001
,  // measure 47
0100
0001
1000
0010
0100
0001
0100
0001
,  // measure 48
1000
0000
0101
0001
0001
1000
1000
0000
,  // measure 49
1000
0000
0000
0000
0001
0000
1000
0010
1000
0000
0000
0000
0000
0000
0000
0000
;
