#TITLE:Hey, Soul Sister;
#SUBTITLE:;
#ARTIST:Train;
#TITLETRANSLIT:;
#SUBTITLETRANSLIT:;
#ARTISTTRANSLIT:;
#CREDIT:;
#BANNER:Hey, Soul Sister.png;
#BACKGROUND:Hey, Soul Sister-bg.png;
#LYRICSPATH:;
#CDTITLE:./CDTITLES/DanceDanceRevolution 2010.png;
#MUSIC:Hey, Soul Sister.mp3;
#OFFSET:2.372;
#SAMPLESTART:69.343;
#SAMPLELENGTH:15.000;
#SELECTABLE:YES;
#BPMS:0.000=97.000;
#STOPS:;
#BGCHANGES:;

//---------------dance-single - ----------------
#NOTES:
     dance-single:
     :
     Hard:
     6:
     0.363,0.369,0.153,0.000,0.149:
0000
0000
0000
0000
,
0000
0000
0000
0000
,
0000
0000
0000
0000
,
0000
0000
0000
0000
,
0000
0000
0000
0000
,
1000
0000
0001
0000
0100
1000
0010
0100
,
1000
0000
0100
0000
0001
0010
1000
0100
,
0001
0000
1000
0000
0100
0001
0010
1000
,
0100
0000
0000
0010
0100
0000
0000
0000
0100
0000
0001
1000
0010
0000
0100
0000
,
0010
0000
0000
1000
0100
0000
0000
0000
0001
0000
0000
0100
0010
0000
0100
0000
,
0001
0000
0000
0010
0001
0000
0100
0000
0010
0000
1000
0100
0001
0000
1000
0000
,
0010
0010
1100
0000
0010
0100
1001
0000
,
0010
1000
0001
0100
,
0010
0000
0100
0001
1000
0100
0010
1000
,
0001
0000
0100
1000
0010
0001
1000
0100
,
0001
0000
1010
0000
0010
0010
0101
0000
,
1000
0000
0000
0100
1000
0000
0010
0000
0100
0000
0001
0010
0100
0000
1000
0000
,
0010
0000
0000
1000
0010
0000
0000
0000
0010
0000
0000
0100
0010
0000
1000
0000
,
0100
0000
0000
0010
0100
0000
0001
0000
0010
0000
0010
0100
1000
0000
0001
0000
,
0010
0001
1100
0000
0010
1000
1001
0000
,
0010
0001
1000
0100
,
1000
0000
0010
0001
0000
0000
0100
0000
0000
0000
0010
0000
0000
0000
1000
0000
,
0010
0000
0100
1000
0000
0000
0001
0000
0000
0000
0010
0000
0100
0000
0100
0000
,
0100
0000
0001
0010
0000
0000
1000
0000
0000
0000
0110
0000
0000
0000
1000
0000
,
0001
0000
0010
0100
0000
0000
0100
0000
1000
0000
1100
0000
0001
0000
0101
0000
,
1000
0000
0010
0001
1000
0000
0100
0000
0000
0000
0010
0000
0100
0000
1000
0000
,
0010
0000
0100
1000
0100
0000
0001
0000
1000
0000
0010
0000
0100
0000
0010
0000
,
0100
0000
0001
0010
0001
0000
1000
0000
0000
0000
0110
0000
0001
0000
1000
0000
,
0001
0000
0010
0100
0010
0000
0100
0000
1000
0000
1010
0000
0000
0000
0011
0000
,
1000
0100
0010
0100
1000
0001
0100
0010
,
0100
0001
0010
1000
0100
1000
0010
0001
,
0100
1000
0010
1000
0100
0001
0100
0010
,
1000
1100
0010
0011
,
1000
0000
0010
0000
0000
0100
0010
0000
0000
0000
0001
0000
1000
0100
1000
0000
,
0010
0000
0100
0000
0000
0001
0010
0000
0000
0000
1000
0000
0110
0000
0001
0000
,
0100
0000
0010
0000
0000
1000
0010
0000
0000
0000
0100
0000
0001
0000
0010
0000
,
0100
1000
0001
0000
0000
0000
0100
0000
0000
0000
0010
0000
0010
0000
0000
0000
,
0001
0000
0010
0000
0000
0100
0010
0000
0000
0000
1000
0000
0001
0100
0001
0000
,
0010
0000
0100
0000
0000
1000
0010
0000
0000
0000
0001
0000
0110
0000
1000
0000
,
0100
0000
0010
0000
0000
0001
0010
0000
0000
0000
0100
0000
1000
0000
0010
0000
,
0000
1000
0100
0000
0000
0001
1000
0000
0010
0000
0000
0000
0000
0000
0000
0000
;

//---------------dance-single - ----------------
#NOTES:
     dance-single:
     :
     Beginner:
     1:
     0.088,0.117,0.010,0.096,0.000:
0000
0000
0000
0000
,
0000
0000
0000
0000
,
0000
0000
0000
0000
,
0000
0000
0000
0000
,
0000
0000
0000
0000
,
1000
0000
1000
0000
,
0000
0000
0100
0000
,
0001
0000
0001
0000
,
0000
0000
0100
0000
,
0001
0000
0000
0000
,
1000
0000
0000
0000
,
0010
0000
0010
0000
,
0010
0000
0000
0000
,
1000
0000
0001
0000
,
2000
0000
3000
0000
,
0001
0000
1000
0000
,
0002
0000
0003
0000
,
1000
0000
0010
0000
,
0001
0000
0010
0000
,
0010
0000
0010
0000
,
0010
0000
0000
0000
,
0001
0000
0001
0000
,
0020
0000
0030
0000
,
1000
0000
1000
0000
,
0020
0000
0030
0000
,
1000
1000
1000
0000
,
0001
0001
0001
0000
,
0100
0000
0000
0000
,
0100
0000
0000
0000
,
1000
0000
0100
0000
,
0010
0000
0001
0000
,
0100
0000
0010
0000
,
1000
0000
0000
0000
,
2000
0000
0000
3000
,
0200
0000
0000
0300
,
0020
0000
0000
0030
,
0000
0000
0000
0000
,
0002
0000
0000
0003
,
0200
0000
0000
0300
,
0020
0000
0000
0030
,
0100
0000
1001
0000
;

//---------------dance-single - ----------------
#NOTES:
     dance-single:
     :
     Easy:
     3:
     0.125,0.136,0.000,0.058,0.000: // measure 1
0000
0000
0000
0000
,  // measure 2
0000
0000
0000
0000
,  // measure 3
0000
0000
0000
0000
,  // measure 4
0000
0000
0000
0000
,  // measure 5
0000
0000
0000
0000
,  // measure 6
1000
1000
1000
0000
,  // measure 7
0010
0000
0100
0100
,  // measure 8
0001
0001
0001
0000
,  // measure 9
1000
0000
0100
0000
,  // measure 10
0002
0000
0003
0000
,  // measure 11
2000
0000
3000
0000
,  // measure 12
0010
0000
0001
0000
,  // measure 13
0100
0000
1000
0000
,  // measure 14
0010
0100
0100
0000
,  // measure 15
0002
0000
0000
0003
,  // measure 16
1000
0100
0100
0000
,  // measure 17
2000
0000
0000
3000
,  // measure 18
0010
1000
0010
0000
,  // measure 19
0100
0000
0100
0000
,  // measure 20
0010
0000
0001
0000
,  // measure 21
0100
0000
1000
0000
,  // measure 22
0001
0000
0001
0000
,  // measure 23
0020
0000
0000
0030
,  // measure 24
1000
0000
1000
0000
,  // measure 25
0200
0000
0000
0300
,  // measure 26
1000
0001
0010
0000
,  // measure 27
0010
0000
0100
0000
,  // measure 28
0001
1000
0100
0000
,  // measure 29
0001
0100
0010
0000
,  // measure 30
1000
0000
0100
0100
,  // measure 31
0100
0000
0001
0001
,  // measure 32
0001
0000
0010
0010
,  // measure 33
0010
0000
1000
1000
,  // measure 34
1000
0000
0001
0001
,  // measure 35
1000
0000
0010
0010
,  // measure 36
1000
0000
0100
0100
,  // measure 37
0010
0000
0010
0000
,  // measure 38
0001
0000
1000
1000
,  // measure 39
0001
0000
0010
0010
,  // measure 40
0001
0000
0100
0100
,  // measure 41
0100
0000
0010
0000
;

//---------------dance-single - ----------------
#NOTES:
     dance-single:
     :
     Medium:
     5:
     0.270,0.252,0.153,0.019,0.005:
0000
0000
0000
0000
,
0000
0000
0000
0000
,
0000
0000
0000
0000
,
0000
0000
0000
0000
,
0000
0000
0000
0000
,
1000
0000
0001
0000
1000
0100
0010
0000
,
0100
0000
1000
0000
0001
0010
0001
0100
,
0001
0000
1000
0000
0001
0100
0010
0000
,
0100
0000
0110
0000
1000
0001
0010
0000
,
0001
0000
0101
0000
0001
0010
0010
0000
,
0001
0000
1100
0000
1000
1000
0010
0000
,
0100
0100
0010
0010
,
1000
1000
0001
0001
,
0010
0000
0100
0000
1000
0100
0010
0002
,
0000
0100
0010
0103
,
0010
0000
1000
0000
0001
0100
0010
2000
,
0000
0001
0100
3001
,
0010
0000
0010
0000
0010
1000
0010
1000
,
0100
0000
0100
0000
0100
0010
0100
0010
,
0100
1100
0010
0011
,
1000
1100
0001
0101
,
1000
0100
0000
0001
0000
0010
0000
1000
,
0000
0100
0000
1000
0000
0010
0001
0100
,
1000
0001
0000
1000
0000
0110
0000
1000
,
0000
0001
0000
0100
0010
0000
0100
0000
,
0001
0010
0000
0100
0000
0010
0100
1000
,
0010
0100
0000
0010
0000
1000
0100
0001
,
0100
1000
0000
0010
0000
0110
0000
0001
,
0001
0100
0010
1001
,
1000
0100
0010
0100
1000
0000
0010
0000
,
0001
1000
0010
0100
0001
0000
0001
0000
,
0100
0001
0010
0000
0100
1000
0001
0000
,
1000
0100
0010
0001
,
1000
0100
0000
1100
0000
0010
0000
0010
,
0001
0100
0000
0110
0000
0100
0010
0000
,
0100
0010
0000
1010
0000
0001
0000
1000
,
0000
0010
0000
0010
0000
0100
0010
0100
,
0001
0100
0000
0101
0000
0010
0000
0010
,
1000
0100
0000
0110
0000
0100
0010
0000
,
0100
0010
0000
0001
0000
1010
0000
0001
,
0100
0000
0100
0000
0000
0010
1000
0000
0001
0000
0000
0000
0000
0000
0000
0000
;
