#TITLE:Dancing in the Street;
#SUBTITLE:;
#ARTIST:Martha and the Vandellas;
#TITLETRANSLIT:;
#SUBTITLETRANSLIT:;
#ARTISTTRANSLIT:;
#CREDIT:;
#BANNER:Dancing in the Street.png;
#BACKGROUND:Dancing in the Street-bg.png;
#LYRICSPATH:;
#CDTITLE:./CDTITLES/DanceDanceRevolution 2010.png;
#MUSIC:Dancing in the Street.mp3;
#OFFSET:2.800;
#SAMPLESTART:8.425;
#SAMPLELENGTH:15.000;
#SELECTABLE:YES;
#BPMS:0.000=125.400,52.000=125.800,68.000=126.200,76.000=128.000,80.000=126.000,92.000=125.600,110.000=127.000,144.000=127.000,168.000=131.000,176.000=129.000;
#DISPLAYBPM:126;
#STOPS:;
#BGCHANGES:;

//---------------dance-single - ----------------
#NOTES:
     dance-single:
     :
     Beginner:
     1:
     0.059,0.125,0.011,0.000,0.000:
0000
0000
0000
0000
,
0000
0000
0000
0000
,
0000
0000
0000
0000
,
0000
0000
0000
0000
,
0000
0000
0000
0000
,
0000
0000
0000
0000
,
0010
0000
0000
0000
,
0000
0000
0000
0000
,
0010
0000
0000
0000
,
0000
0000
0000
0000
,
0010
0000
0000
0000
,
0000
0000
0000
0000
,
0010
0000
0000
0000
,
0000
0000
0000
0000
,
1000
0000
0000
0000
,
0000
0000
0000
0000
,
0001
0000
0000
0000
,
0000
0000
0000
0000
,
1000
0000
0000
0000
,
0000
0000
0000
0000
,
0001
0000
0000
0000
,
0001
0001
0000
0000
,
1000
0000
0000
0000
,
1000
1000
0000
0000
,
0010
0000
0000
0000
,
0000
0000
0000
0000
,
0010
0000
0000
0000
,
0000
0000
0000
0000
,
1000
0000
1000
0000
,
0001
0000
0001
0000
,
1000
0000
0000
0000
,
0001
0000
0000
0000
,
0010
0000
0010
0000
,
0010
0000
0010
0000
,
0000
0000
0000
0000
,
1001
0000
0000
0000
,
1000
0000
0000
0000
,
1000
0000
0000
0000
,
0001
0000
0000
0000
,
0001
0000
0000
0000
,
1000
0000
0000
0000
,
1000
0000
0000
0000
,
0001
0000
0000
0000
,
0001
0000
0000
0000
,
1000
0000
0000
0000
,
1000
0000
0000
0000
,
0001
0000
0000
0000
,
0001
0000
0000
0000
;

//---------------dance-single - ----------------
#NOTES:
     dance-single:
     :
     Easy:
     2:
     0.143,0.177,0.021,0.064,0.000:
0000
0000
0000
0000
,
0000
0000
0000
0000
,
0000
0000
0000
0000
,
0000
0000
0000
0000
,
0000
0000
0000
0000
,
0000
0000
0000
0000
,
0010
0000
0000
0000
,
1000
0000
0000
0000
,
0001
0000
0000
0000
,
0100
0100
0100
0000
,
0010
0000
0000
0000
,
1000
0000
0000
0000
,
0001
0000
0001
0000
,
1000
0000
1000
0000
,
0200
0000
0300
0000
,
0100
0100
0100
0000
,
0020
0000
0030
0000
,
0010
0010
0010
0000
,
0220
0000
0000
0330
,
0000
0000
0000
0000
,
0002
0000
1000
0000
,
1003
0000
0000
0000
,
2000
0000
0100
0000
,
3100
0000
0000
0000
,
0001
0000
0001
0000
,
0100
0000
0100
0000
,
1000
1000
1000
0000
,
0001
0001
0001
0000
,
1000
0001
1000
0000
,
0010
0100
0010
0000
,
1000
0001
1000
0001
,
1000
0000
0001
0000
,
0001
0001
0001
0000
,
0100
0100
0100
0000
,
1000
1000
1000
0000
,
1001
0000
0000
0000
,
0010
0000
0010
0000
,
1000
0000
1000
0000
,
0001
0000
0001
0000
,
0100
0100
0100
0000
,
0100
0000
0100
0000
,
1000
0000
1000
0000
,
0001
0000
0001
0000
,
0010
0010
0010
0000
,
0010
0000
0010
0000
,
0001
0000
0001
0000
,
1000
0000
1000
0000
,
0100
0100
0100
0000
;

//---------------dance-single - ----------------
#NOTES:
     dance-single:
     :
     Medium:
     4:
     0.241,0.253,0.053,0.000,0.000:
0000
0000
0000
0000
,
0000
0000
0000
0000
,
0000
0000
0000
0000
,
0000
0000
0000
0000
,
0000
0000
0000
0000
,
0000
0000
0000
0000
,
0010
0000
0100
0010
,
1000
0000
0001
0010
,
0001
0000
1000
0000
0001
1000
0001
0000
,
0100
0000
0010
0100
0010
0000
0000
0000
,
0010
0000
0100
0010
,
0001
0000
1000
0010
,
1000
0000
0001
0000
1000
0001
1000
0000
,
0100
0000
0010
0100
0010
0000
0000
0000
,
1000
0000
0000
0001
0000
0000
0101
0000
,
0010
1000
0100
1100
,
0001
0000
0000
1000
0000
0000
1100
0000
,
0010
0001
0100
0101
,
1000
0001
1000
1001
,
0010
0000
0000
0000
0010
0001
1000
0000
,
0001
0000
0100
0000
,
0010
0100
1000
0000
,
0001
0001
0010
0000
,
0001
0000
0010
0000
0100
0010
0001
0000
,
0100
0000
0010
1000
,
1000
0000
0100
0010
,
0010
0000
0001
0100
,
0100
0001
1000
0000
,
1000
0100
1000
0100
,
0010
0100
0010
0001
,
0100
0000
0010
0000
0100
0001
1000
0000
,
0001
0000
1000
0100
0010
0000
0000
0000
,
0001
0010
0010
0001
,
0100
0010
0010
0100
,
0010
0000
1000
0000
0100
0010
0001
0000
,
1000
0000
1000
0100
0001
0000
0000
0000
,
1000
0000
0100
0010
,
0100
0000
1000
0100
,
1000
0010
0100
0001
,
0010
0100
1000
0100
0000
0000
0000
0000
,
0001
0000
0100
0010
,
0100
0000
0001
0100
,
0001
0010
0100
1000
,
0010
0100
0001
0100
0000
0000
0000
0000
,
1000
0000
0010
0100
,
0010
0000
1000
0010
,
1000
0100
0010
0001
,
0100
0010
1000
0010
0000
0000
0000
0000
;

//---------------dance-single - ----------------
#NOTES:
     dance-single:
     :
     Hard:
     6:
     0.329,0.331,0.075,0.000,0.000: // measure 1
0000
0000
0000
0000
,  // measure 2
0000
0000
0000
0000
,  // measure 3
0000
0000
0000
0000
,  // measure 4
0000
0000
0000
0000
,  // measure 5
0000
0000
0000
0000
,  // measure 6
0000
0000
0000
0000
,  // measure 7
0001
0000
0010
0000
0100
1000
0001
0000
,  // measure 8
0100
0001
1000
0000
0100
0000
1000
0000
,  // measure 9
0001
0000
1000
0100
0001
0000
1000
0000
,  // measure 10
0010
0100
0001
0100
0010
0000
1000
0000
,  // measure 11
1000
0000
0010
0000
0100
0001
1000
0000
,  // measure 12
0100
1000
0001
0000
0100
0000
0001
0000
,  // measure 13
0010
1100
0101
0100
,  // measure 14
0001
0000
1000
0100
0010
0100
1000
0000
,  // measure 15
0001
0000
1000
0100
0000
0000
1100
0000
,  // measure 16
0010
0000
0001
0100
0000
0000
0101
0000
,  // measure 17
1000
0000
0001
0100
0000
0000
0101
0000
,  // measure 18
0010
0000
1000
0100
0000
0000
1100
0000
,  // measure 19
0001
0000
1000
0100
1000
0000
1100
0000
,  // measure 20
0010
0000
0001
0100
0010
0100
0001
0000
,  // measure 21
1000
0000
0100
0000
,  // measure 22
1000
0100
0001
0100
1000
0000
0000
0000
,  // measure 23
0001
0100
0001
0000
,  // measure 24
0001
0100
1000
0100
0001
0100
1000
0000
,  // measure 25
0100
0000
0100
0000
0010
0100
0010
0000
,  // measure 26
1000
0001
1000
0000
0010
0000
0100
0000
,  // measure 27
1000
0000
1000
0100
0001
0000
0100
0000
,  // measure 28
1000
0001
1000
0000
,  // measure 29
1000
0000
0100
0000
1000
0100
1000
0000
,  // measure 30
0001
0100
1000
0100
0001
0000
1000
0000
,  // measure 31
0100
0000
0010
0100
0010
0000
0001
0000
,  // measure 32
1000
0100
0001
0100
1000
0000
0000
0000
,  // measure 33
1000
0000
0001
0000
1000
0001
1000
0000
,  // measure 34
0010
0000
0100
0000
0010
0100
0010
0000
,  // measure 35
0001
0000
0010
0001
0010
0001
0010
0000
,  // measure 36
1000
0100
1000
0100
1000
0000
0001
0000
,  // measure 37
1000
0000
0100
0000
1000
0001
0100
0000
,  // measure 38
0100
0001
0100
0000
0001
0000
0001
0000
,  // measure 39
0100
0000
0010
1000
0100
0000
1000
0000
,  // measure 40
1000
0100
1000
0010
1000
0000
0001
0000
,  // measure 41
0001
0000
0100
0000
0001
1000
0100
0000
,  // measure 42
0100
1000
0100
0000
1000
0000
1000
0000
,  // measure 43
0100
0000
0010
0001
0100
0000
0001
0000
,  // measure 44
0001
0100
0001
0010
0001
0000
1000
0000
,  // measure 45
1000
0000
0010
0000
1000
0001
0010
0000
,  // measure 46
0010
0001
0010
0000
0001
0000
0001
0000
,  // measure 47
0010
0000
0100
1000
0010
0000
1000
0000
,  // measure 48
1000
0010
1000
0100
1000
0000
0010
0000
;
