#TITLE:Curry Up;
#SUBTITLE:;
#ARTIST:OR-IF-IS;
#TITLETRANSLIT:;
#SUBTITLETRANSLIT:;
#ARTISTTRANSLIT:;
#CREDIT:;
#BANNER:Curry Up.png;
#BACKGROUND:Curry Up-bg.png;
#LYRICSPATH:;
#CDTITLE:./CDTITLES/DanceDanceRevolution 2010.png;
#MUSIC:Curry Up.mp3;
#OFFSET:1.403;
#SAMPLESTART:8.040;
#SAMPLELENGTH:15.000;
#SELECTABLE:YES;
#BPMS:0.000=165.000;
#STOPS:;
#BGCHANGES:;

//---------------dance-single - ----------------
#NOTES:
     dance-single:
     :
     Hard:
     8:
     0.520,0.498,0.104,0.208,0.000: // measure 1
0000
0000
0000
0000
,  // measure 2
0000
0000
0000
0000
,  // measure 3
0000
0000
0000
0000
,  // measure 4
0000
0000
0000
0000
,  // measure 5
0000
0000
0000
0000
,  // measure 6
0010
0000
0001
1000
0100
0010
1000
0000
,  // measure 7
0100
0000
0010
0100
0001
1000
0100
0000
,  // measure 8
0010
0000
0001
1000
0100
0010
1000
0000
,  // measure 9
0100
0000
0010
0100
0001
1000
0010
0000
,  // measure 10
0100
0000
0010
0001
1000
0100
0010
0000
,  // measure 11
1000
0000
0010
0001
1000
0100
0010
0000
,  // measure 12
0001
0000
0100
1000
0010
0001
0100
0000
,  // measure 13
0010
0000
1000
0001
1000
0001
0100
0000
,  // measure 14
0001
0000
0100
0010
0100
0010
1000
0000
,  // measure 15
0010
0000
0001
1000
0100
0010
1000
0000
,  // measure 16
0100
0000
0010
0100
0001
1000
0010
0000
,  // measure 17
0100
0000
0010
0001
1000
0100
0010
0000
,  // measure 18
1000
0000
0010
0001
1000
0100
0010
0000
,  // measure 19
1000
0000
0010
0001
1000
0100
0010
0000
,  // measure 20
0001
0000
0100
1000
0010
0001
0100
0000
,  // measure 21
0010
0000
1000
0001
1000
0001
0100
0000
,  // measure 22
0001
0000
0100
0010
0100
0010
1000
0000
,  // measure 23
2002
0000
0000
3003
,  // measure 24
0010
0000
0001
0010
0001
0100
1000
0001
,  // measure 25
0100
0000
1000
0100
1000
0010
0001
1000
,  // measure 26
0001
0000
0010
0100
0001
0010
1000
0001
,  // measure 27
1000
0000
0010
0100
0001
1000
0100
0010
,  // measure 28
0001
0000
1000
0001
0100
0010
0001
0000
,  // measure 29
0100
0000
0001
0010
1000
0100
1000
0001
,  // measure 30
0010
0000
1000
0100
0010
0001
1000
0001
,  // measure 31
0100
0000
0010
0001
0100
1000
0001
1000
,  // measure 32
0200
0000
0300
1000
0001
0000
0010
0000
,  // measure 33
0002
0000
0003
1000
0100
0000
0010
0000
,  // measure 34
2000
0000
3000
0001
0010
0000
0100
0000
,  // measure 35
0020
0000
0030
0100
1000
0000
0100
0000
,  // measure 36
0200
0000
0300
1000
0001
0000
0010
0000
,  // measure 37
0002
0000
0003
1000
0100
0000
0010
0000
,  // measure 38
2000
0000
3000
0001
0010
0000
0100
0000
,  // measure 39
2002
0000
0000
3003
,  // measure 40
0020
0000
0030
0000
0000
1000
0001
1000
,  // measure 41
0002
0000
0000
0003
,  // measure 42
0200
0000
0000
0000
0300
0001
1000
0010
,  // measure 43
0200
0000
0000
0300
,  // measure 44
2000
0000
0000
0000
3000
0001
1000
0010
,  // measure 45
2002
0000
0000
3003
,  // measure 46
1001
1001
0000
0000
0000
0110
0000
1001
,  // measure 47
0110
0110
0000
0000
0000
0000
0000
0000
,  // measure 48
0010
0000
0001
0010
0001
0100
1000
0001
,  // measure 49
0100
0000
1000
0100
1000
0010
0001
1000
,  // measure 50
0001
0000
0010
0100
0001
0010
1000
0001
,  // measure 51
1000
0000
0010
0100
0001
1000
0100
0001
,  // measure 52
0010
0000
1000
0001
0100
0010
1000
0001
,  // measure 53
0100
0000
0001
0010
1000
0100
1000
0001
,  // measure 54
0010
0000
1000
0100
0010
0001
1000
0001
,  // measure 55
0100
0000
0010
0001
0100
1000
0001
0100
,  // measure 56
0010
0000
0001
0010
0001
0100
1000
0001
,  // measure 57
0100
0000
1000
0100
1000
0010
0001
1000
,  // measure 58
0001
0000
0010
0100
0001
0010
1000
0001
,  // measure 59
1000
0000
0010
0100
0001
1000
0100
0001
,  // measure 60
0010
0000
1000
0001
0100
0010
1000
0001
,  // measure 61
0100
0000
0001
0010
1000
0100
1000
0001
,  // measure 62
0010
0000
1000
0100
0010
0001
1000
0001
,  // measure 63
0100
0010
0100
0010
1000
0001
0220
0000
,  // measure 64
0000
0000
0000
0330
;

//---------------dance-single - ----------------
#NOTES:
     dance-single:
     :
     Beginner:
     3:
     0.217,0.261,0.083,0.000,0.000:
0000
0000
0000
0000
,
0000
0000
0000
0000
,
0000
0000
0000
0000
,
0000
0000
0000
0000
,
0000
0000
0000
0000
,
1000
0000
1000
0000
,
0010
0000
0010
0000
,
0100
0000
0100
0000
,
0001
0000
0001
0000
,
1000
0000
1000
0000
,
0100
0000
0100
0000
,
0010
0000
0010
0000
,
1000
0000
1000
0000
,
0001
0000
0001
0000
,
0100
0000
0100
0000
,
1000
0000
1000
0000
,
0010
0000
0010
0000
,
0001
0000
0001
0000
,
0010
0000
0010
0000
,
1000
0000
1000
0000
,
0100
0000
0100
0000
,
0001
0000
0001
0000
,
0100
0100
0100
0100
,
1001
0000
0000
0000
,
1001
0000
0000
0000
,
1001
0000
0000
0000
,
1001
0000
0000
0000
,
1001
0000
1000
0000
,
1001
0000
0001
0000
,
1001
0000
1000
0000
,
1001
0000
0001
0000
,
0010
0010
0010
0000
,
1000
0000
1000
0000
,
0010
0010
0010
0000
,
0001
0000
0001
0000
,
1000
1000
1000
0000
,
0100
0000
0100
0000
,
0001
0001
0001
0000
,
0100
0100
0100
0000
,
1000
1000
0000
0000
,
0001
0001
0000
0000
,
0010
0010
0000
0000
,
0100
0100
0000
0000
,
1000
1000
0000
0000
,
0010
0010
0000
0000
,
0001
0001
0000
0000
,
0100
0100
0100
0100
,
1000
0000
1000
1000
,
0001
0000
0001
0001
,
0010
0000
0010
0010
,
0100
0000
0100
0100
,
1000
0000
1000
1000
,
0010
0000
0010
0010
,
0001
0000
0001
0001
,
0100
0000
0100
0100
,
0010
0000
0010
0010
,
1000
0000
1000
1000
,
0010
0000
0010
0010
,
0001
0000
0001
0001
,
1000
0000
1000
1000
,
0010
0000
0010
0010
,
0001
0000
0001
0001
,
0100
0100
0100
0100
;

//---------------dance-single - ----------------
#NOTES:
     dance-single:
     :
     Easy:
     5:
     0.280,0.294,0.031,0.271,0.000:
0000
0000
0000
0000
,
0000
0000
0000
0000
,
0000
0000
0000
0000
,
0000
0000
0000
0000
,
0000
0000
0000
0000
,
1000
0000
0010
1000
,
0001
0000
0010
0001
,
0010
0000
1000
0100
,
1000
0000
0001
0100
,
0001
0000
1000
0100
,
1000
0000
0001
1000
,
0010
0000
1000
0010
,
0100
0000
0001
0100
,
0010
0000
1000
0010
,
0001
0001
1000
1000
,
0001
0000
0100
0001
,
1000
0000
0100
1000
,
0001
0000
0100
0001
,
2000
0000
0100
3100
,
1000
0000
0010
1000
,
0001
0000
0010
0001
,
1000
0000
0010
1000
,
0001
0100
0001
0100
,
0002
0000
0010
1003
,
0020
0000
1000
0100
,
2030
0000
0100
3001
,
0200
0000
0001
0310
,
0002
0000
0010
1003
,
0020
0000
1000
0130
,
2000
0000
0100
3001
,
0200
0000
0001
0310
,
1000
0000
0000
0100
1000
0000
0000
0000
,
0000
0000
0000
0100
,
1000
0000
0000
0100
1000
0000
0000
0000
,
0000
0000
0000
0000
,
0001
0000
0000
0100
0001
0000
0000
0000
,
0000
0000
0000
0100
,
0001
0000
0000
0100
0001
0000
0000
0000
,
0000
0000
0000
0000
,
2020
0000
0000
3030
,
2000
0000
0000
3000
,
0202
0000
0000
0303
,
0002
0000
0000
0003
,
2002
0000
0000
3003
,
2000
0000
0000
3000
,
0010
0000
1000
0001
,
0100
0000
0000
0000
,
2000
3000
0001
0010
,
0002
0003
1000
0100
,
2000
3000
0001
0010
,
0002
0003
1000
0010
,
2000
3000
0001
0100
,
0002
0003
1000
0010
,
2000
3000
0001
0100
,
0002
0000
0000
0003
,
1000
1000
0001
0010
,
0001
0001
1000
0100
,
1000
1000
0001
0010
,
0001
0001
1000
0010
,
1000
1000
0001
0100
,
0001
0001
1000
0010
,
1000
1000
0001
0100
,
0010
0000
0010
0000
1000
0100
1000
0000
;

//---------------dance-single - ----------------
#NOTES:
     dance-single:
     :
     Medium:
     6:
     0.369,0.392,0.062,0.062,0.000:
0000
0000
0000
0000
,
0000
0000
0000
0000
,
0000
0000
0000
0000
,
0000
0000
0000
0000
,
0000
0000
0000
0000
,
1000
0000
0001
0000
0000
1000
0001
0000
,
0100
0000
0010
1000
,
0100
0000
0010
0000
0000
0001
1000
0000
,
0010
0000
1000
0000
0000
0100
0010
0000
,
0001
0000
1000
0000
0000
0010
0100
0000
,
0001
1000
0100
0010
,
0001
0000
0100
0000
0000
0010
1000
0000
,
0100
0000
0010
0000
0000
0001
1000
0000
,
0010
0000
0100
0000
0000
0001
1000
0000
,
0100
0000
0010
0000
0000
0001
1000
0000
,
0001
0100
1000
0100
,
0010
0001
0100
0010
,
1000
0000
0100
0000
0000
0010
0001
0000
,
0100
0000
0010
0000
0000
1000
0001
0000
,
1000
0100
0001
0100
,
1000
0010
0100
0001
,
1000
0000
0100
0000
0000
1000
0001
0000
,
1001
0000
0000
0000
,
1000
0000
0100
0000
0010
0001
1000
0000
,
0010
0000
0100
0000
0001
1000
0001
0000
,
0100
0000
0010
0000
1000
0001
1000
0000
,
0100
0000
0010
0000
0001
1000
0001
0000
,
1000
0000
0010
0000
0100
0001
1000
0000
,
0100
0000
0010
0000
0001
1000
0001
0000
,
0100
0000
0010
0000
1000
0100
0010
0000
,
0001
0000
1000
0000
0010
0100
0010
0000
,
1000
0000
0100
0000
0010
0001
1000
0000
,
0010
0000
1000
0000
0010
0100
0010
0000
,
1000
0000
0100
0000
0010
0100
0010
0000
,
0001
0000
0100
0000
0010
1000
0010
0000
,
1000
0000
0100
0000
0010
0001
0100
0000
,
0010
0000
1000
0000
0100
0010
0001
0000
,
1000
0000
0001
0000
1000
0001
1000
0000
,
1001
0000
0000
0000
,
2020
0000
0000
0000
,
0000
0000
0000
3030
,
0202
0000
0000
0000
,
0000
0000
0000
0303
,
2002
0000
0000
0000
,
0000
0000
0000
3003
,
1000
1000
0000
0000
0000
1010
0000
1000
,
0001
1000
0000
0000
0100
0000
0010
0000
,
0001
0000
1000
0001
1000
0000
0001
0000
,
0100
0000
0001
1000
0100
0000
1000
0000
,
0001
0000
1000
0100
0010
0000
0001
0000
,
0100
0000
0010
1000
0001
0000
1000
0000
,
0001
0000
0010
0100
1000
0000
0001
0000
,
1000
0000
0100
1000
0001
0000
0100
0000
,
0001
0000
1000
0001
0100
0000
0010
0000
,
1000
0000
0100
0010
0001
0000
0010
0000
,
0100
0000
1000
0001
1000
0000
0001
0000
,
0100
0000
0001
1000
0100
0000
0010
0000
,
0001
0000
1000
0010
0100
0000
0001
0000
,
1000
0000
0100
0010
0001
0000
0010
0000
,
0001
1000
0010
0100
,
0001
0000
0010
0000
0100
1000
0100
0000
,
1000
0000
0001
1000
0100
0000
0010
0000
,
0100
1000
0100
0010
0001
1000
0001
0000
;
