#TITLE:Celebration;
#SUBTITLE:;
#ARTIST:Kool and the Gang;
#TITLETRANSLIT:;
#SUBTITLETRANSLIT:;
#ARTISTTRANSLIT:;
#CREDIT:;
#BANNER:Celebration.png;
#BACKGROUND:Celebration-bg.png;
#LYRICSPATH:;
#CDTITLE:./CDTITLES/DanceDanceRevolution 2010.png;
#MUSIC:Celebration.mp3;
#OFFSET:1.960;
#SAMPLESTART:8.379;
#SAMPLELENGTH:15.000;
#SELECTABLE:YES;
#BPMS:0.000=120.600,28.000=121.000,68.000=120.700,99.000=130.000,100.000=121.300,124.000=120.800,160.000=120.400,184.000=120.300,200.000=120.400;
#DISPLAYBPM:121;
#STOPS:;
#BGCHANGES:;

//---------------dance-single - ----------------
#NOTES:
     dance-single:
     :
     Beginner:
     2:
     0.133,0.173,0.000,0.000,0.000:
0000
0000
0000
0000
,
0000
0000
0000
0000
,
0000
0000
0000
0000
,
0010
0000
0000
0000
,
1000
0000
1000
0000
,
0010
0000
0010
0000
,
0001
0001
0001
0000
,
1000
0000
1000
0000
,
0001
0000
0100
0000
,
0010
0000
0000
0000
,
0001
0000
0000
0000
,
0001
0000
1000
0000
,
0100
0000
1000
0000
,
0010
0000
0000
0000
,
1000
0000
0000
0000
,
1000
0000
0001
0000
,
0100
0000
0001
0000
,
0010
0010
0010
0010
,
0010
0000
0000
0000
,
0001
0000
0001
0000
,
1000
0000
1000
0000
,
0010
0010
0010
0010
,
0010
0000
0000
0000
,
1000
0000
1000
0000
,
0001
0001
0001
0000
,
1000
0000
0000
0000
,
0010
0000
0000
0000
,
0001
0001
0000
0000
,
1000
1000
1000
0000
,
0001
0000
1000
0000
,
0010
0010
0010
0000
,
0010
0000
0000
0000
,
0001
0001
0001
0000
,
0010
0000
0000
0000
,
0001
0000
0001
0000
,
0010
0000
0010
0000
,
0001
0001
0001
0000
,
0001
0000
0001
0000
,
1000
0000
0100
0000
,
0001
0001
1000
1000
,
0001
0000
0000
0000
,
0010
0000
0010
0000
,
0100
0000
0000
0000
,
0001
0001
1000
1000
,
0001
0000
0000
0000
,
0010
0000
0010
0000
,
0001
0000
0000
0000
,
1000
1000
0001
0001
,
1000
0000
0000
0000
,
0100
0000
0100
0000
,
1000
0000
0000
0000
,
0001
0001
1000
1000
,
0001
0000
0000
0000
,
0010
0000
0000
0000
,
0100
0000
0000
0000
;

//---------------dance-single - ----------------
#NOTES:
     dance-single:
     :
     Easy:
     4:
     0.209,0.201,0.009,0.110,0.000:
0000
0000
0000
0000
,
0000
0000
0000
0000
,
0000
0000
0000
0000
,
0010
0000
0010
0010
,
0001
0001
0001
0000
,
0010
0010
0010
0000
,
1000
0001
1000
0000
,
0001
0010
0001
0000
,
1000
0100
0100
0000
,
0010
0000
0010
0010
,
1000
0000
1000
0000
,
1000
1000
0001
0001
,
0100
0001
0001
0000
,
0010
0000
0010
0010
,
0001
0000
0001
0000
,
0001
0001
1000
1000
,
0100
1000
1000
0000
,
0010
0100
1000
0001
,
0020
0030
0200
0300
,
1000
0000
1000
1000
,
0001
0000
0001
0001
,
0010
0100
1000
0001
,
0020
0030
0200
0300
,
0001
0000
0001
0001
,
1000
0100
0100
0000
,
0001
1000
0001
0000
,
0010
0010
0010
0000
,
1000
1000
0000
1000
,
0001
0100
0001
0000
,
1000
1000
0001
0000
,
0010
0000
1001
0000
,
0100
0000
0100
0100
,
1000
0100
1000
0000
,
0010
0000
0010
0010
,
1000
1000
1000
0000
,
0010
0010
0010
0000
,
1000
0001
1000
0000
,
0001
0100
0001
0000
,
1000
0010
0010
0000
,
1000
1000
0001
0001
,
2000
0000
0000
3000
,
0010
0001
0010
0001
,
0200
0000
0000
0300
,
1000
1000
0001
0001
,
2000
0000
0000
3000
,
0010
0001
0010
0001
,
0020
0000
0000
0030
,
0001
0010
0001
0010
,
0002
0000
0000
0003
,
0100
1000
0100
1000
,
0200
0000
0000
0300
,
1000
0010
1000
0010
,
0002
0000
0000
0003
,
0100
1000
0100
1000
,
0200
0000
0000
0300
;

//---------------dance-single - ----------------
#NOTES:
     dance-single:
     :
     Medium:
     6:
     0.345,0.351,0.082,0.220,0.000:
0000
0000
0000
0000
,
0000
0000
0000
0000
,
0000
0000
0000
0000
,
0010
0100
0001
0010
,
0100
1000
1000
0000
,
0002
0013
0020
0130
,
0200
1300
2000
3001
,
1000
0000
0010
0000
1000
0010
1000
0000
,
0001
0000
0100
0100
0100
0000
0000
0000
,
0010
0000
1000
0000
0010
0100
0010
0000
,
1000
1000
0001
0000
,
0001
0010
0001
0000
1000
1000
1000
0000
,
0010
1000
0010
0000
1000
1000
1000
0000
,
0010
0000
0100
0000
0010
1000
0010
1000
,
0001
0001
1000
0000
,
1000
0010
1000
0000
0001
0001
0001
0000
,
0010
0001
0010
0000
0001
0001
0001
0000
,
0010
0000
0100
1000
0001
0000
0100
0000
,
0020
2030
3002
0203
,
0301
0000
1000
0000
0001
0001
0001
0000
,
1000
0000
1000
0000
0001
0001
0001
0000
,
0010
0000
0100
1000
0001
0000
0100
0000
,
0020
2030
3002
0203
,
0310
0000
1000
0000
0010
0010
0010
0000
,
1000
0000
0001
0000
1000
0100
1000
0000
,
0010
1001
0010
1001
,
0010
0010
0010
0000
1000
0000
0100
0000
,
1000
0000
0001
0100
0001
0000
1000
0000
,
0010
0000
0100
0001
1000
0001
1000
0000
,
0001
1000
0010
0100
,
0010
1001
1001
1001
,
0100
0010
0001
0100
,
0001
0100
0001
0000
1000
0010
1000
0000
,
0010
0100
0001
0010
,
0010
0001
0001
0000
,
0002
0013
0020
0130
,
0200
1300
2000
3001
,
0001
0000
0010
0000
0001
0010
0001
0000
,
1000
0000
0100
0100
0100
0000
0000
0000
,
0010
0001
1000
0010
0100
0000
0100
0000
,
0002
0000
1000
1003
,
0010
1000
0010
0000
1000
0010
1000
0000
,
0200
0000
0010
0310
,
0010
0001
1000
0010
0100
0000
0100
0000
,
0002
0000
1000
1003
,
0010
1000
0010
0000
1000
0010
1000
0000
,
0200
0000
0001
0301
,
1000
1001
0001
1001
,
2000
0000
0001
3001
,
0100
0001
1000
0000
0001
0000
0001
0000
,
0200
0000
0010
0310
,
0001
1001
1000
1001
,
0002
0000
1000
1003
,
0100
1000
0001
0000
1000
0000
1000
0000
,
0200
0000
0010
0310
;

//---------------dance-single - ----------------
#NOTES:
     dance-single:
     :
     Hard:
     7:
     0.451,0.451,0.275,0.238,0.018: // measure 1
0000
0000
0000
0000
,  // measure 2
0000
0000
0000
0000
,  // measure 3
0000
0000
0000
0000
,  // measure 4
0100
0010
1000
0100
0010
0000
1100
0000
,  // measure 5
0010
0001
0010
0000
0001
0000
0101
0000
,  // measure 6
2000
3100
0200
0310
,  // measure 7
0020
0031
0002
1003
,  // measure 8
0001
0100
0001
0100
0010
0000
1000
0000
,  // measure 9
0001
1000
0010
0100
0010
1000
0001
0000
,  // measure 10
0100
0100
0001
0001
1000
0010
0100
0000
,  // measure 11
0001
0002
1000
1003
,  // measure 12
1000
0100
0010
0000
0001
0001
0001
0000
,  // measure 13
0100
0001
1000
0000
0001
0001
0001
0000
,  // measure 14
1000
0100
1000
1000
0001
0010
0100
0000
,  // measure 15
1000
2000
0001
3001
,  // measure 16
0001
0100
0010
0000
1000
1000
1000
0000
,  // measure 17
0100
1000
0001
0000
1000
1000
1000
0000
,  // measure 18
0100
0000
0010
0001
1000
0010
0100
0001
,  // measure 19
0200
0300
0002
2000
3003
0020
0130
0000
,  // measure 20
1100
0000
0011
0000
1000
1000
1000
0000
,  // measure 21
0101
0000
1001
0000
1000
1000
1000
0000
,  // measure 22
0100
0000
0010
0001
1000
0010
0100
0001
,  // measure 23
0200
0300
0002
2000
3003
0020
0130
0000
,  // measure 24
0101
0000
1010
0000
0001
0001
0001
0000
,  // measure 25
1100
0000
1001
0000
0001
1000
0001
0000
,  // measure 26
0101
1010
0110
1001
,  // measure 27
0100
1000
0100
1000
0001
0100
0010
1000
,  // measure 28
0001
0000
1000
0010
0100
0001
1000
0000
,  // measure 29
0100
1000
0000
1000
0010
0100
0001
0000
,  // measure 30
1000
0011
0100
1010
,  // measure 31
0110
0011
1100
1001
,  // measure 32
0100
0010
0001
0100
0010
0000
0101
0000
,  // measure 33
0010
1000
0010
0000
1000
0000
1100
0000
,  // measure 34
0100
0010
1000
0100
0010
0000
1100
0000
,  // measure 35
0100
1000
0100
0000
1000
0000
1010
0000
,  // measure 36
2000
3100
0200
0310
,  // measure 37
0020
0031
0002
1003
,  // measure 38
0001
0010
0001
0010
0100
0000
1000
0000
,  // measure 39
0001
1000
0100
0010
0100
1000
0001
0000
,  // measure 40
0100
1000
0001
0100
0010
0000
0011
0000
,  // measure 41
2000
0100
0001
3001
,  // measure 42
0100
0001
0100
0001
1000
0010
0100
0000
,  // measure 43
0020
1000
0100
0130
,  // measure 44
0100
1000
0001
0100
0010
0000
0011
0000
,  // measure 45
2000
0100
0001
3001
,  // measure 46
0100
0001
0100
0001
1000
0010
0100
0000
,  // measure 47
0020
0100
1000
1030
,  // measure 48
0001
0000
1000
0001
1000
0000
0100
0000
1000
0000
0001
0000
0100
0000
0010
1000
,  // measure 49
0002
0000
0100
0000
1000
1000
1003
0000
,  // measure 50
0010
1000
0001
0000
1100
0000
0011
0000
,  // measure 51
0020
0000
1000
0000
0100
0100
0130
0000
,  // measure 52
1000
0000
0001
1000
0001
0000
0100
0000
0001
0000
1000
0000
0100
0000
0010
0001
,  // measure 53
2000
0000
0100
0000
0001
0001
3001
0000
,  // measure 54
0010
0001
1000
0000
0101
0000
1010
0000
,  // measure 55
0020
0000
0001
0000
0100
0100
0130
0000
;
