#TITLE:CRAZY♥LOVE;
#SUBTITLE:;
#ARTIST:jun;
#TITLETRANSLIT:CRAZY LOVE;
#SUBTITLETRANSLIT:;
#ARTISTTRANSLIT:;
#CREDIT:;
#BANNER:CRAZY LOVE.png;
#BACKGROUND:CRAZY LOVE-bg.png;
#LYRICSPATH:;
#CDTITLE:./CDTITLES/DanceDanceRevolution 2010.png;
#MUSIC:CRAZY LOVE.mp3;
#OFFSET:1.230;
#SAMPLESTART:38.060;
#SAMPLELENGTH:15.000;
#SELECTABLE:YES;
#BPMS:0.000=177.000,20.000=88.500,28.000=177.000,236.000=88.500,252.000=177.000;
#STOPS:;
#BGCHANGES:;

//---------------dance-single - ----------------
#NOTES:
     dance-single:
     :
     Hard:
     10:
     0.856,0.837,0.799,0.490,0.341:
0000
0000
0000
0000
,
0000
0000
0000
0000
,
0000
0000
0000
0000
,
0000
0000
0000
0000
,
0000
0000
0000
0000
,
1000
0100
0002
0010
0000
0013
0100
1000
0010
0100
2000
0001
0000
3001
0010
1000
,
0100
0010
2000
0001
0000
3001
0100
0010
0001
0001
1000
1000
1010
0000
0101
0000
,
0010
1000
0100
0010
0001
1000
0001
0010
,
0100
0001
0100
0010
1000
0001
1000
0010
,
0001
1000
0010
0100
0001
1000
0001
0010
,
0011
0000
0100
0000
1100
0000
0000
0000
1001
0000
0000
0010
0100
0000
0010
0001
,
1000
0100
0010
0200
0000
0301
1000
0010
,
0100
0001
1000
0200
0000
0310
0001
1000
,
0010
0100
0010
0001
0010
0100
0010
1000
,
1100
0000
0011
0000
1010
0010
0110
0000
,
0001
0100
0010
0200
0000
1300
0001
0010
,
0100
1000
0001
0200
0000
0310
1000
0001
,
0010
0100
0010
0001
0000
0100
0010
1000
,
0002
1000
2003
0001
3001
1000
1001
0000
,
0001
0010
0100
2100
0000
3010
0100
0001
,
0010
1000
0010
0012
0000
1003
0010
0100
,
0001
0010
1000
0001
0100
1000
0001
0010
,
1000
0010
0001
0101
0000
0010
0100
1000
,
1000
0010
0100
0102
0000
0013
0100
1000
,
0010
0001
0010
2010
0000
3001
0010
0001
,
1000
0010
0001
1000
0001
0010
1000
0100
,
0000
0010
0100
0100
0110
0000
1001
0000
,
1200
0000
0000
1300
0010
0000
0100
0000
0001
1000
0100
0000
0001
0000
0100
0000
,
1000
0001
0100
0000
1000
0000
0001
0010
0001
0000
0100
0000
1100
0000
0000
0000
,
0020
1000
1030
0020
0100
0130
0010
1000
,
0010
1000
0100
0110
0000
0001
0100
1000
,
1200
0000
0000
1300
0010
0000
0100
0000
0001
1000
0100
0000
0001
0000
0100
0000
,
1000
0001
0100
0000
1000
0000
0001
0010
0001
0000
0100
0000
1100
0000
0000
0000
,
0020
1000
1030
2010
0000
3100
0010
0001
,
0001
0011
0010
0100
1100
0000
1001
0000
,
0201
0000
0000
0301
0010
0000
0100
0000
1000
0001
0100
0000
1000
0000
0100
0000
,
0001
1000
0100
0000
0001
0000
1000
0010
1000
0000
0100
0000
0101
0000
0000
0000
,
0020
0001
0031
0020
0100
0130
0010
0001
,
0010
0001
0100
0110
0000
1000
0100
0001
,
0201
0000
0000
0301
0010
0000
0100
0000
1000
0001
0100
0000
1000
0000
0100
0000
,
0001
1000
0100
0000
0001
0000
1000
0010
1000
0000
0100
0000
0101
0000
0000
0000
,
0020
0001
0031
0012
0000
0103
0010
1000
,
0001
0101
0110
1100
0101
0000
1001
0000
,
1010
0010
0001
0012
0000
0103
1000
0010
,
0101
0100
0010
2010
0000
3100
0010
0001
,
0011
0010
1000
0102
0000
0103
1000
0001
,
1000
1100
0010
0011
0110
0000
1001
0000
,
0011
0010
1000
2010
0000
3100
0001
0010
,
1100
0100
0010
0012
0000
0103
0010
1000
,
1010
0010
0001
2100
0000
3100
0001
1000
,
1000
1100
0000
0011
0001
0100
1100
0000
,
0001
0010
1000
0210
0000
0301
1100
0000
,
0001
0010
0100
1200
0000
0301
0110
0000
,
0001
0010
1000
0102
0000
0103
1010
0000
,
1100
0011
1010
0101
,
1000
0010
0001
0210
0000
1300
0101
0000
,
1000
0010
0100
0201
0000
1300
0110
0000
,
1000
0010
0001
2100
0000
3100
0011
0000
,
1000
0001
0100
0010
1000
0100
0110
0000
,
2000
0100
0000
0001
0000
0100
0000
3001
0200
0010
0000
0001
0000
1000
0000
1300
,
0002
0010
0000
0100
0000
0010
0000
0013
0200
1000
0000
1000
0000
0001
0000
0301
,
2000
0100
0000
0001
0000
0100
0000
3001
0200
0010
0000
0001
0000
1000
0000
1300
,
0002
0010
0000
0100
0000
0010
0000
0013
1000
0010
0100
0001
0100
0000
0110
0000
,
1200
0000
0000
1300
0010
0000
0100
0000
0001
1000
0100
0000
0001
0000
0100
0000
,
1000
0001
0100
0000
1000
0000
0001
0010
0001
0000
0100
0000
1100
0000
0000
0000
,
0020
1000
1030
0020
0100
0130
0010
1000
,
0010
1000
0100
0110
0000
0001
0100
0010
,
1000
1100
0000
0110
0000
0011
1000
0100
,
0010
0000
0011
0000
0000
0000
0110
0000
0000
0000
1100
0000
0010
0000
0001
0200
,
1000
0000
0000
0000
0310
1000
0100
0010
0200
0000
0000
0000
0310
0000
1000
0200
,
0001
0000
0000
0000
0310
0001
0100
0010
0200
0000
0000
0000
0310
0000
0001
0020
,
1000
0000
0000
0000
0130
0000
1000
0100
0001
0000
1000
0010
0001
0000
0100
0000
,
0000
1100
0110
0101
1001
0000
0220
0000
,
0000
0000
0000
0330
;

//---------------dance-single - ----------------
#NOTES:
     dance-single:
     :
     Beginner:
     3:
     0.205,0.268,0.145,0.200,0.000:
0000
0000
0000
0000
,
0000
0000
0000
0000
,
0000
0000
0000
0000
,
0000
0000
0000
0000
,
0000
0000
0000
0000
,
0001
0000
1000
0000
,
0010
0000
0100
0000
,
0001
0000
0000
0000
,
1000
0000
1000
0000
,
0010
0000
0010
0000
,
0100
0100
0100
0000
,
0001
0000
0010
0000
,
1000
0000
0010
0000
,
0001
0000
1000
0000
,
0001
0000
0000
0000
,
0001
0000
0010
0000
,
1000
0000
0010
0000
,
0001
0000
1000
0000
,
0002
0000
0003
0000
,
1000
0000
1000
0000
,
0001
0000
0001
0000
,
1000
1000
1000
0000
,
0001
0001
0001
0000
,
1000
0000
1000
0000
,
0001
0000
0001
0000
,
0020
0000
0030
0000
,
0100
0000
0000
0000
,
1001
0000
0000
0000
,
1001
0000
0001
0000
,
0010
0000
0100
0000
,
0020
0000
0030
0000
,
1001
0000
0000
0000
,
1001
0000
0001
0000
,
0010
0010
0010
0010
,
0020
0000
0030
0000
,
1001
0000
0000
0000
,
1001
0000
0001
0000
,
0010
0000
0100
0000
,
0020
0000
0030
0000
,
1001
0000
0000
0000
,
1001
0000
0001
0000
,
0100
0100
0100
0000
,
1001
0000
0000
0000
,
0001
0001
0001
0000
,
0010
0010
0010
0000
,
0100
0100
0100
0000
,
2000
0000
3000
0000
,
1000
1000
1000
0000
,
0010
0010
0010
0000
,
0100
0100
0100
0000
,
0002
0000
0003
0000
,
2000
0000
3000
0000
,
0200
0000
0300
0000
,
0020
0000
0030
0000
,
0002
0000
0003
0000
,
2000
0000
3000
0000
,
0200
0000
0300
0000
,
0020
0000
0030
0000
,
0001
0001
0001
0000
,
0200
0000
0000
0000
,
0000
0000
0000
0000
,
0000
0000
0000
0000
,
0000
0000
0000
0300
,
1001
0000
0000
0000
,
1001
0000
0001
0000
,
0010
0000
0100
0000
,
0020
0000
0030
0000
,
1001
0000
0110
0000
,
0110
0000
1001
0000
,
0200
0000
0300
0010
,
0200
0000
0300
0010
,
2000
3000
0002
0003
,
1000
0001
1000
2002
,
0000
0000
0000
3003
;

//---------------dance-single - ----------------
#NOTES:
     dance-single:
     :
     Easy:
     6:
     0.313,0.435,0.136,0.300,0.000:
0000
0000
0000
0000
,
0000
0000
0000
0000
,
0000
0000
0000
0000
,
0000
0000
0000
0000
,
0000
0000
0000
0000
,
0001
0100
0001
0010
,
1000
0000
0100
0000
0010
0010
0010
0000
,
1000
0000
0010
0000
,
0001
0100
0010
0000
,
1000
0100
0010
0000
,
0010
0100
1000
0000
,
0001
0001
0100
0000
,
0001
0001
0010
0000
,
2000
3100
0002
0103
,
1000
0001
1000
0000
,
1000
1000
0100
0000
,
1000
1000
0010
0000
,
0002
0103
2000
3100
,
0010
0000
0000
0000
,
1000
0100
1000
0000
,
0001
0100
0001
0000
,
2000
3002
2003
3002
,
0203
0320
0130
0000
,
1000
0100
1000
0000
,
0001
0010
0001
0000
,
0100
0100
0010
0010
,
0110
0000
0000
0000
,
2000
0000
0010
3000
,
1010
0000
0001
0010
,
0001
0001
0100
0000
,
0010
0100
0010
0000
,
2000
0000
0010
3000
,
1010
0000
0001
0010
,
0100
0010
0100
0000
,
0100
0010
0100
0000
,
0002
0000
0010
0003
,
0011
0000
1000
0010
,
1000
1000
0100
0000
,
0010
0100
0010
0000
,
0002
0000
0010
0003
,
0011
0000
1000
0010
,
1000
1000
0001
0000
,
1000
0001
1001
0000
,
0010
0000
1000
1000
,
0010
0000
0100
0100
,
0001
0000
0010
0010
,
0100
0100
0100
0100
,
0010
0000
0001
0001
,
0010
0000
0100
0100
,
1000
0000
0010
0010
,
0220
0000
0330
0000
,
2000
0000
3100
0010
,
0002
0000
1003
0001
,
2000
0000
3001
0100
,
0010
0000
0000
0000
,
0002
0000
0103
0010
,
2000
0000
3001
1000
,
0002
0000
1003
0100
,
0010
0000
0000
0000
,
0200
0000
0001
0000
,
0010
0000
1000
0300
,
0020
0000
0001
0000
,
0100
0000
0000
0000
1030
0001
1000
0000
,
2000
0000
0000
3000
,
1010
0000
0001
0010
,
0001
0001
0100
0000
,
0010
0100
0010
0000
,
0110
0000
1010
0000
,
0011
0000
1001
0000
,
0210
0010
0020
0330
,
0210
0010
0020
0330
,
2000
3010
0002
0103
,
1000
0010
0001
2002
,
0000
0000
0000
3003
;

//---------------dance-single - ----------------
#NOTES:
     dance-single:
     :
     Medium:
     8:
     0.679,0.737,0.463,0.481,0.163:
0000
0000
0000
0000
,
0000
0000
0000
0000
,
0000
0000
0000
0000
,
0000
0000
0000
0000
,
0000
0000
0000
0000
,
0100
0000
0010
0002
0000
0100
0103
0000
0010
0000
1000
0020
0000
0100
0130
0000
,
0001
0000
0010
0200
0000
1000
1300
0000
0020
0000
0230
0000
0302
0000
0103
0000
,
1000
0010
0100
0002
0000
0013
0100
0010
,
0001
0010
0100
2000
0000
3001
0100
0001
,
1000
0010
0100
0020
0000
1030
0100
1000
,
0001
0100
0101
0000
1000
0001
0101
0000
,
0120
0000
1000
0000
0130
0001
0100
0000
,
0120
0000
1000
0000
0130
0010
0001
0000
,
1000
0100
1000
0001
0100
0001
0010
0100
,
2000
0010
0001
3100
,
0120
0000
0001
0000
0130
1000
0100
0000
,
0120
0000
0001
0000
0130
0010
1000
0000
,
0001
0100
0001
1000
0100
1000
0010
0000
,
0011
1010
0101
1100
,
0010
0000
1000
0001
0100
0100
0010
1000
,
0010
0000
0001
0010
0100
0100
0010
1000
,
0100
0001
0100
1000
0100
0001
0100
1000
,
0020
0001
1000
0130
,
0010
0000
1000
0001
0100
0100
0010
1000
,
0010
0000
0100
0010
0100
0100
0010
0000
,
1100
0101
1100
0101
,
0011
0110
1100
0000
,
0110
0000
1000
0020
0000
0130
0001
0100
,
2000
0000
3100
0001
0010
0100
0010
0000
,
0001
0100
0001
0010
0001
0100
0010
1000
,
0200
0000
0001
1300
,
0110
0000
0001
0020
0000
0130
1000
0100
,
0002
0000
0103
1000
0010
0100
0010
0000
,
0100
0010
0100
1000
0100
0001
0100
0010
,
1000
0100
0010
0001
0100
0000
1001
0000
,
0110
0000
0001
0020
0000
0130
1000
0100
,
0002
0000
0103
1000
0010
0100
0010
0000
,
1000
0100
1000
0010
1000
0100
0010
0001
,
0200
0000
1000
0301
,
0110
0000
1000
0020
0000
0130
0001
0100
,
2000
0000
3100
0001
0010
0100
0010
0000
,
0100
0010
0100
0001
0000
1000
0100
0010
,
0001
0010
0100
0100
0110
0000
1001
0000
,
1000
0010
0100
0002
0000
0013
0110
0000
,
0001
0010
0100
0020
0000
0031
0101
0000
,
1000
0010
0100
0020
0000
0130
0110
0000
,
0001
0001
0010
0010
0200
0000
0310
0000
,
0001
0010
0100
2000
0000
3010
0110
0000
,
1000
0010
0100
0020
0000
1030
1100
0000
,
0001
0010
0100
0020
0000
0130
0110
0000
,
0010
1000
0000
1100
0000
0011
0000
0100
,
0001
0100
0020
1000
0030
0001
0200
0000
,
0301
0010
0200
1000
0300
0001
2000
0000
,
3001
0100
0020
1000
0030
0010
0200
0000
,
0310
1010
0100
0101
,
1000
0100
0020
0001
0030
1000
0200
0000
,
1300
0010
0200
0001
0300
1000
0002
0000
,
1003
0100
0020
0001
0030
0010
0200
0000
,
0310
0001
0010
0001
0100
0010
0110
0000
,
0200
1000
0000
1000
0000
1000
0000
1000
0000
0001
0000
0001
0000
0001
0000
0001
,
0000
0010
0000
0010
0000
0010
0000
0010
0000
1000
0000
1000
0000
0001
0000
0301
,
0020
1000
0000
1000
0000
1000
0000
1000
0000
0001
0000
0001
0000
0001
0000
0001
,
0000
0100
0000
0100
0000
0130
0000
0100
0010
0001
0010
0100
1000
0000
1001
0000
,
0110
0000
1000
0020
0000
0130
0001
0100
,
2000
0000
3100
0001
0010
0100
0010
0000
,
0001
0100
0001
0010
0001
0100
0010
1000
,
0200
0010
0001
1300
,
0001
0011
0000
0110
0000
1100
0000
0110
,
0000
1010
0000
0110
0000
0011
0000
0110
,
0020
0000
0000
0100
0130
0001
0010
0110
,
0020
0000
0000
0100
0130
1000
0010
0110
,
0010
0001
1000
1100
0000
0001
0010
1010
,
0000
0001
0100
0010
1010
0000
0202
0000
,
0000
0000
0000
0303
;
