#TITLE:Battlefield;
#SUBTITLE:;
#ARTIST:Jordin Sparks;
#TITLETRANSLIT:;
#SUBTITLETRANSLIT:;
#ARTISTTRANSLIT:;
#CREDIT:;
#BANNER:Battlefield.png;
#BACKGROUND:Battlefield-bg.png;
#LYRICSPATH:;
#CDTITLE:./CDTITLES/DanceDanceRevolution 2010.png;
#MUSIC:Battlefield.mp3;
#OFFSET:1.617;
#SAMPLESTART:38.120;
#SAMPLELENGTH:15.000;
#SELECTABLE:YES;
#BPMS:0.000=145.000;
#STOPS:;
#BGCHANGES:;

//---------------dance-single - ----------------
#NOTES:
     dance-single:
     :
     Hard:
     7:
     0.400,0.447,0.155,0.043,0.000:
0000
0000
0000
0000
,
0000
0000
0000
0000
,
0000
0000
0000
0000
,
0000
0000
0000
0000
,
0000
0000
0000
0000
,
1000
0100
1000
0100
0010
0000
0010
0001
,
0000
0001
0100
0000
0101
0000
0000
0000
,
0001
0100
0001
0100
0010
0000
0010
0000
,
1000
0100
0100
0000
,
1000
0001
1000
0100
1000
0000
1000
0100
,
0010
0001
1000
0100
,
1000
0010
0100
0010
1000
0000
0100
0010
,
0000
0001
0010
0000
0001
0000
0100
0000
,
0001
1000
0001
0100
0001
0000
0001
0100
,
0010
1000
0001
0100
,
0001
0010
0100
0010
0001
0000
0100
0010
,
0000
1000
0010
0000
1000
0000
0100
0000
,
1000
1000
0100
0100
,
0010
0001
0010
0000
0010
1000
0010
0000
,
1000
0000
0100
0000
0000
0000
0010
0001
,
1000
0001
1000
0000
,
0001
0001
0100
0100
,
0010
1000
0010
0000
0010
0001
0010
0000
,
0001
0100
0000
0010
,
1000
0100
0010
0100
0010
0001
1000
0000
,
0001
0100
1000
0100
0020
0000
0030
0000
,
1000
0100
0010
0100
1000
0000
0001
0000
,
0100
0000
1000
0100
0002
0000
0003
0000
,
1000
0100
0010
0001
0010
0100
1000
0000
,
1000
0100
0001
0100
0020
0000
0030
0000
,
0001
0100
0010
0100
0001
0000
1000
0000
,
0100
0000
0001
0100
2000
0000
3000
0000
,
0001
0100
0010
1000
0010
0100
0001
0000
,
1100
0000
1000
0100
0000
0100
0010
0001
,
0011
0000
0010
0001
0000
0100
0010
1000
,
1100
0000
1000
0100
1000
0000
0001
0100
,
0001
0000
0100
0010
1000
0100
1000
0000
,
0101
0000
0001
0100
0000
0100
0010
1000
,
1010
0000
0010
1000
0000
0100
0010
0001
,
0101
0000
0001
0100
0001
0000
1000
0100
,
1000
0000
0100
0010
0001
0100
0001
0000
,
1000
0000
0010
0000
0000
0000
1000
0100
,
0000
0000
0000
0000
,
0001
0000
1000
0000
0000
0000
0100
0001
,
0000
0000
0000
0000
,
0010
0000
1000
0000
0000
0000
0100
1000
,
0000
0000
0000
0000
,
1100
0011
0101
1010
,
0100
0010
0100
0010
1001
0000
0000
0000
,
1100
0000
1000
0100
0000
0100
0010
0001
,
0011
0000
0010
0001
0000
0100
0010
1000
,
1100
0000
1000
0100
1000
0000
0001
0100
,
0002
0000
0103
0010
1000
0100
1000
0000
,
0101
0000
0001
0100
0000
0100
0010
1000
,
1010
0000
0010
1000
0000
0100
0010
0001
,
0101
0000
0001
0100
0001
0000
1000
0100
,
1000
0100
0010
0001
,
0000
0000
0000
1000
0100
1000
0100
1000
,
0100
0000
0000
0100
0001
0100
0001
0100
,
0001
0000
0000
0001
0010
0001
0010
0001
,
0010
0100
0010
0001
,
0000
0000
0000
0001
0100
0001
0100
0001
,
0100
0000
0000
0100
1000
0100
1000
0100
,
1000
0000
0000
1000
0010
1000
0010
1000
,
0010
0100
0010
1000
;

//---------------dance-single - ----------------
#NOTES:
     dance-single:
     :
     Beginner:
     2:
     0.102,0.165,0.017,0.052,0.000:
0000
0000
0000
0000
,
0000
0000
0000
0000
,
0000
0000
0000
0000
,
0000
0000
0000
0000
,
0000
0000
0000
0000
,
1000
0000
0000
0000
,
0000
0000
0000
0000
,
0001
0000
1000
0000
,
0010
0000
0000
0000
,
0001
0000
0000
0000
,
0001
0000
0000
0000
,
1000
0000
0001
0000
,
1000
0000
0000
0000
,
1000
0000
0000
0000
,
1000
0000
0000
0000
,
0001
0000
1000
0000
,
0001
0000
0000
0000
,
0001
0000
0000
0000
,
1000
0000
1000
0000
,
0002
0003
0000
0000
,
0000
0000
0000
0000
,
1000
0000
0000
0000
,
0001
0000
0001
0000
,
2000
3000
0000
0000
,
1001
0000
0000
0000
,
0001
0000
0001
0000
,
0010
0000
0010
0000
,
0001
0000
0001
0000
,
0010
0010
0010
0000
,
1000
0000
1000
0000
,
0010
0000
0010
0000
,
1000
0000
1000
0000
,
0010
0010
0010
0000
,
0001
0000
0001
0000
,
1000
0000
1000
0000
,
0100
0000
0100
0000
,
0000
0000
0000
0000
,
0001
0000
0001
0000
,
1000
0000
1000
0000
,
0100
0000
0100
0000
,
0000
0000
0000
0000
,
0001
0000
0000
0000
,
0000
0000
0000
0000
,
1000
0000
0000
0000
,
0000
0000
0000
0000
,
0010
0000
0000
0000
,
0000
0000
0000
0000
,
0001
0000
1000
0000
,
1001
0000
0000
0000
,
1000
0000
1000
0000
,
0001
0000
0001
0000
,
0010
0000
0010
0000
,
0000
0000
0000
0000
,
1000
0000
1000
0000
,
0001
0000
0001
0000
,
0010
0000
0010
0000
,
0000
0000
0000
0000
,
0002
0000
0000
0003
,
0000
0000
0000
0000
,
2000
0000
0000
3000
,
0000
0000
0000
0000
,
0002
0000
0000
0003
,
0000
0000
0000
0000
,
2000
0000
0000
3000
;

//---------------dance-single - ----------------
#NOTES:
     dance-single:
     :
     Easy:
     4:
     0.191,0.251,0.026,0.112,0.000: // measure 1
0000
0000
0000
0000
,  // measure 2
0000
0000
0000
0000
,  // measure 3
0000
0000
0000
0000
,  // measure 4
0000
0000
0000
0000
,  // measure 5
0000
0000
0000
0000
,  // measure 6
1000
0000
0000
0000
,  // measure 7
0001
0010
0001
0000
,  // measure 8
0001
0000
0010
0000
,  // measure 9
0100
0000
1000
0000
,  // measure 10
0001
0001
0100
0000
,  // measure 11
0010
0010
0100
0000
,  // measure 12
0001
0100
0100
0000
,  // measure 13
0001
0000
0001
0000
,  // measure 14
1000
1000
0100
0000
,  // measure 15
0010
0010
0100
0000
,  // measure 16
1000
0100
0100
0000
,  // measure 17
1000
0000
1000
0000
,  // measure 18
0001
0000
1000
0000
,  // measure 19
0100
0000
0010
0000
,  // measure 20
0010
0000
0100
0000
,  // measure 21
0010
0001
1000
0000
,  // measure 22
1000
0000
0001
0000
,  // measure 23
0100
0000
0010
0000
,  // measure 24
0010
0000
0100
0000
,  // measure 25
0010
0001
1000
0000
,  // measure 26
0002
0003
0010
0000
,  // measure 27
2000
3000
0100
0000
,  // measure 28
0001
1000
0002
0003
,  // measure 29
1000
0001
1001
0000
,  // measure 30
2000
3000
0100
0000
,  // measure 31
0002
0003
0010
0000
,  // measure 32
1000
0001
2000
3000
,  // measure 33
0001
1000
1001
0000
,  // measure 34
0001
0001
0001
0000
,  // measure 35
1000
0010
1000
0000
,  // measure 36
0100
0100
0100
0000
,  // measure 37
2000
3001
0100
0100
,  // measure 38
0001
0001
0001
0000
,  // measure 39
1000
0010
1000
0000
,  // measure 40
0100
0100
0100
0000
,  // measure 41
2000
3000
0100
0100
,  // measure 42
0002
0000
0000
0000
,  // measure 43
0000
0003
0000
0000
,  // measure 44
2000
0000
0000
0000
,  // measure 45
0000
3000
0000
0000
,  // measure 46
0020
0000
0000
0000
,  // measure 47
0000
0030
0000
0000
,  // measure 48
0001
1000
0001
1000
,  // measure 49
0100
0010
1001
0000
,  // measure 50
1000
1000
1000
0000
,  // measure 51
0001
0100
0001
0000
,  // measure 52
0010
0010
0010
0000
,  // measure 53
0002
0003
0010
0010
,  // measure 54
1000
1000
1000
0000
,  // measure 55
0001
0100
0001
0000
,  // measure 56
0010
0010
0010
0000
,  // measure 57
0002
0003
0010
0010
,  // measure 58
0001
0000
0000
0000
,  // measure 59
0100
0000
1000
0000
,  // measure 60
0100
0000
0000
0000
,  // measure 61
0100
0000
0010
0000
,  // measure 62
1000
0000
0000
0000
,  // measure 63
0100
0000
0001
0000
,  // measure 64
0100
0000
0000
0000
,  // measure 65
0100
0000
0010
0000
;

//---------------dance-single - ----------------
#NOTES:
     dance-single:
     :
     Medium:
     5:
     0.305,0.334,0.173,0.095,0.000:
0000
0000
0000
0000
,
0000
0000
0000
0000
,
0000
0000
0000
0000
,
0000
0000
0000
0000
,
0000
0000
0000
0000
,
0001
0100
1000
0000
0010
0000
0000
0000
,
0100
0100
0101
0000
,
1000
0100
1000
0000
0010
0000
0010
0000
,
0001
0100
0100
0000
,
1000
0001
1000
0000
0001
0000
1000
0000
,
0010
0010
0100
0100
,
1000
0010
0100
0000
0001
0000
0100
0000
,
0000
0010
1000
0000
,
0001
1000
0001
0000
1000
0000
0001
0000
,
0010
0010
0100
0100
,
0001
0010
0100
0000
1000
0000
0100
0000
,
0000
0010
0001
0000
,
1000
1000
0001
0001
,
0100
0100
0010
0010
,
1000
0100
0000
0010
,
1000
0001
1001
0000
,
0001
0001
1000
1000
,
0100
0100
0010
0010
,
0001
0100
0000
0010
,
1000
0100
0010
0000
0100
0100
0001
0000
,
1000
0100
0001
0000
0020
0000
0030
0000
,
0001
0010
0001
0000
1000
0000
0001
0000
,
0100
0010
2000
3000
,
0001
1000
0010
1001
,
0001
0100
1000
0000
0020
0000
0030
0000
,
1000
0010
1000
0000
0001
0000
1000
0000
,
0100
0010
0002
0003
,
1000
0001
0010
1001
,
1000
1000
1100
0000
,
0001
0000
0010
0001
0011
0000
0000
0000
,
1100
1000
1000
0001
,
0001
0000
0100
0000
0010
1000
0010
0000
,
1000
1000
1100
0000
,
0001
0000
0010
0001
0011
0000
0000
0000
,
1100
1000
1000
0001
,
0001
0000
0100
0000
0010
1000
0001
0000
,
2000
0000
0000
0000
3000
0000
1000
0001
,
0000
0000
0000
0000
,
0002
0000
0000
0000
0003
0000
0100
0010
,
0000
0000
0000
0000
,
0020
0000
0000
0000
0030
0000
1000
0100
,
0000
0000
0000
0000
,
1010
0100
0011
0100
,
0010
0100
0010
0000
1001
0000
0000
0000
,
1000
1000
1100
0000
,
0001
0000
0010
0001
0011
0000
0000
0000
,
1100
1000
1000
0001
,
0002
0000
0103
0000
0010
1000
0010
0000
,
1000
1000
1100
0000
,
0001
0000
0010
0001
0011
0000
0000
0000
,
1100
1000
1000
0001
,
2002
3000
0200
0303
,
1000
0000
0000
0000
1000
0000
0000
1000
,
0100
0010
0001
0000
,
0001
0000
0010
0000
0001
0000
0000
0001
,
0100
0010
0100
0000
0010
0000
0000
0000
,
0001
0000
0000
0000
0001
0000
0000
0001
,
0100
0010
1000
0000
,
1000
0000
0010
0000
1000
0000
0000
1000
,
0100
0010
0100
0000
0010
0000
0000
0000
;
