#TITLE:Animal;
#SUBTITLE:;
#ARTIST:Ke$ha;
#TITLETRANSLIT:;
#SUBTITLETRANSLIT:;
#ARTISTTRANSLIT:;
#CREDIT:;
#BANNER:Animal.png;
#BACKGROUND:Animal-bg.png;
#LYRICSPATH:;
#CDTITLE:./CDTITLES/DanceDanceRevolution 2010.png;
#MUSIC:Animal.mp3;
#OFFSET:1.666;
#SAMPLESTART:67.700;
#SAMPLELENGTH:15.000;
#SELECTABLE:YES;
#BPMS:0.000=139.000;
#STOPS:;
#BGCHANGES:;

//---------------dance-single - ----------------
#NOTES:
     dance-single:
     :
     Hard:
     7:
     0.345,0.391,0.036,0.187,0.000: // measure 1
0000
0000
0000
0000
,  // measure 2
0000
0000
0000
0000
,  // measure 3
0000
0000
0000
0000
,  // measure 4
0000
0000
0000
0000
,  // measure 5
0000
0000
0000
0000
,  // measure 6
0000
0000
0000
0000
,  // measure 7
1000
0100
0010
0100
,  // measure 8
1000
0000
0010
0000
0100
0001
0100
0001
,  // measure 9
0010
0000
0000
0000
0000
0000
0000
0100
,  // measure 10
0010
0010
0010
0010
,  // measure 11
0010
0000
0010
0000
0010
1000
0100
0010
,  // measure 12
0001
0001
0001
0001
,  // measure 13
0001
0000
0001
0000
0001
0100
0010
0100
,  // measure 14
1000
1000
1000
1000
,  // measure 15
1000
0000
1000
0000
1000
0001
0010
1000
,  // measure 16
0200
0000
0000
0000
,  // measure 17
0300
0000
0000
0000
,  // measure 18
0010
0000
0100
1000
0001
0010
1000
0000
,  // measure 19
0100
0000
0010
0001
0010
0001
1000
0000
,  // measure 20
0010
0100
0010
1000
0000
1000
0010
0100
,  // measure 21
0020
1000
0001
0130
,  // measure 22
0001
0010
0001
0000
0001
0100
0001
0000
,  // measure 23
0010
0001
0010
0000
0100
0001
0100
0000
,  // measure 24
0010
0100
1000
0001
,  // measure 25
0100
0000
1000
0010
0000
0100
1100
0000
,  // measure 26
0010
0000
0100
0010
1000
0010
0001
0000
,  // measure 27
0100
0000
0010
1000
0100
1000
0001
0000
,  // measure 28
0010
0100
0010
0001
0000
1000
0010
0100
,  // measure 29
0020
0001
1000
0130
,  // measure 30
1000
0010
1000
0000
1000
0100
1000
0001
,  // measure 31
0010
1000
0010
0000
0100
1000
0100
1000
,  // measure 32
0020
0100
2030
0100
,  // measure 33
3002
0010
0103
0110
,  // measure 34
0020
0000
0000
0000
,  // measure 35
0001
0000
0000
0200
0000
0030
1000
0000
,  // measure 36
0002
0000
0000
0300
,  // measure 37
0010
0000
0000
2000
0003
0000
0010
0000
,  // measure 38
0200
0000
0000
3000
,  // measure 39
1000
0000
0000
0002
0300
0000
0010
0000
,  // measure 40
0200
0000
0000
0000
,  // measure 41
0303
0000
0000
0000
,  // measure 42
0010
0000
0100
1000
0001
0010
1000
0000
,  // measure 43
0100
0000
0010
0001
0010
0001
1000
0000
,  // measure 44
0010
0100
0010
1000
0000
1000
0010
0100
,  // measure 45
0020
1000
0001
0130
,  // measure 46
0001
0010
0001
0000
0001
0100
0001
0000
,  // measure 47
0010
0001
0010
0000
0100
0001
0100
0000
,  // measure 48
0010
0100
1000
0001
,  // measure 49
0100
0000
1000
0010
0000
0100
1100
0000
,  // measure 50
0010
0000
0100
0010
1000
0010
0001
0000
,  // measure 51
0100
0000
0010
1000
0100
1000
0001
0000
,  // measure 52
0010
0100
0010
0001
0000
1000
0010
0100
,  // measure 53
0020
0001
1000
0130
,  // measure 54
1000
0010
1000
0000
1000
0100
1000
0001
,  // measure 55
0010
1000
0010
0000
0100
1000
0100
1000
,  // measure 56
0020
0100
2030
0100
,  // measure 57
3002
0010
0103
0110
,  // measure 58
0020
0000
0000
0000
,  // measure 59
1000
0000
0000
0100
0000
0000
0001
0000
,  // measure 60
0200
0000
0000
0030
,  // measure 61
0001
0000
0000
0010
0000
0000
0001
0000
,  // measure 62
2000
0000
0000
0300
,  // measure 63
0010
0000
0000
0100
0000
0000
3001
0000
;

//---------------dance-single - ----------------
#NOTES:
     dance-single:
     :
     Beginner:
     1:
     0.109,0.166,0.000,0.134,0.000:
0000
0000
0000
0000
,
0000
0000
0000
0000
,
0000
0000
0000
0000
,
0000
0000
0000
0000
,
0000
0000
0000
0000
,
0000
0000
0000
0000
,
1000
0000
0000
0000
,
0001
0000
0000
0000
,
0000
0000
0000
0000
,
1000
0000
1000
0000
,
1000
1000
1000
0000
,
0001
0000
0001
0000
,
0001
0001
0001
0000
,
1000
0000
1000
0000
,
1000
1000
1000
0000
,
0000
0000
0000
0000
,
0000
0000
0000
0000
,
1000
0000
0000
0000
,
0001
0000
1000
0000
,
1000
0000
0001
0000
,
1000
0000
0001
0000
,
0002
0000
0003
0000
,
2000
0000
3000
0000
,
0002
0000
0003
0000
,
0000
0000
0000
0000
,
0001
0000
0000
0000
,
1000
0000
0001
0000
,
0001
0000
1000
0000
,
0001
0000
1000
0000
,
2000
0000
3000
0000
,
0002
0000
0003
0000
,
2000
0000
3000
0000
,
0000
0000
0000
0000
,
2000
0000
0000
0000
,
0000
0000
3000
0000
,
0020
0000
0000
0000
,
0000
0000
0030
0000
,
0200
0000
0000
0000
,
0000
0000
0300
0000
,
0000
0000
0000
0000
,
0000
0000
0000
0000
,
1000
0000
0000
0000
,
0001
0000
0010
0000
,
0010
0000
0001
0000
,
1000
0000
0001
0000
,
0020
0000
0030
0000
,
2000
0000
3000
0000
,
0002
0000
0003
0000
,
0000
0000
0000
0000
,
1000
0000
1000
0000
,
0001
0000
0010
0000
,
0010
0000
0001
0000
,
1000
0000
0001
0000
,
0020
0000
0030
0000
,
2000
0000
3000
0000
,
0002
0000
0003
0000
,
1000
1000
0001
0001
,
1000
0000
0000
0000
,
0100
0000
0000
0000
,
0100
0000
0000
0000
,
0010
0000
0000
0000
,
0010
0000
0000
0000
,
0001
0000
0000
0000
;

//---------------dance-single - ----------------
#NOTES:
     dance-single:
     :
     Easy:
     4:
     0.169,0.223,0.009,0.196,0.000:
0000
0000
0000
0000
,
0000
0000
0000
0000
,
0000
0000
0000
0000
,
0000
0000
0000
0000
,
0000
0000
0000
0000
,
0000
0000
0000
0000
,
0001
0000
0001
0000
,
0100
0000
0000
0000
,
0020
0000
0030
0000
,
0001
0000
1000
0000
,
1000
1000
1000
1000
,
1000
0000
0001
0000
,
0001
0001
0001
0001
,
0001
0000
1000
0000
,
1000
1000
1000
1000
,
0001
0000
0000
0000
,
0000
0000
0000
0000
,
1000
0000
0001
0000
,
1000
1000
1000
0000
,
0100
0000
0100
0000
,
0010
0010
0010
0000
,
0002
0003
2000
3000
,
0020
0030
2000
3000
,
0100
0000
0000
0000
,
0001
1000
0001
0000
,
1000
0000
0001
0000
,
1000
1000
1000
0000
,
0100
0000
0100
0000
,
0010
0010
0010
0000
,
0002
0003
2000
3000
,
0020
0030
2000
3000
,
0020
0000
0000
0000
,
0100
0100
0130
0000
,
1002
0000
0000
0000
,
0000
0000
0000
0000
,
0203
0000
0000
0000
,
0000
0000
0000
0000
,
0320
0000
0000
0000
,
0000
0000
0000
0000
,
0030
0000
0000
0000
,
0000
0000
0000
0000
,
0001
0000
1000
0000
,
0001
0001
0001
0000
,
0100
0000
0100
0000
,
0010
0010
0010
0000
,
2000
3000
0002
0003
,
0020
0030
0002
0003
,
0100
0000
0000
0000
,
1000
0001
1000
0000
,
0001
0000
1000
0000
,
0001
0001
0001
0000
,
0100
0000
0100
0000
,
0010
0010
0010
0000
,
2000
3000
0002
0003
,
0020
0030
0002
0003
,
0020
0000
0000
0000
,
0100
0100
0130
0000
,
1000
0000
0000
0000
,
0100
0000
0000
0010
0000
0000
0001
0000
,
0001
0000
0000
0000
,
0100
0000
0000
0010
0000
0000
1000
0000
,
1000
0000
0000
0000
,
0010
0000
0000
0100
0000
0000
0010
0000
;

//---------------dance-single - ----------------
#NOTES:
     dance-single:
     :
     Medium:
     5:
     0.281,0.307,0.027,0.134,0.000:
0000
0000
0000
0000
,
0000
0000
0000
0000
,
0000
0000
0000
0000
,
0000
0000
0000
0000
,
0000
0000
0000
0000
,
0000
0000
0000
0000
,
0010
1000
0010
0100
,
0001
0000
0010
0000
0100
1000
0001
1000
,
0010
0000
0000
0000
,
0001
0001
0001
0001
,
0001
0000
0001
0000
0001
1000
0100
0000
,
1000
1000
1000
1000
,
1000
0000
1000
0000
1000
0010
0100
0000
,
0010
0010
0010
0010
,
0010
0000
0010
0000
0010
0100
0010
0000
,
0020
0000
0000
0000
,
0030
0000
0000
0000
,
1000
0000
0100
0000
0010
1000
0010
0000
,
0100
0000
0001
0000
0010
0001
0010
0000
,
0001
0000
0001
0000
1000
0000
0100
0010
,
0200
0000
0001
1300
,
0010
0000
0010
0000
0100
1000
0100
0000
,
1000
0000
1000
0000
0010
0100
0010
0000
,
0100
0010
1000
0001
,
0010
0001
0101
0000
,
0001
0000
0100
0000
0010
0001
0010
0000
,
0100
0000
1000
0000
0010
1000
0010
0000
,
1000
0000
1000
0000
0001
0000
0100
0010
,
0200
0000
1000
0301
,
0010
0000
0010
0000
0100
0001
0100
0000
,
0001
0000
0001
0000
0010
0100
0010
0000
,
0002
0000
0200
0003
,
0020
0300
1000
1030
,
2000
0000
0000
0000
,
0100
0100
0010
3010
,
0200
0000
0000
0000
,
1000
1000
0010
0310
,
0002
0000
0000
0000
,
1000
1000
0100
0103
,
0200
0000
0000
0000
,
0300
0000
0000
0000
,
1000
0000
0100
0000
0010
1000
0010
0000
,
0100
0000
0001
0000
0010
0001
0010
0000
,
0001
0000
0001
0000
1000
0000
0100
0010
,
0200
0000
0001
1300
,
0010
0000
0010
0000
0100
1000
0100
0000
,
1000
0000
1000
0000
0010
0100
0010
0000
,
0100
0010
1000
0001
,
0010
0001
0101
0000
,
0001
0000
0100
0000
0010
0001
0010
0000
,
0100
0000
1000
0000
0010
1000
0010
0000
,
1000
0000
1000
0000
0001
0000
0100
0010
,
0200
0000
1000
0301
,
0010
0000
0010
0000
0100
0001
0100
0000
,
0001
0000
0001
0000
0010
0100
0010
0000
,
0012
0000
0200
0003
,
0020
0300
1000
1030
,
0001
0000
0000
0000
,
0001
0000
0000
0100
0000
0000
1000
0000
,
0010
0000
0000
0000
,
0010
0000
0000
1000
0000
0000
0100
0000
,
1000
0000
0000
0000
,
0010
0000
0000
0100
0000
0000
0001
0000
;
