#TITLE:According to You;
#SUBTITLE:;
#ARTIST:Orianthi;
#TITLETRANSLIT:;
#SUBTITLETRANSLIT:;
#ARTISTTRANSLIT:;
#CREDIT:;
#BANNER:According to You.png;
#BACKGROUND:According to You-bg.png;
#LYRICSPATH:;
#CDTITLE:./CDTITLES/DanceDanceRevolution 2010.png;
#MUSIC:According to You.mp3;
#OFFSET:1.803;
#SAMPLESTART:31.629;
#SAMPLELENGTH:15.000;
#SELECTABLE:YES;
#BPMS:0.000=131.000;
#STOPS:;
#BGCHANGES:;

//---------------dance-single - ----------------
#NOTES:
     dance-single:
     :
     Beginner:
     1:
     0.088,0.155,0.010,0.091,0.000:
0000
0000
0000
0000
,
0000
0000
0000
0000
,
0000
0000
0000
0000
,
1000
0000
0000
0000
,
0001
0000
0000
0000
,
1000
0000
0000
0000
,
0000
0000
0000
0000
,
0001
0000
0000
0000
,
1000
0000
0000
0000
,
0001
0000
0000
0000
,
0010
0000
0000
0000
,
2000
3000
0000
0000
,
0002
0003
0000
0000
,
2000
3000
0000
0000
,
0002
0003
0000
0000
,
1000
1000
0000
0000
,
0001
0001
0000
0000
,
1000
1000
0000
0000
,
1001
0000
0000
0000
,
0002
0000
0003
0000
,
0010
0000
0000
0000
,
1000
0000
0000
0000
,
0001
0000
0000
0000
,
2000
0000
3000
0000
,
0010
0000
0000
0000
,
1000
0000
0000
0000
,
0001
0000
0000
0000
,
0010
0000
0000
0000
,
0010
0000
0000
0000
,
0100
0000
0000
0000
,
0100
0000
0000
0000
,
1000
0000
0000
0000
,
0002
0000
0003
0000
,
1000
0000
0000
0000
,
1000
0000
0000
0000
,
1000
0000
0000
0000
,
0010
0000
0000
0000
,
0001
0000
0000
0000
,
0001
0000
0000
0000
,
0001
0000
0000
0000
,
0100
0000
0000
0000
,
2000
0000
3000
0000
,
0000
0000
0000
0000
,
0002
0000
0003
0000
,
0000
0000
0000
0000
,
1000
0000
0010
0000
,
1000
0000
0000
0000
,
0001
0000
0010
0000
,
0001
0000
0000
0000
,
1000
0000
0000
0000
,
0001
0000
0000
0000
,
0100
0000
0000
0000
;

//---------------dance-single - ----------------
#NOTES:
     dance-single:
     :
     Easy:
     3:
     0.163,0.209,0.020,0.172,0.000:
0000
0000
0000
0000
,
0000
0000
0000
0000
,
0000
0000
0000
0000
,
1000
0000
1000
0000
,
0100
0000
0010
0000
,
0001
0000
0100
0000
,
1000
0000
0010
0000
,
1000
0100
1000
0000
,
0001
0010
0001
0000
,
1000
0000
0001
0000
,
0001
1000
0001
0000
,
2000
3000
0100
0000
,
0020
0030
0100
0000
,
0002
0003
0010
0000
,
0200
0300
0010
0000
,
0010
0100
1000
0000
,
0100
0010
0001
0000
,
1000
0001
1000
0000
,
1001
0000
0000
0000
,
0002
0000
1003
0000
,
0010
0000
0100
0000
,
1000
0000
1000
0000
,
0001
0000
0001
0000
,
2000
0000
3001
0000
,
0010
0000
0100
0000
,
1000
0000
1000
0000
,
0001
0000
0001
0000
,
1000
0000
0001
0000
,
0001
0000
0010
0000
,
1000
0000
0010
0000
,
1000
0001
1001
0000
,
0001
0000
1000
0000
,
0002
0003
0000
0000
,
2000
0000
3000
0000
,
0002
0000
0003
0000
,
0020
0000
0030
0000
,
0200
0000
0300
0000
,
2000
0000
3000
0000
,
0002
0000
0003
0000
,
1000
0000
1000
0000
,
0001
1000
0001
0000
,
2000
0000
3000
0000
,
0001
0000
0001
0000
,
0200
0000
0300
0000
,
0002
0000
0003
0000
,
0001
0000
0001
0000
,
1000
0000
0100
0000
,
0001
0000
1000
0000
,
0010
0010
0010
0010
,
0000
1000
0000
0000
,
0000
0001
0000
0000
,
0200
0000
0000
0300
;

//---------------dance-single - ----------------
#NOTES:
     dance-single:
     :
     Medium:
     6:
     0.309,0.341,0.061,0.212,0.000:
0000
0000
0000
0000
,
0000
0000
0000
0000
,
0000
0000
0000
0000
,
1000
1000
1000
0001
,
0100
0010
0010
0010
,
0001
0001
0001
0100
,
1000
1000
1000
0100
,
2000
0000
3100
0100
0010
0000
0010
0000
,
0002
0000
0103
0100
1000
0000
1000
0000
,
1000
0000
0010
0000
1000
0100
0001
0000
,
0001
0000
0010
0100
0001
0000
0000
0000
,
1000
0100
2000
3000
,
0010
0100
0020
0030
,
0100
0001
0200
0300
,
0001
0010
0002
0003
,
1000
0100
1000
0000
1000
0100
1000
0000
,
0001
1000
0100
0000
0001
1000
0100
0000
,
0001
0100
0001
0000
0100
0010
0100
0000
,
0001
1000
1001
0000
0000
0000
0000
0000
,
0001
0100
0020
0000
1000
0000
0130
0000
,
0010
0010
0100
0000
,
0000
1000
0100
0000
0000
0001
0100
0000
,
0000
0100
0001
0000
2000
0000
3001
0000
,
1000
0100
0020
0000
0001
0000
0130
0000
,
0010
0010
0100
0000
,
0000
0001
0100
0000
0000
1000
0100
0000
,
0001
0001
1000
0000
,
1000
0000
0001
1000
0001
0000
1001
0000
,
0001
0000
0001
0010
0001
0000
0011
0000
,
1000
0000
1000
0100
0010
0000
0110
0000
,
1000
0001
1001
0000
,
0001
0100
0010
0000
0100
0010
1000
0000
,
2002
0000
3003
0000
1000
0001
0100
0000
,
0000
1000
0000
1000
,
0000
0001
0000
0001
,
0000
0010
0000
0010
,
0000
0100
0010
0010
,
0000
1000
0000
1000
,
0000
0001
0000
0001
,
1000
0000
0100
0100
,
0001
0000
1000
0001
,
0200
0000
0000
0301
,
0002
1003
2000
3000
,
0002
0013
0200
1300
,
0002
1003
0200
0300
,
0001
0010
0001
0000
0010
0100
0010
0000
,
1000
0010
1000
0000
0100
0010
0100
0000
,
0001
0010
0001
0000
1000
0010
1000
0000
,
0010
0001
0010
0100
0010
0001
0010
0100
,
0000
2000
0000
3000
,
0000
0002
0000
0003
,
0200
0000
0000
0000
0000
0000
0000
0300
;

//---------------dance-single - ----------------
#NOTES:
     dance-single:
     :
     Hard:
     7:
     0.437,0.576,0.111,0.253,0.066: // measure 1
0000
0000
0000
0000
,  // measure 2
0000
0000
0000
0000
,  // measure 3
0000
0000
0000
0000
,  // measure 4
1000
0000
1000
0000
1000
0000
1000
0001
,  // measure 5
0100
0010
0100
0010
,  // measure 6
0100
0000
0100
0000
0100
0000
0100
0001
,  // measure 7
1000
0100
1000
0100
,  // measure 8
1000
1100
0001
0011
,  // measure 9
0001
0010
0001
0100
0001
0000
1010
0000
,  // measure 10
1000
0100
0010
0000
1000
0100
0010
0000
,  // measure 11
0001
0100
0010
1000
0100
0000
0000
0000
,  // measure 12
0002
0000
0103
0000
2000
0000
3010
0100
,  // measure 13
0002
0000
0013
0000
0200
0000
1300
0010
,  // measure 14
2000
0000
3100
0000
0002
0000
1003
0100
,  // measure 15
0020
0031
0200
0310
,  // measure 16
1000
0100
1000
0010
1000
0100
1000
0010
,  // measure 17
0100
0001
0010
0001
0100
0001
0010
0001
,  // measure 18
1000
0100
1000
0010
0100
0001
0010
0001
,  // measure 19
1000
0100
1001
0000
0000
0000
0000
0000
,  // measure 20
1000
0100
0010
0001
2000
0100
3001
0000
,  // measure 21
0001
0100
0010
1000
0100
0000
1100
0000
,  // measure 22
2000
0100
3001
0000
0002
0100
1003
0000
,  // measure 23
2000
0100
3001
0100
0010
0100
0001
0000
,  // measure 24
0001
0100
0010
1000
0002
0100
1003
0000
,  // measure 25
1000
0100
0010
0001
0100
0000
0101
0000
,  // measure 26
0002
0100
1003
0000
2000
0100
3001
0200
,  // measure 27
1000
0001
1300
0000
,  // measure 28
1000
0100
1000
0100
1000
0001
1100
0000
,  // measure 29
0001
0100
0001
0100
0001
1000
0101
0000
,  // measure 30
0010
0100
0010
0100
0001
0100
0110
0000
,  // measure 31
1000
0000
0001
0000
1000
0100
1001
0000
,  // measure 32
1000
0100
0010
0100
0010
0001
1000
0000
,  // measure 33
2002
0000
3003
0010
0010
0010
0100
0010
,  // measure 34
0000
1000
0000
0100
,  // measure 35
0000
0001
0000
0100
,  // measure 36
0000
0010
0000
1000
,  // measure 37
0000
0000
0100
0000
0001
0010
0001
0000
,  // measure 38
0000
0100
0000
1000
,  // measure 39
0000
0010
0000
0001
,  // measure 40
1000
0100
1000
0000
0100
0000
0100
0000
,  // measure 41
0001
0010
1000
0100
0001
1000
0001
0000
,  // measure 42
2000
0000
0000
0000
0000
0000
3100
1000
,  // measure 43
0200
0000
0310
0100
0020
0000
0030
0000
,  // measure 44
0002
0010
0013
0000
2000
0100
3100
0000
,  // measure 45
0002
1000
1003
0100
0020
0000
0030
0000
,  // measure 46
0001
0010
0001
0000
1000
0010
1000
0000
0001
0100
0001
0100
0001
0000
0000
0000
,  // measure 47
1000
0010
1000
0000
0001
0010
0001
0000
1000
0100
1000
0100
1000
0000
0000
0000
,  // measure 48
1000
0010
1000
0010
1000
0000
0000
0000
0001
0010
0001
0010
0001
0000
0000
0000
,  // measure 49
1000
0001
1000
0001
1000
0001
1000
0001
,  // measure 50
0000
1000
0000
1000
,  // measure 51
0000
0001
0000
0001
,  // measure 52
1000
0000
0001
0000
0100
0000
0010
0000
0000
1000
0000
0000
0000
0000
0001
0000
;
