#TITLE:dreaming can make a wish come true (Full Version);
#SUBTITLE:;
#ARTIST:jun & NRG Factory feat. Anna Kaelin;
#TITLETRANSLIT:;
#SUBTITLETRANSLIT:;
#ARTISTTRANSLIT:;
#CREDIT:;
#BANNER:dreaming can make a wish come true (Full Version).png;
#BACKGROUND:dreaming can make a wish come true (Full Version)-bg.png;
#LYRICSPATH:;
#CDTITLE:./CDTITLES/DanceDanceRevolution 2010.png;
#MUSIC:dreaming can make a wish come true (Full Version).mp3;
#OFFSET:-1.729;
#SAMPLESTART:82.263;
#SAMPLELENGTH:15.000;
#SELECTABLE:YES;
#BPMS:0.000=143.000;
#STOPS:;
#BGCHANGES:;

//---------------dance-single - ----------------
#NOTES:
     dance-single:
     :
     Beginner:
     2:
     0.131,0.201,0.052,0.030,0.000:
0000
0000
0000
0000
,
0000
0000
0000
0000
,
0000
0000
0000
0000
,
0000
0000
0000
0000
,
0000
0000
0000
0000
,
0000
0000
0000
0000
,
0000
0000
0000
0000
,
0000
0000
0000
0000
,
0001
0000
0000
0000
,
0000
0000
0000
0000
,
1000
0000
0000
0000
,
0000
0000
0000
0000
,
0100
0000
0000
0000
,
0100
0000
0000
0000
,
0010
0000
0010
0000
,
0000
0000
0000
0000
,
1000
0000
0001
0000
,
1000
0000
0000
0000
,
0010
0000
0010
0000
,
0010
0000
0000
0000
,
1000
0000
0001
0000
,
1000
0000
0000
0000
,
1000
0000
0001
0000
,
1001
0000
0000
0000
,
0010
0000
0000
0000
,
1000
0000
1000
0000
,
0001
0000
0001
0000
,
1000
0000
0000
0000
,
0010
0000
0000
0000
,
1000
0000
1000
0000
,
0001
0000
0001
0000
,
1000
1000
1000
0000
,
0020
0000
0000
0030
,
0000
0000
0000
0000
,
0020
0000
0000
0030
,
0000
0000
0000
0000
,
1000
0000
0010
0000
,
0001
0000
0010
0000
,
1000
0000
0001
0000
,
0000
0000
0000
0000
,
0001
0000
0010
0000
,
0001
0001
0001
0000
,
1000
0000
0010
0000
,
1000
1000
1000
0000
,
0001
0000
0010
0000
,
0001
0001
0001
0000
,
1000
0000
0010
0000
,
1000
1000
1000
0000
,
0001
0000
0010
0000
,
0001
0001
0001
0000
,
1000
0000
0010
0000
,
0100
0000
0000
0000
,
1001
0000
0000
0000
,
1001
0000
0000
0000
,
0010
0010
0010
0010
,
0010
0000
0000
0000
,
0001
0000
1000
0000
,
0001
0000
0000
0000
,
0001
0000
1000
0000
,
1001
0000
0000
0000
,
0010
0000
0000
0000
,
0001
0000
0001
0000
,
1000
0000
1000
0000
,
0001
0000
0000
0000
,
0010
0000
0000
0000
,
0001
0000
0001
0000
,
1000
0000
1000
0000
,
0001
0001
0001
0000
,
0020
0000
0000
0030
,
0000
0000
0000
0000
,
0020
0000
0000
0030
,
0000
0000
0000
0000
,
0001
0000
0010
0000
,
1000
0000
0010
0000
,
0001
0000
1000
0000
,
0000
0000
0000
0000
,
1000
0000
0010
0000
,
1000
1000
1000
0000
,
0001
0000
0010
0000
,
0001
0001
0001
0000
,
1000
0000
0010
0000
,
1000
1000
1000
0000
,
0001
0000
0010
0000
,
0001
0001
0001
0000
,
1000
0000
0010
0000
,
1000
1000
1000
0000
,
0001
0000
0010
0000
,
0100
0000
0000
0000
,
1001
0000
0000
0000
,
1001
0000
0000
0000
,
0010
0010
0010
0010
,
0010
0000
0000
0000
,
1000
0000
0000
0000
,
1000
0000
0000
0000
,
0010
0000
0010
0000
,
0010
0000
0000
0000
,
1000
0000
0001
0000
,
1000
0000
0000
0000
,
1000
0000
0001
0000
,
1001
0000
0000
0000
,
0020
0000
0000
0000
,
0000
0000
0030
0000
,
0200
0000
0000
0000
,
0000
0000
0300
0000
,
0001
0000
0000
0000
,
0000
0000
0000
0000
,
1000
0000
0000
0000
,
0000
0000
0000
0000
,
0001
0000
0100
0000
,
0001
0000
0100
0000
,
1000
0000
0100
0000
,
1000
0000
0100
0000
,
0002
0000
0000
0003
,
2000
0000
0000
3000
,
0001
0000
1000
0000
,
0001
0000
0000
0000
,
1001
0000
0000
0000
,
1000
0000
0000
0000
,
0000
0000
0000
0000
,
0001
0000
0000
0000
,
0000
0000
0000
0000
,
0100
0000
0000
0000
,
0100
0000
0000
0000
,
0010
0000
0010
0000
,
0000
0000
0000
0000
,
0001
0000
0000
0000
,
0001
0000
0000
0000
,
1000
0000
0000
0000
,
1000
0000
0000
0000
,
0110
0000
0000
0000
,
0110
0000
0000
0000
,
0110
0000
0000
0000
,
0000
0000
0000
0000
,
0001
0000
0010
0000
,
0001
0001
0001
0000
,
1000
0000
0010
0000
,
1000
1000
1000
0000
,
0001
0000
0010
0000
,
0001
0001
0001
0000
,
1000
0000
0010
0000
,
1000
1000
1000
0000
,
0001
0000
0010
0000
,
0001
0001
0001
0000
,
1000
0000
0010
0000
,
0100
0000
0000
0000
,
1001
0000
0000
0000
,
1001
0000
0000
0000
,
0010
0010
0010
0010
,
0010
0000
0000
0000
,
0001
0000
1000
0000
,
0001
0000
0000
0000
,
0010
0000
0010
0000
,
0010
0000
0000
0000
,
0001
0000
1000
0000
,
0001
0000
0000
0000
,
0001
0000
1000
0000
,
1001
0000
0000
0000
;

//---------------dance-single - ----------------
#NOTES:
     dance-single:
     :
     Easy:
     4:
     0.193,0.261,0.066,0.103,0.000:
0000
0000
0000
0000
,
0000
0000
0000
0000
,
0000
0000
0000
0000
,
0000
0000
0000
0000
,
0000
0000
0000
0000
,
0000
0000
0000
0000
,
0000
0000
0000
0000
,
0000
0000
0000
0000
,
1000
0000
0000
0000
,
0001
0000
0000
0000
,
0010
0000
0000
0000
,
0100
0010
0100
0000
,
1001
0000
0000
0000
,
0110
0000
0000
0000
,
0001
0001
1000
1000
,
0010
0010
0100
0100
,
0010
0000
0010
0000
,
1000
1000
1000
0000
,
0100
0010
0001
0000
,
1000
0100
1000
0000
,
0010
0000
0010
0000
,
0001
0001
0001
0000
,
0200
0300
0200
0300
,
0001
1000
1001
0000
,
0100
0000
0100
0000
,
0010
0000
0100
0000
,
0001
0000
1000
0000
,
1000
0000
0001
0000
,
0100
0000
0100
0000
,
0010
0000
0100
0000
,
0001
1000
1000
0000
,
1000
0001
0001
0000
,
2000
0000
3000
0000
,
0020
0000
0130
0000
,
0002
0000
0003
0000
,
0020
0000
0130
0000
,
0001
0000
1000
1000
,
1000
0000
0001
0001
,
0010
0000
0000
0000
,
0000
0000
0000
0000
,
0001
0010
0001
0010
,
0001
0000
0001
0000
,
1000
0010
1000
0000
,
0010
0010
0100
0000
,
0001
0010
0001
0010
,
0001
0000
0001
0000
,
1000
0001
1000
0001
,
1000
0000
0000
0000
,
1000
0010
1000
0010
,
1000
0000
1000
0000
,
0001
0010
0001
0000
,
0100
0000
0000
0000
,
1001
0000
0000
0000
,
0110
0000
0000
0000
,
0010
0010
0010
0100
,
0010
0000
0000
0000
,
0010
0000
0010
0000
,
1000
1000
1000
0000
,
0200
0300
0200
0300
,
1000
0001
1001
0000
,
0100
0000
0100
0000
,
0010
0000
0100
0000
,
1000
0000
0001
0000
,
0001
0000
1000
0000
,
0100
0000
0100
0000
,
0010
0000
0100
0000
,
1000
0001
0001
0000
,
0001
1000
1000
0000
,
0002
0000
0003
0000
,
0020
0000
0130
0000
,
2000
0000
3000
0000
,
0020
0000
0130
0000
,
1000
0000
0001
0001
,
0001
0000
1000
1000
,
0010
0000
0000
0000
,
0000
0000
0000
0000
,
1000
0010
1000
0010
,
1000
0000
1000
0000
,
0001
0010
0001
0000
,
0010
0010
0100
0000
,
1000
0010
1000
0010
,
1000
0000
1000
0000
,
0001
1000
0001
1000
,
0001
0000
0000
0000
,
0001
0010
0001
0010
,
0001
0000
0001
0000
,
1000
0010
1000
0000
,
0100
0000
0000
0000
,
1001
0000
0000
0000
,
0110
0000
0000
0000
,
0010
0010
0010
0100
,
0010
0000
0000
0000
,
0020
0000
0000
0030
,
2000
0000
0000
3000
,
0200
0000
0301
0000
,
2000
0000
3000
0000
,
0010
0000
0010
0000
,
0001
0001
0001
0000
,
0200
0300
0200
0300
,
0001
1000
1001
0000
,
2000
0000
0000
0000
,
0000
0000
0000
3000
,
0002
0000
0000
0000
,
0000
0000
0000
0003
,
0200
0000
0000
0300
,
0020
0000
0000
0030
,
0100
0000
0000
0000
,
0000
0000
0000
0000
,
1000
0100
0100
0000
,
0010
0001
0001
0000
,
0100
0001
0001
0000
,
0010
1000
1000
0000
,
0020
0000
0230
0000
,
0302
0000
2003
3000
,
0010
0100
0010
0100
,
0010
0000
0000
0000
,
1001
0000
0000
0000
,
0001
0000
0000
0000
,
1000
0000
0000
0000
,
0010
0000
0000
0000
,
0100
0010
0100
0000
,
1001
0000
0000
0000
,
0110
0000
0000
0000
,
1000
1000
0001
0001
,
0010
0010
0100
0100
,
1000
0000
0000
0001
,
0001
0000
0000
0010
,
0010
0000
0000
0100
,
0100
0010
0100
0000
,
1001
0000
0000
0000
,
0110
0000
0000
0000
,
1001
0000
0000
0000
,
0000
0000
0000
0000
,
0001
0010
0001
0010
,
0001
0000
0001
0000
,
1000
0010
1000
0000
,
0010
0010
0100
0000
,
0001
0010
0001
0010
,
0001
0000
0001
0000
,
1000
0001
1000
0001
,
1000
0000
0000
0000
,
1000
0010
1000
0010
,
1000
0000
1000
0000
,
0001
0010
0001
0000
,
0100
0000
0000
0000
,
1001
0000
0000
0000
,
0110
0000
0000
0000
,
0010
0010
0010
0100
,
0010
0000
0000
0000
,
0010
0000
0010
0000
,
0001
0001
0001
0000
,
0100
0010
1000
0000
,
0001
0100
0001
0000
,
0010
0000
0010
0000
,
1000
1000
1000
0000
,
0200
0300
0200
0300
,
1000
0001
1001
0000
,
0010
0000
0000
0000
;

//---------------dance-single - ----------------
#NOTES:
     dance-single:
     :
     Medium:
     6:
     0.338,0.405,0.151,0.081,0.000:
0000
0000
0000
0000
,
0000
0000
0000
0000
,
0000
0000
0000
0000
,
0000
0000
0000
0000
,
0000
0000
0000
0000
,
0000
0000
0000
0000
,
0000
0000
0000
0000
,
0000
0000
0000
0000
,
1000
0000
0001
0100
,
0010
0000
1000
0100
,
0100
0000
0000
0100
0000
0000
0010
0000
,
0001
1100
0010
0101
,
1100
0000
0100
0001
,
1001
0000
0100
0100
,
0010
0001
0100
0110
,
0001
0010
0001
0000
1000
0100
1000
0000
,
0010
0100
0001
0100
,
0010
0000
1000
0000
0010
1000
0010
0000
,
0100
0000
0100
0000
0100
0010
0100
0010
,
0000
1000
0000
1100
0000
0011
0000
0000
,
0010
0100
1000
0100
,
0010
0000
0001
0000
0010
0001
0010
0000
,
0001
0100
0200
0300
,
0001
0000
1000
0001
0000
1001
0000
0000
,
0001
0001
1000
0100
,
1000
1000
0010
0010
,
0100
0001
0100
0001
,
1000
0010
1000
0010
,
1000
1000
0001
0100
,
0001
0001
0010
0010
,
1000
0000
0001
0000
0100
0010
0100
0000
,
0010
1010
0101
0000
,
2000
0000
3100
0010
,
0200
0000
0301
0010
,
0002
0000
0103
0010
,
0200
0000
1300
0010
,
0001
0100
0010
1000
,
0100
0010
0001
1000
,
0010
0100
0100
0100
,
0001
0000
1000
0010
0000
0100
0100
0000
,
0001
0000
1000
0000
0010
0000
0100
0100
,
0010
0000
0000
0000
1000
0100
0001
0000
,
1000
0000
0000
0011
0000
0000
0100
0000
,
0010
0000
0010
0000
0100
0010
0100
0000
,
1000
0000
0001
0000
0010
0000
0100
0100
,
0010
0000
0000
0000
0001
0100
1000
0000
,
0001
0010
0001
0000
0100
0000
0100
0000
,
0010
1000
0001
0100
,
1000
0000
0001
0000
0010
0000
0100
0100
,
0010
0000
0000
0000
0001
0100
1000
0000
,
0100
0001
0010
0000
0100
0000
0100
0000
,
1000
1010
0001
0011
,
1100
0000
0010
0100
,
1001
0000
0100
0010
,
1000
1000
0100
0100
,
0010
0000
0010
0000
0001
0000
0001
1000
,
0010
0100
0001
0100
,
0010
0000
1000
0000
0010
1000
0010
0000
,
1000
0100
0200
0300
,
1000
0000
0001
1000
0000
1001
0000
0000
,
1000
1000
0001
0100
,
0001
0001
0010
0010
,
0100
1000
0100
1000
,
0001
0010
0001
0010
,
0001
0001
1000
0100
,
1000
1000
0010
0010
,
0001
0000
1000
0000
0100
0010
0100
0000
,
0010
0011
1100
0000
,
0002
0000
0103
0010
,
0200
0000
1300
0010
,
2000
0000
3100
0010
,
0200
0000
0301
0010
,
1000
0100
0010
0001
,
0100
0010
1000
0001
,
0010
0100
0100
0100
,
1000
0000
0001
0010
0000
0100
0100
0000
,
1000
0000
0001
0000
0010
0000
0100
0100
,
0010
0000
0000
0000
0001
0100
1000
0000
,
0001
0000
0000
1010
0000
0000
0100
0000
,
0010
0000
0010
0000
0100
0010
0100
0000
,
0001
0000
1000
0000
0010
0000
0100
0100
,
0010
0000
0000
0000
1000
0100
0001
0000
,
1000
0010
1000
0000
0100
0000
0100
0000
,
0010
0001
1000
0100
,
0001
0000
1000
0000
0010
0000
0100
0100
,
0010
0000
0000
0000
1000
0100
0001
0000
,
0100
1000
0010
0000
0100
0000
0100
0000
,
0001
0011
1000
1010
,
0101
0000
0010
0100
,
1001
0000
0100
0010
,
0001
0001
0100
0100
,
0010
0000
0010
0000
1000
0000
1000
0001
,
0020
0000
0000
0000
0000
0000
0100
0030
,
2000
0000
0000
3010
,
0200
0000
0000
0000
0000
0001
0300
0001
,
0000
0010
0000
0001
0000
1000
0000
0000
,
0010
0100
1000
0100
,
0010
0000
0001
0000
0010
0001
0010
0000
,
0001
0100
0200
0300
,
0001
0000
1000
0001
0000
1001
0000
0000
,
0020
0000
0000
0000
,
1000
0000
0100
0030
,
0020
0000
0000
0001
0000
0000
0000
0000
,
0000
0100
0000
0000
0000
0000
0030
0000
,
0001
0000
0000
0000
1000
0000
0000
0010
,
0001
0000
0000
0100
1000
0000
0000
0100
,
0001
0000
1000
0100
,
0010
0000
0010
0000
1000
0000
1000
0001
,
1000
0000
0010
0000
0100
0000
0100
0010
,
0100
0000
0001
0000
0001
0000
0001
0100
,
0001
0100
1000
0100
,
0001
0000
0010
0000
1000
0010
0001
0000
,
0012
0000
0000
0100
0203
0000
0000
0310
,
0020
0000
0000
1030
2000
0000
0000
3100
,
0100
0100
0100
0010
,
0001
0100
0010
0000
1000
0010
0100
0000
,
0020
0000
0000
0000
,
0031
0000
1000
0100
,
0010
0000
0001
0100
,
0100
0000
0000
0100
0000
0000
0010
0000
,
1000
0101
0010
1100
,
0101
0000
0100
1000
,
1001
0000
0100
0100
,
0010
1000
0100
0110
,
1000
0010
1000
0000
0001
0100
0001
0000
,
1000
0000
0001
0010
0000
0000
0010
0000
,
0001
0000
1000
0010
0000
0000
0010
0000
,
1000
0000
1000
0100
0000
0000
0010
0000
,
0001
0000
0001
0100
0000
0000
0010
0000
,
1001
0000
0100
0010
,
1001
0000
0100
0010
,
1001
0000
0100
0010
,
0000
0000
0000
0000
,
0001
0000
1000
0000
0010
0000
0100
0100
,
0010
0000
0000
0000
1000
0100
0001
0000
,
1000
0000
0000
0011
0000
0000
0100
0000
,
0010
0000
0010
0000
0100
0010
0100
0000
,
1000
0000
0001
0000
0010
0000
0100
0100
,
0010
0000
0000
0000
0001
0100
1000
0000
,
0001
0010
0001
0000
0100
0000
0100
0000
,
0010
1000
0001
0100
,
1000
0000
0001
0000
0010
0000
0100
0100
,
0010
0000
0000
0000
0001
0100
1000
0000
,
0100
0001
0010
0000
0100
0000
0100
0000
,
1000
1010
0001
0011
,
1100
0000
0010
0100
,
1001
0000
0100
0010
,
1000
1000
0100
0100
,
0010
0000
0010
0000
0001
0000
0001
1000
,
0010
0100
1000
0100
,
0010
0000
0001
0000
0010
0001
0010
0000
,
0100
0000
0100
0000
0100
0010
0100
0010
,
0000
0001
0000
0101
0000
1010
0000
0000
,
0010
0100
0001
0100
,
0010
0000
1000
0000
0010
1000
0010
0000
,
1000
0100
0200
0300
,
1000
0000
0001
1000
0000
1001
0000
0000
,
0100
0000
0000
0000
;

//---------------dance-single - ----------------
#NOTES:
     dance-single:
     :
     Hard:
     8:
     0.441,0.521,0.229,0.070,0.070:
0000
0000
0000
0000
,
0000
0000
0000
0000
,
0000
0000
0000
0000
,
0000
0000
0000
0000
,
0000
0000
0000
0000
,
0000
0000
0000
0000
,
0000
0000
0000
0000
,
0000
0000
0000
0000
,
0010
0000
0000
0000
0000
0010
0100
0000
,
0010
0000
0000
0000
1000
0100
0001
0000
,
0100
0000
0000
1000
0000
0000
0001
0000
,
1000
0101
1100
0011
,
1010
0000
0000
0100
0000
0000
0001
0000
,
1001
0000
0000
0000
0000
0010
0100
0000
,
0001
0000
0000
1000
0100
0000
0110
0000
,
0001
0010
0100
1000
0001
0010
0100
1000
,
0010
0100
0001
1010
,
0100
0000
0010
0001
0000
1000
0010
0100
,
0001
0000
0000
0001
0000
0000
0100
0000
0010
0000
0100
0000
0001
0000
1000
0000
,
0000
0101
0000
1100
0000
0011
0000
0000
,
0010
0100
1000
0011
,
0100
0000
0010
1000
0000
0001
0010
0100
,
1000
0000
0000
1000
0000
0000
0020
0000
0000
0000
0000
0000
0130
0000
0000
0000
,
0001
0000
0000
1000
0010
0000
0100
0000
0000
0000
1001
0000
0000
0000
0000
0000
,
0010
0010
1000
0100
,
1000
0000
1000
0000
0010
0100
0010
0000
,
1000
0100
0010
0100
,
1000
0010
1000
0000
0100
0010
0100
0000
,
0010
0010
0001
0100
,
0001
0000
0001
0000
0010
0100
0010
0000
,
0000
0001
0100
0010
0000
0001
0100
1000
,
1000
0110
1000
0011
,
1100
0000
0000
0000
0000
0100
0010
0001
,
0021
1000
0001
1030
,
0101
0000
0000
0000
0000
0100
0010
1000
,
1020
0001
1000
0031
,
1000
0000
0100
0000
0010
0000
0001
1000
,
0100
0000
0010
0000
1000
0000
0001
0100
,
0010
0000
0000
0000
1000
0000
0100
0000
1000
0000
0000
0001
0100
0000
0000
0001
,
1000
0000
0100
0000
0001
0000
0000
1000
0010
0000
0100
0000
0010
0000
0100
0000
,
0001
0000
1000
0100
0010
0001
1000
0000
,
0010
0100
0000
0001
1000
0010
0100
0001
,
0010
0000
0000
0011
0000
0000
1100
0000
,
0010
0100
1000
0001
0100
1000
0100
0010
,
1000
0000
0001
0100
0010
1000
0001
0000
,
0010
0100
0000
1000
0001
0010
0100
1000
,
0010
0100
0001
0010
0000
0010
0000
0010
,
0001
1010
0110
0101
,
0001
0000
1000
0100
0010
0001
1000
0000
,
0010
0100
0000
0001
1000
0010
0100
0001
,
1000
0000
0100
0001
0010
0000
0100
1000
,
0010
0000
0100
0001
0010
0100
1000
0000
,
0110
0000
0000
0001
0000
0100
0010
0001
,
1001
0000
0100
0100
,
1000
0000
0000
0000
0100
0000
0000
0000
0010
0000
0000
1000
0001
0000
0000
0010
,
1000
0000
0100
0000
0010
0000
0000
0001
1000
0000
0100
0000
0010
0000
0100
0000
,
0010
0100
0001
1010
,
0100
0000
0010
0001
0000
1000
0010
0100
,
0001
0000
0000
0001
0000
0000
0020
0000
0000
0000
0000
0000
0130
0000
0000
0000
,
1000
0000
0000
0001
0010
0000
0100
0000
0000
0000
1001
0000
0000
0000
0000
0000
,
0010
0010
0001
0100
,
0001
0000
0001
0000
0010
0100
0010
0000
,
0001
0100
0010
0100
,
0001
0010
0001
0000
0100
0010
0100
0000
,
0010
0010
1000
0100
,
1000
0000
1000
0000
0010
0100
0010
0000
,
0000
1000
0100
0010
0000
1000
0100
0001
,
0001
0110
0001
1010
,
0101
0000
0000
0000
0000
0100
0010
1000
,
1020
0001
1000
0031
,
1100
0000
0000
0000
0000
0100
0010
0001
,
0021
1000
0001
1030
,
0001
0000
0100
0000
0010
0000
1000
0001
,
0100
0000
0010
0000
0001
0000
1000
0100
,
0010
0000
0000
0000
0001
0000
0100
0000
0001
0000
0000
1000
0100
0000
0000
1000
,
0001
0000
0100
0000
1000
0000
0000
0001
0010
0000
0100
0000
0010
0000
0100
0000
,
1000
0000
0001
0100
0010
1000
0001
0000
,
0010
0100
0000
1000
0001
0010
0100
1000
,
0010
0000
0000
1010
0000
0000
0101
0000
,
0010
0100
0001
1000
0100
0001
0100
0010
,
0001
0000
1000
0100
0010
0001
1000
0000
,
0010
0100
0000
0001
1000
0010
0100
0001
,
0010
0100
1000
0010
0000
0010
0000
0010
,
1000
0011
0110
1100
,
1000
0000
0001
0100
0010
1000
0001
0000
,
0010
0100
0000
1000
0001
0010
0100
1000
,
0001
0000
0100
1000
0010
0000
0100
0001
,
0010
0000
0100
1000
0010
0100
0001
0000
,
0110
0000
0000
1000
0000
0100
0010
1000
,
1001
0000
0100
0100
,
0001
0000
0000
0000
0100
0000
0000
0000
0010
0000
0000
0001
1000
0000
0000
0010
,
0001
0000
0100
0000
0010
0000
0000
1000
0001
0000
0100
0000
0010
0000
0100
0000
,
0020
0130
0002
0013
,
0200
0310
2000
3010
,
0001
0000
0000
0100
1000
0100
0000
0001
,
0000
0010
0000
0100
0000
1000
0000
0000
,
0010
0100
1000
0011
,
0100
0000
0010
1000
0000
0001
0010
0100
,
1000
0000
0000
1000
0000
0000
0020
0000
0000
0000
0000
0000
0130
0000
0000
0000
,
0001
0000
0000
1000
0010
0000
0100
0000
0000
0000
1001
0000
0000
0000
0000
0000
,
0002
0000
0000
0000
,
0010
0000
0100
0000
,
0023
0000
0000
1000
0000
0000
0000
0000
,
0000
0100
0000
0000
0031
0010
1000
0010
,
0001
0000
0000
0000
0000
0000
0000
0000
0010
0000
0000
0010
0000
0000
0010
0000
,
0001
0000
0000
0010
0000
0000
0010
0000
1000
0000
0000
0100
0000
0000
0100
0000
,
0001
0000
0000
0000
0010
0000
0000
0000
0001
0000
0000
1000
0100
0000
0000
0010
,
0001
0000
0100
0000
0010
0000
0000
1000
0001
0000
0100
0000
0010
0000
0100
0000
,
0001
1000
0100
0001
,
1000
0010
1000
0000
0100
0000
0010
0001
,
0010
0001
0100
1000
,
0100
0000
0001
1000
0100
1000
0001
0000
,
1020
0000
0000
0001
0000
0000
0001
0000
2030
0000
0000
0100
0000
0000
0100
0000
,
3002
0000
0000
0010
0000
0000
0010
0000
2003
0000
0000
0100
0000
0000
3001
0000
,
0100
0000
0000
0000
0100
0000
0000
0000
0100
0000
0000
1000
0001
0000
0000
0010
,
1000
0000
0100
0000
0010
0000
0000
0001
0100
0000
0010
0000
1000
0000
0100
0000
,
0020
0000
0000
0000
,
0130
0000
0000
0000
0000
0010
0100
0000
,
0010
0000
0000
0000
0001
0100
1000
0000
,
0100
0000
0000
0001
0000
0000
1000
0000
,
0001
1100
0101
1010
,
0011
0000
0000
0100
0000
0000
1000
0000
,
1001
0000
0000
0000
0000
0010
0100
0000
,
1000
0000
0000
0001
0100
0000
0110
0000
,
1000
0010
0100
0001
1000
0010
0100
0001
,
0010
0000
0001
0010
0000
0010
0100
0000
,
0001
0000
0100
1000
0000
0100
0001
0000
,
0100
0000
0100
1000
0000
1000
0001
0000
,
0100
0000
0100
1000
0000
0100
0001
0000
,
0010
0000
0001
0100
0000
1000
0100
0001
,
0010
0000
0100
1000
0000
0010
1000
0100
,
0010
0000
0001
0100
0000
0010
1000
0100
,
0000
0000
0000
0000
,
0001
0000
1000
0100
0010
0001
1000
0000
,
0010
0100
0000
0001
1000
0010
0100
0001
,
0010
0000
0000
0011
0000
0000
1100
0000
,
0010
0100
1000
0001
0100
1000
0100
0010
,
1000
0000
0001
0100
0010
1000
0001
0000
,
0010
0100
0000
1000
0001
0010
0100
1000
,
0010
0100
0001
0010
0000
0010
0000
0010
,
0001
1010
0110
0101
,
0001
0000
1000
0100
0010
0001
1000
0000
,
0010
0100
0000
0001
1000
0010
0100
0001
,
1000
0000
0100
0001
0010
0000
0100
1000
,
0010
0000
0100
0001
0010
0100
1000
0000
,
0110
0000
0000
0001
0000
0100
0010
0001
,
1001
0000
0100
0100
,
1000
0000
0000
0000
0100
0000
0000
0000
0010
0000
0000
1000
0001
0000
0000
0010
,
1000
0000
0100
0000
0010
0000
0000
0001
1000
0000
0100
0000
0010
0000
0100
0000
,
0010
0100
1000
0011
,
0100
0000
0010
1000
0000
0001
0010
0100
,
1000
0000
0000
1000
0000
0000
0100
0000
0010
0000
0100
0000
1000
0000
0001
0000
,
0000
1100
0000
0101
0000
1010
0000
0000
,
0010
0100
0001
1010
,
0100
0000
0010
0001
0000
1000
0010
0100
,
0001
0000
0000
0001
0000
0000
0020
0000
0000
0000
0000
0000
0130
0000
0000
0000
,
1000
0000
0000
0001
0010
0000
0100
0000
0000
0000
1001
0000
0000
0000
0000
0000
,
0100
0000
0000
0000
;
