#TITLE:SAKURA (djJack Bootleg);
#SUBTITLE:Hardstyle;
#ARTIST:RevenG;
#CREDIT:Peter;
#MUSIC:RevenG - SAKURA (djJack Hardstyle Bootleg).ogg;
#SELECTABLE:YES;
#BACKGROUND:../bg.png;
#BANNER:../banner.png;
#CDTITLE:;
#OFFSET:0.000;
#SAMPLESTART:32.000;
#SAMPLELENGTH:16.000;
#BPMS:0.000=150.000,106.000=143.244,107.000=128.841,108.000=113.067,109.000=102.885,110.000=87.229,111.000=33.749,112.000=50.000,113.000=150.000,145.000=37.500,146.000=150.000;
#STOPS:;

//---------------dance-single - Peter----------------
#NOTES:
     dance-single:
     Peter:
     Challenge:
     9:
     0.000,0.000,0.000,0.000,0.000:
0000
0000
0000
0000
,
0000
0000
0000
0000
,
0000
0000
0000
0000
,
0000
0000
0000
0000
,
0000
0000
0000
0000
,
0000
0000
0000
0000
,
0000
0000
0000
0000
,
0000
0000
0000
0000
,
1001
1000
0010
0010
0100
0100
0001
0001
,
1000
0000
1000
0000
0100
0000
0100
0000
0010
0000
0001
0010
0001
0000
0000
0000
,
0001
0001
0010
0010
0100
0100
1000
1000
,
0001
0000
0001
0000
0100
0000
0010
0000
1000
0000
0010
1000
0010
0000
1000
0000
,
0001
0001
0010
0010
0100
0100
1000
1000
,
0001
0000
0001
0000
0100
0000
0100
0000
0010
0000
1000
0010
1000
0000
0010
0000
,
1000
1000
0010
0010
0100
0100
0001
0001
,
1000
1000
0100
0010
0001
0000
00MM
0000
,
1000
0100
1000
0100
0010
0100
1000
0100
,
1000
0100
1000
0100
0010
0100
0010
0100
,
1000
0100
0010
0100
0001
0100
0010
0100
,
1000
0000
0100
0000
0010
0000
0001
0000
0100
0000
0001
0100
0001
0000
0100
0000
,
0001
0010
0001
0010
0100
0010
0001
0010
,
0001
0010
0001
0010
0100
0010
0100
0010
,
0001
0010
0100
0010
1000
0010
0100
0010
,
0001
0000
0010
0000
0100
0000
1000
0000
0010
0000
1000
0010
1000
0000
0010
0000
,
0010
0100
0001
0100
0010
0100
0001
0100
,
0010
0100
0001
0100
0010
0100
0001
0100
,
0010
0100
0001
0100
0010
0100
0001
0100
,
0010
0100
0001
0100
0010
0000
0001
0000
,
0000
0000
0000
1001
0000
0000
1001
0000
0000
1001
0000
1000
,
0100
0000
0100
0010
0000
0010
0001
0000
0001
1000
0000
0000
,
1001
0000
0001
1000
0000
0000
1001
0000
0000
1001
0000
1000
,
0010
0000
0010
0100
0000
0100
0001
0000
0001
1000
0000
0000
,
1001
0000
0001
1000
0000
0000
1001
0000
0000
1001
0000
0001
,
0010
0000
0010
0100
0000
0100
1000
0000
1000
0001
0000
0000
,
1001
0000
1000
0001
0000
0001
1000
0000
0000
1001
0000
0001
,
0100
0000
0000
0000
0100
0000
0010
0000
0000
0000
0000
0000
0110
0000
0000
0000
0000
0000
1001
0000
0000
1001
0000
0000
,
1001
0000
1001
0000
0000
0000
0000
0000
0011
0000
0010
0000
0100
0000
1000
0010
,
0000
0000
1000
0000
0010
0000
0100
0000
0101
0000
0100
0000
0010
0000
1000
0100
,
0000
0000
1000
0000
0100
0000
0010
0000
0011
0000
0010
0000
0100
0000
1000
0010
,
0000
0000
1000
0000
0010
0000
0100
0000
0101
0000
0100
0000
0010
0000
1000
0100
,
0000
0000
1000
0100
1000
0000
0100
0000
0011
0000
0010
0000
0100
0000
1000
0010
,
0000
0000
1000
0000
0010
0000
0100
0000
0101
0000
0100
0000
0010
0000
1000
0100
,
0000
0000
1000
0000
0100
0000
0010
0000
1100
0000
0100
0000
0010
0000
0001
0100
,
0000
0000
0001
0000
0100
0000
0010
0000
1010
0000
0010
0000
0100
0000
0001
0010
,
0000
0000
0001
0010
0001
0000
0010
0000
0100
1000
0100
1000
0000
0000
0000
0000
,
0001
0100
0001
0100
0000
0000
0001
0010
0100
1000
0100
1000
0000
0000
0000
0000
,
0001
0100
0001
0100
0010
1000
0010
1000
0001
1000
0001
0010
0000
0000
0001
0010
,
0100
0010
0001
0010
0000
0000
0001
0010
0100
0010
0001
0000
0010
0100
1000
0000
,
0001
0100
0010
1000
0001
0100
0001
1000
0010
0100
0010
1000
0000
0000
1000
0000
,
0010
0100
0010
1000
0000
0000
1000
0000
0010
0100
0010
1000
0000
0000
1000
0000
,
0010
0000
0100
0001
1000
0000
0100
0000
0010
0001
1000
0100
0000
0000
0100
0000
,
0010
0001
1000
0100
0000
0000
0100
0000
0010
0100
0010
0000
0100
0000
1000
0000
,
0010
0000
0010
1000
0001
0100
0010
1000
0001
0000
1000
0001
0100
0000
1000
0001
,
0100
0000
1000
0000
0010
0000
0100
0000
0001
0000
0001
1000
0010
0000
0001
1000
,
0010
0001
0100
0001
1000
0010
1000
0010
,
0100
0000
0001
0000
0100
0000
0001
0000
1000
0000
0100
0010
0000
0001
0100
0010
,
1000
0000
0010
1000
0000
1000
0100
0010
0002
0000
0000
0000
0000
0000
0000
0000
,
0000
0000
0000
2000
,
0000
0000
0000
0000
,
0000
3003
0000
0000
,
0000
0000
0000
0000
;
