#TITLE:On My Wings (Hardstyle IIDX);
#SUBTITLE:Hardstyle;
#ARTIST:kors k;
#TITLETRANSLIT:;
#SUBTITLETRANSLIT:;
#ARTISTTRANSLIT:;
#GENRE:;
#CREDIT:Peter;
#BANNER:../banner.png;
#BACKGROUND:../bg.png;
#LYRICSPATH:;
#CDTITLE:;
#MUSIC:kors k - On My Wings (Hardstyle IIDX).ogg;
#OFFSET:-0.438;
#SAMPLESTART:40.479;
#SAMPLELENGTH:13.000;
#SELECTABLE:YES;
#BPMS:0.000=150.000;
#STOPS:;
#BGCHANGES:;
#KEYSOUNDS:;

//---------------dance-single - Peter----------------
#NOTES:
     dance-single:
     Peter:
     Challenge:
     10:
     0.000,0.000,0.000,0.000,0.000:
0000
0000
0000
0000
,
0000
0000
0000
0000
,
0000
0000
0000
0000
,
0000
0000
0000
0000
,
0000
0000
0000
1000
0001
0010
0000
0000
,
0000
0000
0000
1000
0001
0010
0000
0000
,
0000
0000
0000
0001
1000
0100
0000
0000
,
0000
0000
0000
1000
0001
0100
0010
1000
,
1001
0000
0001
1000
0001
0010
0001
0000
,
0001
0000
0001
1000
0001
0010
0001
0000
,
1000
0000
1000
0001
1000
0100
1000
0000
,
0001
0000
0001
1000
0001
0100
0010
1000
,
1001
0000
0000
1000
0011
0010
0000
0000
,
1100
0000
0000
1000
0011
0010
0000
0000
,
1100
0000
0011
0001
1001
0100
0000
0000
,
0110
0000
0000
0010
1000
0010
0100
0001
,
1001
0000
0100
0000
0101
0000
0000
0001
0000
0100
0000
0000
1010
0000
0000
0000
,
1001
0000
1000
0001
0000
0000
0001
0010
0100
0000
0010
0000
0000
0000
0100
0000
,
1001
0000
0100
0000
1100
0000
0000
1000
0000
0100
0000
0000
0011
0000
1000
0000
,
1001
0000
0000
0000
0000
0000
0001
0010
0100
0000
0010
0000
0100
0000
0110
0000
,
1001
0000
0100
0000
0101
0000
0000
0001
0000
0100
0000
0000
1010
0000
0000
0000
,
1001
0000
1000
0001
0000
0000
0001
0010
0100
0000
0010
0000
0000
0000
0100
0000
,
1001
0000
0100
0000
1100
0000
0000
1000
0001
0100
0001
0000
0011
0000
1000
0001
,
0100
0000
0000
0010
1000
0100
0010
0001
,
1001
0000
0100
0000
0101
0000
1000
0010
0100
0001
1000
0000
1001
0000
0001
0000
,
1010
0000
1000
0010
0100
0000
0010
0100
0001
0010
0100
0000
1100
0000
0001
0000
,
1001
0000
0100
0000
0101
0000
1000
0010
0100
0001
1000
0000
1001
0000
0001
0000
,
1010
0000
1000
0010
0100
0000
0010
0100
0001
0010
0001
0000
1100
0000
0001
0000
,
1001
0000
0100
0000
1100
0000
0001
0010
0100
1000
0001
0000
1001
0000
1000
0000
,
0011
0000
0001
0010
0100
0000
0010
0100
1000
0010
0100
0000
0101
0000
1000
0000
,
1001
0000
0100
0000
1100
0000
0001
0010
0100
1000
0001
0000
1001
0000
1000
0000
,
0011
0000
0010
0110
0000
1000
1100
0001
,
0001
0100
0010
1000
0010
0000
1000
0100
0010
0001
0010
0000
0001
0100
0010
1000
,
0001
0100
0010
1000
0010
0000
1000
0100
0010
0001
0010
0000
0001
0000
1000
0000
,
0001
0100
0010
1000
0010
0000
1000
0100
0010
0001
0010
0000
0001
0100
0010
1000
,
0001
0100
0010
1000
0010
0000
1000
0100
1100
0000
0000
0011
0000
0000
0110
0000
,
0011
0101
0000
0100
0000
0001
0000
1010
,
0101
0000
0000
1000
0001
0000
1000
1001
,
0110
0000
0000
0000
0100
0000
0000
0000
0010
0000
0000
1000
0000
0000
0001
0000
,
2002
0000
0000
3113
,
1001
1000
0010
0100
0010
1000
0100
0010
,
0000
0010
0100
1000
0100
0000
0100
0000
,
0000
1000
0001
0010
0100
0001
0100
0010
,
0000
0010
0100
1000
0010
0000
0010
0000
,
0000
0001
0100
0010
0100
0001
0010
0100
,
0000
0100
0010
0001
0010
0000
0010
0000
,
0000
0001
1000
0100
0010
1000
0010
0100
,
0000
0100
0010
0001
0100
0000
0100
0000
,
0110
0000
0000
0000
0010
0000
0000
0000
0100
0000
0000
0010
0100
0000
0001
1000
,
0100
0000
0000
0000
0010
0000
0000
0000
0100
0000
0010
0001
1000
0001
1000
0010
,
0100
0000
0000
0000
0010
0000
0000
0000
0100
0000
0000
0010
0100
0000
0001
1000
,
0100
0000
0000
0000
0010
0000
0000
0000
0100
0000
0010
0001
1000
0001
1000
0010
,
1010
0000
0000
0110
0000
0000
0101
0000
0000
0011
0000
0000
0110
0000
0000
1100
,
0000
0000
1010
0000
0000
0110
0000
0000
0101
0000
0000
1010
0000
0000
0100
0000
,
0010
0000
1000
0000
0001
0000
0100
0000
0010
0000
1000
0000
0001
0010
0100
1000
,
0100
0000
0000
0110
,
1000
0100
0010
0001
0000
0010
0001
0000
1000
0010
0100
0001
0000
0100
0001
0000
,
1000
0100
0010
0001
0000
0010
0001
0000
1000
0010
0100
0001
0000
0100
0001
0000
,
1000
0100
0010
0001
0000
0010
0001
0000
1000
0010
0100
0001
0000
0100
0001
0000
,
1000
0100
0010
0001
0000
0010
0001
0000
1000
0010
0100
0001
0000
0100
0001
0000
,
0001
0100
0010
1000
0000
0010
1000
0000
0001
0010
0100
1000
0000
0100
1000
0000
,
0001
0100
0010
1000
0000
0010
1000
0000
0001
0010
0100
1000
0000
0100
1000
0000
,
0011
0000
0000
1001
0000
0011
0000
1001
,
0000
1100
1001
0000
0110
0000
1001
0000
,
0110
0001
0100
0010
0100
0001
0010
0100
,
0000
0000
0100
0000
0010
0001
1000
0000
0010
0000
0000
0000
0010
0000
0100
0000
,
1001
0001
1000
0100
0010
1000
0010
0100
,
0000
0000
1000
0100
1000
0000
0001
0000
0100
0000
0000
0000
0100
0000
0010
0100
,
0010
1000
0010
0100
0010
1000
0100
0010
,
0000
0010
0100
1000
0100
0000
0100
0000
,
1001
0000
1000
0000
0001
1000
0010
0100
0001
0000
0001
0000
1000
0000
1000
0000
,
0000
0000
0010
0000
0100
0001
1000
0000
0010
0000
0000
0000
0010
0000
0000
0000
,
0110
0000
0000
0000
;
