#TITLE:MaxX to the Xxium;
#SUBTITLE:Harder Styles;
#ARTIST:MegaSphere;
#TITLETRANSLIT:;
#SUBTITLETRANSLIT:;
#ARTISTTRANSLIT:;
#GENRE:;
#CREDIT:Peter;
#BANNER:../banner.png;
#BACKGROUND:../bg.png;
#LYRICSPATH:;
#CDTITLE:;
#MUSIC:MegaSphere - MaxX to the Xxium.ogg;
#OFFSET:0.000;
#SAMPLESTART:56.000;
#SAMPLELENGTH:14.800;
#SELECTABLE:YES;
#BPMS:0.000=300.000,160.000=150.000,192.000=300.000;
#STOPS:;
#BGCHANGES:;
#KEYSOUNDS:;

//---------------dance-single - Peter----------------
#NOTES:
     dance-single:
     Peter:
     Challenge:
     13:
     0.000,0.000,0.000,0.000,0.000:
0000
0000
0000
0000
,
0000
0000
0000
0000
,
0000
0000
0000
0000
,
0000
0000
0000
0000
,
0000
0000
0000
0000
,
0000
0000
0000
0000
,
0001
0000
0010
0001
0100
1000
0000
1000
,
0100
0000
0010
1000
0100
0001
0000
0001
,
0100
0000
0010
0100
1000
0010
0000
0100
,
0010
1000
0100
0010
,
0001
0000
0100
0001
0010
1000
0000
1000
,
0010
0000
0100
1000
0010
0001
0000
0001
,
0010
0000
0100
0010
1000
0100
0000
0010
,
0100
1000
0010
0100
,
0001
0010
0100
1000
0010
0001
0000
0001
,
0010
1000
0100
0001
0100
1000
0010
1000
,
0001
0100
0010
1000
0100
0001
0000
0001
,
0100
1000
0010
0100
,
0001
0010
0100
0001
0100
1000
0000
1000
,
0100
0001
0100
1000
0010
0100
0010
1000
,
1010
0000
0000
0101
,
0000
0000
0000
0000
0100
0010
1000
0001
,
0011
0000
0000
0000
,
0000
1000
0100
0010
,
0001
0000
0100
0000
0010
1000
0000
0010
,
1000
0000
0100
0000
0010
0001
0000
0010
,
0001
0000
1000
0000
0001
0100
0000
0010
,
1000
0000
0000
1000
0000
0000
1000
0000
,
0000
0000
1010
0110
,
0101
0000
0100
0000
0010
1000
0000
0010
,
1000
0100
0010
0001
1000
0000
0000
0010
,
0200
0000
1000
0000
0010
0300
0101
0000
,
1010
0000
0010
0000
1000
0010
0000
0010
,
1000
0000
0100
0000
0010
0001
1000
0001
,
0010
0000
0001
0000
0010
0001
1000
0001
,
0010
0100
0001
0100
0011
0000
0000
0000
,
0101
0000
0001
0110
,
0000
1010
0000
0010
,
1000
0100
0010
0000
0001
0010
0100
0000
,
1000
0000
0010
0001
1000
0100
0010
0000
,
0120
0000
0100
0000
0100
0000
0100
0000
0100
0000
0100
0000
0100
0000
0100
0030
,
0201
0000
0001
0000
0001
0300
1002
0000
1000
0000
1000
0003
2100
0000
0100
3000
,
0210
0000
0010
0000
0010
0000
0010
0000
0010
0000
0010
0000
0010
0000
0010
0300
,
0021
0000
0001
0000
0001
0030
1002
0000
1000
0000
1000
0003
2010
0000
0010
3000
,
0120
0000
0100
0000
0100
0000
0100
0000
0100
0000
0100
0000
0100
0000
0100
0030
,
0201
0000
0001
0000
0001
0300
1002
0000
1000
0000
1000
0003
2100
0000
0100
3000
,
0210
0000
0010
0000
0010
0000
0010
0000
0010
0000
0010
0000
0010
0000
0010
0300
,
0101
0000
0000
0000
0110
0000
0000
0000
1000
0010
0001
0010
1000
0001
0100
0010
,
1000
0000
0100
1000
0000
0100
1000
0100
,
0010
0001
0011
1100
,
0100
1000
0010
0001
0010
0000
0001
0010
,
1000
0010
0001
0010
1000
0000
0100
0000
,
0010
0000
0001
0100
0000
0100
1000
0000
,
0001
0000
0010
0100
0010
0000
0001
0000
,
1000
0100
1000
0100
0010
0000
0000
0001
,
0100
0001
0101
0000
0110
0000
1010
0000
,
0001
0000
0100
0001
0000
0100
0001
0100
,
0010
1000
1010
0101
,
0100
0001
0010
1000
0010
0000
1000
0010
,
0001
0010
1000
0010
0001
0000
0100
0000
,
0010
0000
1000
0100
0000
0100
0001
0000
,
1000
0000
0010
0100
0010
0000
1000
0000
,
0001
0000
0100
0000
0100
0000
1000
0000
0100
0000
0100
0000
,
0001
0000
0000
0000
1000
0000
0000
0000
0010
0000
0000
0000
2002
0000
0000
0000
0000
0000
0000
0000
0000
3003
0000
0000
,
1001
1000
0001
0100
0010
0001
0010
0100
,
1000
0100
0001
1000
0100
0010
0001
1000
,
1001
0001
0100
0010
1000
0100
1000
0001
,
0101
0000
0000
0110
0000
0000
1010
0000
,
1100
1000
0100
0010
0001
0010
0100
1000
,
0010
0000
0000
0001
0000
0000
0010
0000
0000
1000
0000
0000
1001
0000
0000
0000
0100
0000
0000
0000
0010
0000
0000
0000
,
1001
1000
0001
1000
0100
1000
0001
1000
,
0201
0000
0010
0000
1000
0000
0010
0300
,
0101
0100
0001
1000
0010
0100
0001
0100
,
1010
0000
0001
1000
0110
0000
1001
0000
,
1001
0001
0010
0100
1000
0010
1000
0001
,
0011
0000
0000
0110
0000
0000
1100
0000
,
1010
1000
0010
0100
0001
0100
0010
1000
,
0101
0001
0100
0001
0010
0100
1000
0010
,
1001
0000
0010
0000
0100
0000
1001
0000
0100
0000
0010
0000
,
1001
0000
0100
0000
0010
0000
0110
0000
0000
0000
0000
0000
,
2002
0000
0000
0000
,
3003
0000
0000
0000
,
1010
0000
1000
0010
1000
0000
0101
0000
,
0001
0100
0001
0000
0001
0010
0001
0000
,
0001
0010
0100
1000
0010
0100
0001
0100
,
1000
0000
0000
0100
0000
0000
0001
0000
,
0101
0000
0001
0100
0001
0000
1010
0000
,
1000
0010
1000
0000
1000
0100
1000
0000
,
1000
0100
0010
0001
0100
0010
1000
0010
,
0001
0000
0010
0000
,
1010
0000
1000
0010
1000
0000
0101
0000
,
0001
0100
0001
0000
0001
0010
0001
0000
,
0001
0010
0100
1000
0010
0100
0001
0100
,
1000
0100
1000
0100
0001
0000
0000
0000
,
1000
0000
0100
0000
0010
0001
0000
0010
,
0001
0000
0100
0000
0010
1000
0000
0010
,
1000
0000
0100
0010
0001
1000
0000
1000
,
0001
0100
0010
0000
,
1000
0000
1000
0000
1000
0000
0000
0000
0000
0000
0000
0000
,
0001
0000
0001
0000
0001
0000
0000
0000
0000
0000
0000
0000
,
0100
0000
0100
0000
0100
0000
0010
0000
0010
0000
0010
0000
,
2002
0000
0000
0000
,
3003
0000
0000
0000
;
