#TITLE:Lekker Sapje;
#SUBTITLE:Subground;
#ARTIST:Geck-O;
#TITLETRANSLIT:;
#SUBTITLETRANSLIT:;
#ARTISTTRANSLIT:;
#GENRE:;
#CREDIT:Peter;
#BACKGROUND:../bg.png;
#BANNER:../banner.png;
#LYRICSPATH:;
#CDTITLE:;
#MUSIC:Geck-O - Lekker Sapje.ogg;
#OFFSET:0.000;
#SAMPLESTART:25.050;
#SAMPLELENGTH:15.090;
#SELECTABLE:YES;
#DISPLAYBPM:72.500:145.000;
#BPMS:0.000=145.000,60.000=290.000,66.000=145.000,81.000=72.500,82.000=145.000,110.000=48.334,111.000=145.000,124.000=290.000,128.000=145.000,155.000=290.000,157.000=145.000,161.000=72.500,169.000=145.000,180.000=290.000,188.000=145.000;
#STOPS:124.000=0.208
,125.000=0.208
,126.000=0.208
,127.000=0.208
;
#BGCHANGES:;
#KEYSOUNDS:;

//---------------dance-single - Peter----------------
#NOTES:
     dance-single:
     Peter:
     Challenge:
     11:
     0.000,0.000,0.000,0.000,0.000:
0000
0000
0000
0000
,
0000
0000
0000
0000
,
0000
0000
0000
0000
,
0000
0000
0000
0000
,
0001
1000
0001
1000
1000
0001
1000
0100
,
0010
0010
0010
0100
0010
0100
0010
0001
,
1000
0001
1000
0001
0001
1000
0001
0010
,
0100
0000
0100
0000
0100
0000
0010
0000
0100
0000
0010
0000
0200
0000
0000
0300
,
0011
0011
1100
1100
,
0011
0011
1100
1100
,
0101
0101
1010
1010
,
0101
0101
1010
0110
,
1002
0100
1000
0103
2001
0100
0001
3100
,
1002
0010
1000
0013
2001
0010
0001
3010
,
0001
0100
0010
1000
0010
0100
0001
1000
0100
0010
0001
0010
0100
1000
0001
1000
,
0MMM
0000
0000
0000
,
0000
0000
0000
0000
0000
0000
0000
0000
0000
0000
0000
0000
101M
0000
0001
0100
,
0001
0000
0010
0000
101M
0000
0001
0100
0001
0000
0010
0000
101M
0000
0001
0100
,
0001
0000
0010
0000
101M
0000
1000
0100
1000
0000
0010
0000
M011
0000
1000
0100
,
1000
0000
0010
0000
M011
0000
1000
0100
1000
0000
0010
0000
M011
0000
1000
0100
,
1000
0000
0000
0000
0000
0000
0000
0000
0000
0000
0000
0000
0000
0000
0000
0000
0000
0000
0000
0000
0000
0000
0000
0000
0010
0000
0000
0000
0000
0000
0000
0000
0000
0000
0000
0000
0000
0000
0000
0000
0000
0000
0000
0000
0000
0000
0000
0000
M010
0000
0000
0000
0000
0000
0000
0000
0000
0000
0000
0000
0001
0000
0000
0000
0000
0000
0010
0000
0000
0000
0000
0000
0001
0000
0000
0000
0000
0000
0000
0000
0000
0000
0000
0000
0010
0000
0000
0000
0000
0000
0000
0000
0000
0000
0000
0000
0011
0000
0000
0000
0000
0000
0000
0000
0000
0000
0000
0000
0000
0000
0000
0000
001M
0000
0000
0000
0000
0000
0000
0000
0000
0000
0000
0000
0000
0000
0000
0000
0000
0000
0000
0000
1000
0000
0000
0000
0000
0000
0000
0000
0000
0000
0000
0000
0001
0000
0000
0000
0000
0000
0000
0000
0000
0000
0000
0000
0000
0000
0000
0000
0000
0000
0000
0000
0000
0000
0000
0000
0010
0000
0000
0000
0000
0000
0000
0000
0000
0000
0000
0000
0000
0000
0000
0000
0000
0000
0000
0000
0000
0000
0000
0000
,
0011
0000
0000
0000
001M
0000
0000
0000
0000
1000
0000
0000
0001
0000
0000
0000
0000
0000
0010
0000
0000
0000
0000
0000
0011
0000
0000
0000
001M
0000
0000
0000
0000
1000
0000
0000
0001
0000
0000
0000
0000
0000
0010
0000
0000
0000
0000
0000
,
0011
0000
0000
0000
001M
0000
0000
0000
0000
1000
0000
0000
0001
0000
0000
0000
0000
0000
0100
0000
0000
0000
0000
0000
0101
0000
0000
0000
010M
0000
0000
0000
0000
1000
0000
0000
0001
0000
0000
0000
0000
0000
0100
0000
0000
0000
0000
0000
,
0101
0000
0000
0000
010M
0000
0000
0000
0000
1000
0000
0000
0001
0000
0000
0000
0000
0000
0000
0000
0000
0000
0000
0000
0100
0000
0000
0000
0000
0000
0100
0000
0000
0000
0000
0000
0010
0000
0000
0000
0000
0000
0010
0000
0000
0000
0000
0000
,
1000
0000
0010
0000
0100
0000
0001
0000
M011
0000
1000
0100
1000
0000
0010
0000
,
M011
0000
1000
0100
1000
0000
0010
0000
M011
0000
1000
0100
1000
0000
0010
0000
,
M011
0000
0001
0100
0001
0000
0010
0000
101M
0000
0001
0100
0001
0000
0010
0000
,
101M
0000
0000
0000
0000
0000
0001
0000
0000
0100
0000
0000
0001
0000
0000
0000
0000
0000
0010
0000
0000
0000
0000
0000
101M
0000
0000
0000
1010
0000
0000
0000
1010
0000
0000
0000
M0M0
0000
0000
0000
M0M0
0000
0000
0000
M0M0
0000
0000
0000
,
0101
0100
0010
1010
0000
0100
1100
0010
0001
0011
0000
0001
,
0101
0100
0010
1010
0000
0100
1100
0010
0001
0011
0000
0001
,
0101
0100
0010
0101
0100
0010
0101
0100
0010
0M00
0000
0000
,
2020
0000
0000
3030
0220
0000
0000
0330
0202
0000
0000
0303
2002
0000
0000
3003
,
1001
0000
0000
0000
0000
0000
0000
0000
0000
0000
0000
0000
0000
0000
0000
0000
0000
0000
0000
0000
0000
0000
0000
0000
0001
0000
0000
0000
1000
0000
0000
0000
0000
0000
0001
0000
0000
0000
0000
0000
1000
0000
0000
0000
0000
0000
0000
0000
0010
0000
0000
0000
0000
0000
0000
0000
0000
0000
0000
0000
0000
0000
0000
0000
0000
0000
0000
0000
0000
0000
0000
0000
0100
0000
0000
0000
0000
0000
0000
0000
0000
0000
0000
0000
0000
0000
0000
0000
0000
0000
0000
0000
0000
0000
0000
0000
0101
0000
0000
0000
0000
0000
0000
0000
0000
0000
0000
0000
0000
0000
0000
0000
0001
0000
0000
0000
0000
0000
0000
0000
0000
0000
0000
0000
0000
0000
0000
0000
0100
0000
0000
0000
0000
0000
0000
0000
0000
0000
0000
0000
0000
0000
0000
0000
0010
0000
0000
0000
0000
0000
0000
0000
0000
0000
0000
0000
0000
0000
0000
0000
0000
0000
0000
0000
0000
0000
0000
0000
0100
0000
0000
0000
0000
0000
0000
0000
0000
0000
0000
0000
0000
0000
0000
0000
0000
0000
0000
0000
0000
0000
0000
0000
,
1001
0000
0000
0000
0000
0000
0000
0000
0000
0000
0000
0000
0000
0000
0000
0000
0000
0000
0000
0000
0000
0000
0000
0000
0001
0000
0000
0000
1000
0000
0000
0000
0000
0000
0001
0000
0000
0000
0000
0000
1000
0000
0000
0000
0000
0000
0000
0000
0010
0000
0000
0000
0000
0000
0000
0000
0000
0000
0000
0000
0000
0000
0000
0000
0000
0000
0000
0000
0000
0000
0000
0000
0100
0000
0000
0000
0000
0000
0000
0000
0000
0000
0000
0000
0000
0000
0000
0000
0000
0000
0000
0000
0000
0000
0000
0000
0101
0000
0000
0000
0000
0000
0000
0000
0000
0000
0000
0000
0000
0000
0000
0000
0001
0000
0000
0000
0000
0000
0000
0000
0000
0000
0000
0000
0000
0000
0000
0000
0100
0000
0000
0000
0000
0000
0000
0000
0000
0000
0000
0000
0000
0000
0000
0000
0010
0000
0000
0000
0000
0000
0000
0000
0000
0000
0000
0000
0000
0000
0000
0000
0000
0000
0000
0000
0000
0000
0000
0000
0100
0000
0000
0000
0000
0000
0000
0000
0000
0000
0000
0000
0000
0000
0000
0000
0000
0000
0000
0000
0000
0000
0000
0000
,
1001
0000
0000
0000
0000
0000
0000
0000
0000
0000
0000
0000
0000
0000
0000
0000
0000
0000
0000
0000
0000
0000
0000
0000
0001
0000
0000
0000
1000
0000
0000
0000
0000
0000
0001
0000
0000
0000
0000
0000
1000
0000
0000
0000
0000
0000
0000
0000
0010
0000
0000
0000
0000
0000
0000
0000
0000
0000
0000
0000
0000
0000
0000
0000
0000
0000
0000
0000
0000
0000
0000
0000
0100
0000
0000
0000
0000
0000
0000
0000
0000
0000
0000
0000
0000
0000
0000
0000
0000
0000
0000
0000
0000
0000
0000
0000
0101
0000
0000
0000
0000
0000
0000
0000
0000
0000
0000
0000
0000
0000
0000
0000
0001
0000
0000
0000
0000
0000
0000
0000
0000
0000
0000
0000
0000
0000
0000
0000
0100
0000
0000
0000
0000
0000
0000
0000
0000
0000
0000
0000
0000
0000
0000
0000
0010
0000
0000
0000
0000
0000
0000
0000
0000
0000
0000
0000
0000
0000
0000
0000
0000
0000
0000
0000
0000
0000
0000
0000
0100
0000
0000
0000
0000
0000
0000
0000
0000
0000
0000
0000
0000
0000
0000
0000
0000
0000
0000
0000
0000
0000
0000
0000
,
1001
0000
0000
0000
0000
0000
0000
0000
0000
0000
0000
0000
0000
0000
0000
0000
0000
0000
0000
0000
0000
0000
0000
0000
0001
0000
0000
0000
1000
0000
0000
0000
0000
0000
0001
0000
0000
0000
0000
0000
1000
0000
0000
0000
0000
0000
0000
0000
0010
0000
0000
0000
0000
0000
0000
0000
0000
0000
0000
0000
0000
0000
0000
0000
0000
0000
0000
0000
0000
0000
0000
0000
0100
0000
0000
0000
0000
0000
0000
0000
0000
0000
0000
0000
0000
0000
0000
0000
0000
0000
0000
0000
0000
0000
0000
0000
0101
0000
0000
0000
0000
0000
0000
0000
0000
0000
0000
0000
0000
0000
0000
0000
0110
0000
0000
0000
0000
0000
0000
0000
0000
0000
0000
0000
0000
0000
0000
0000
1010
0000
0000
0000
0000
0000
0000
0000
0000
0000
0000
0000
0000
0000
0000
0000
1001
0000
0000
0000
0000
0000
0000
0000
0000
0000
0000
0000
0000
0000
0000
0000
0000
0000
0000
0000
0000
0000
0000
0000
0010
0000
0000
0000
0000
0000
0000
0000
0000
0000
0000
0000
0000
0000
0000
0000
0000
0000
0000
0000
0000
0000
0000
0000
,
1001
0000
0000
1100
0000
0100
1100
0010
0001
0011
0000
0100
,
0101
0000
0000
1001
0000
0100
1100
0010
0001
0011
0000
0100
,
0101
0000
0000
1001
0000
0100
1100
0010
0001
MM00
0000
0000
,
0000
0000
0000
0000
0202
0000
0000
0303
2020
0000
0000
3030
0220
0000
0000
0330
,
0202
0000
0000
0303
1000
0000
0100
0000
1000
0000
0001
0000
0100
0000
0010
0000
,
1000
0001
1000
0010
1000
0001
0010
0100
,
1000
0000
0001
0000
0100
0010
0000
0100
,
0000
0010
1000
0000
1000
0010
0000
0100
,
0000
0001
1000
0000
0100
0010
0000
0100
,
M00M
0000
0000
0000
,
0000
0000
0000
0000
,
0M00
00M0
0M00
00M0
0001
0000
1000
0000
0001
0000
1000
0000
1000
0000
0001
0000
,
1000
0100
0010
0010
0010
0100
0010
0100
,
0010
0001
1000
0001
1000
0001
0001
1000
,
0001
0010
0100
0100
0100
0010
0100
0010
,
0100
1000
0001
1000
0001
1000
1000
0001
,
1000
0100
0010
0010
0010
0100
0010
0100
,
0010
0001
1000
0001
1000
0001
0001
1000
,
0001
0010
0100
0100
0100
0010
0100
0010
,
0100
1000
0000
0000
0000
0000
0000
0000
;
