#TITLE:Kiss Me Kill Me (MegaSphere Remix);
#SUBTITLE:Hardcore;
#ARTIST:Odyssey Eurobeat;
#TITLETRANSLIT:;
#SUBTITLETRANSLIT:;
#ARTISTTRANSLIT:;
#CREDIT:Peter;
#BACKGROUND:../bg.png;
#BANNER:../banner.png;
#LYRICSPATH:;
#CDTITLE:;
#MUSIC:Odyssey Eurobeat - Kiss Me Kill Me (MegaSphere Remix).ogg;
#OFFSET:-0.330;
#SAMPLESTART:33.330;
#SAMPLELENGTH:10.662;
#SELECTABLE:YES;
#BPMS:0.000=180.000;
#STOPS:;
#BGCHANGES:;

//---------------dance-single - Peter----------------
#NOTES:
     dance-single:
     Peter:
     Challenge:
     12:
     0.000,0.000,0.000,0.000,0.000:
0000
0000
0000
0000
0000
0000
0000
0000
0000
0000
0000
0000
1000
0001
0100
0010
,
1000
0001
0100
0010
0100
0001
1000
0001
0010
0100
0010
0001
1000
0001
0100
0010
,
1000
0001
0100
0010
0100
0001
0010
0100
1000
0100
0010
0001
1000
0001
0100
0010
,
1000
0001
0100
0010
0100
0001
1000
0001
0010
0100
0010
0001
1000
0001
1000
0001
,
0100
0001
1000
0001
1000
0010
1000
0010
0100
0010
1000
0001
1000
0001
0100
0010
,
1000
0001
0100
0010
0100
0001
1000
0001
0010
0100
0010
0001
1000
0001
0100
0010
,
1000
0001
0100
0010
0100
0001
0010
0100
1000
0100
0010
0001
1000
0001
1000
0001
,
1000
0001
1000
0001
1000
0001
1000
0001
1000
0001
1000
0001
1000
0000
1000
0000
,
0001
0000
0000
0000
0000
0000
0001
0000
0000
0000
0000
0000
1000
0000
0100
0000
1000
0000
0100
0000
1000
0000
0100
0000
1000
0000
0000
0000
0000
0000
0100
0000
0000
0000
0000
0000
1100
0000
0000
0000
0000
0000
0000
0000
0000
0001
0000
0000
,
0100
0000
0001
0000
0001
0000
0000
1000
0100
0000
1000
0000
1000
0000
0000
0001
,
0100
0000
0001
0000
0001
0000
0000
1000
0100
0000
1000
0000
1000
0000
0000
0001
,
0010
0000
0001
0000
0001
0000
0000
1000
0010
0000
1000
0000
1010
0000
0000
0000
,
0110
0000
0000
0000
0101
0000
0000
0000
1010
0000
0001
0000
1001
0000
0000
0001
,
0100
0000
0001
0000
0001
0000
0000
1000
0100
0000
1000
0000
1001
0000
0000
0001
,
0100
0000
0001
0000
0001
0000
0000
1000
0100
0000
1000
0000
1000
0001
1000
0001
,
1000
0001
1000
0001
1000
0001
1000
0001
1000
0001
1000
0001
1000
0000
1000
0000
,
0001
0000
0001
0000
0100
0000
0100
0000
0110
0000
0000
0000
1001
0000
0000
0001
,
0100
0000
0010
0000
0100
0000
0000
0010
0000
0000
1000
0000
0100
0000
0000
0000
,
0010
0100
0010
0100
1000
0000
1000
0100
0010
0000
0001
0000
0000
0000
0000
0000
,
0000
0001
0010
0100
1000
0010
0000
0010
,
1000
0000
0100
0000
0010
0000
0001
0000
0010
0100
0010
0100
1000
0000
0000
0001
,
0000
0000
0010
0000
0100
0000
0000
0010
0000
0000
0001
0000
0100
0000
0000
0010
,
0000
0000
0010
0100
0001
0000
0001
0100
0010
0000
1000
0000
0001
1000
0001
1000
,
0001
1000
0001
1000
0001
1000
0001
1000
0001
1000
0001
1000
0001
0000
0001
0000
,
1000
1000
0010
0010
0110
0000
1001
0001
,
0100
0100
0010
0010
1000
1000
0001
0100
,
0010
0000
1000
0000
0100
0000
0000
0010
0000
0000
0001
0000
0000
0000
0001
0000
,
0100
0001
0000
0001
0010
0001
0000
0010
,
0000
0000
0001
0000
0000
0000
1000
0000
0001
1000
0001
1000
0010
0000
0010
0000
,
0100
0100
0010
0010
1000
1000
0001
0100
,
0010
0000
1000
0000
0100
0000
0000
0010
0000
0000
0001
0000
1000
0001
1000
0001
,
1000
0001
1000
0001
1000
0001
1000
0001
1000
0001
1000
0001
1000
0000
1000
0000
,
0001
0000
0001
0000
0100
0000
0100
0000
0110
0000
0000
0000
1000
0001
0100
0010
,
1000
0001
0100
0010
0100
0001
1000
0001
0010
0100
0010
0001
1000
0001
0100
0010
,
1000
0001
0100
0010
0100
0001
0010
0100
1000
0100
0010
0001
1000
0001
0100
0010
,
1000
0001
0100
0010
0100
0001
1000
0001
0010
0100
0010
0001
1000
0001
1000
0001
,
0100
0001
1000
0001
1000
0010
1000
0010
0100
0010
1000
0001
1000
0001
0100
0010
,
1000
0001
0100
0010
0100
0001
1000
0001
0010
0100
0010
0001
1000
0001
0100
0010
,
1000
0001
0100
0010
0100
0001
0010
0100
1000
0100
0010
0001
1000
0001
1000
0001
,
1000
0001
1000
0001
1000
0001
1000
0001
1000
0001
1000
0001
1000
0000
1000
0000
,
0001
0000
0000
0000
0000
0000
0001
0000
0000
0000
0000
0000
1000
0000
0100
0000
1000
0000
0100
0000
1000
0000
0100
0000
1000
0000
0000
0000
0000
0000
0100
0000
0000
0000
0000
0000
0011
0000
0000
0000
0000
0000
0000
0000
0000
1000
0000
0000
,
0010
0000
1000
0000
1000
0000
0000
0001
0010
0000
0001
0000
0001
0000
0000
1000
,
0010
0000
1000
0000
1000
0000
0000
0001
0010
0000
0001
0000
0001
0000
0000
1000
,
0100
0000
1000
0000
1000
0000
0000
0001
0100
0000
0001
0000
0011
0000
0000
0000
,
0110
0000
0000
0000
1100
0000
0000
0000
0011
0000
1000
0000
1001
0000
0000
1000
,
0010
0000
1000
0000
1000
0000
0000
0001
0010
0000
0001
0000
1001
0000
0000
1000
,
0010
0000
1000
0000
1000
0000
0000
0001
0010
0000
0001
0000
0001
1000
0001
1000
,
0001
1000
0001
1000
0001
1000
0001
1000
0001
1000
0001
1000
0001
0000
0001
0000
,
1000
0000
1000
0000
0010
0000
0010
0000
0110
0000
0000
0000
1001
0000
0000
1000
,
0010
0000
0100
0000
0010
0000
0000
0100
0000
0000
0001
0000
0010
0000
0000
0000
,
0100
0010
0100
0010
0001
0000
0001
0010
0100
0000
1000
0000
0000
0000
0000
0000
,
0000
1000
0100
0010
0001
0100
0000
0100
,
0001
0000
0010
0000
0100
0000
1000
0000
0100
0010
0100
0010
0001
0000
0000
1000
,
0000
0000
0100
0000
0010
0000
0000
0100
0000
0000
1000
0000
0010
0000
0000
0100
,
0000
0000
0100
0010
1000
0000
1000
0010
0100
0000
0001
0000
1000
0001
1000
0001
,
1000
0001
1000
0001
1000
0001
1000
0001
1000
0001
1000
0001
1000
0000
1000
0000
,
0001
0001
1000
1000
1001
0110
1001
0001
,
0100
0100
0010
0010
1000
1000
0001
0100
,
0010
0000
1000
0000
0100
0000
0000
0010
0000
0000
0001
0000
0000
0000
0001
0000
,
0100
0001
0000
0001
0010
0001
0000
0010
,
0000
0000
0001
0000
0000
0000
1000
0000
0001
1000
0001
1000
0010
0000
0010
0000
,
0100
0100
0010
0010
1000
1000
0001
0100
,
0010
0000
1000
0000
0100
0000
0000
0010
0000
0000
0001
0000
1000
0001
1000
0001
,
1000
0001
1000
0001
1000
0001
1000
0001
1000
0001
1000
0001
1000
0000
1000
0000
,
0001
0001
0100
0100
0110
0000
1001
0001
,
0010
0010
0100
0100
1000
1000
0001
0010
,
0100
0000
1000
0000
0010
0000
0000
0100
0000
0000
0001
0000
0000
0000
0001
0000
,
0010
0001
0000
0001
0100
0001
0000
0100
,
0000
0000
0001
0000
0000
0000
1000
0000
0001
1000
0001
1000
0100
0000
0100
0000
,
0010
0010
0100
0100
1000
1000
0001
0010
,
0100
0000
1000
0000
0010
0000
0000
0100
0000
0000
0001
0000
1000
0001
1000
0001
,
1000
0001
1000
0001
1000
0001
1000
0001
1000
0001
1000
0001
1000
0000
1000
0000
,
0001
0000
0001
0000
0010
0000
0010
0000
0110
0000
0000
0000
1000
0001
0100
0010
,
1000
0001
0100
0010
0100
0001
1000
0001
0010
0100
0010
0001
1000
0001
0100
0010
,
1000
0001
0100
0010
0100
0001
0010
0100
1000
0100
0010
0001
1000
0001
0100
0010
,
1000
0001
0100
0010
0100
0001
1000
0001
0010
0100
0010
0001
1000
0001
0100
0001
,
1000
0100
1000
0001
0100
0001
1000
0100
0010
0001
1000
0001
1000
0001
0100
0010
,
1000
0001
0100
0010
0100
0001
1000
0001
0010
0100
0010
0001
1000
0001
0100
0010
,
1000
0001
0100
0010
0100
0001
0010
0100
1000
0100
0010
0001
1000
0001
1000
0001
,
1000
0001
1000
0001
1000
0001
1000
0001
1000
0001
1000
0001
1000
0000
0000
0110
,
0000
0000
0101
0000
0011
0000
0000
0110
0000
0000
1100
0000
1000
0000
1000
0000
,
0001
0000
0000
0001
0000
0000
1000
0001
1000
0001
1000
0001
1000
0000
0000
0000
0000
0000
0000
0000
0000
0000
0000
0000
;
