#TITLE:FAXX (Cally & Juice remix);
#SUBTITLE:Hardstyle;
#ARTIST:100-200-400;
#CREDIT:Peter;
#MUSIC:100-200-400 - Fascination MAXX (Cally & Juice's Maximum Overload Mix).ogg;
#SELECTABLE:YES;
#BACKGROUND:../bg.png;
#BANNER:../banner.png;
#CDTITLE:;
#OFFSET:-0.398;
#SAMPLESTART:28.800;
#SAMPLELENGTH:16.400;
#BPMS:0=150;
#STOPS:;

//---------------dance-single - ----------------
#NOTES:
     dance-single:
     Peter:
     Challenge:
     10:
     0.000,0.000,0.000,0.000,0.000:
0000
0000
0000
0000
,
0000
0000
0000
0001
,
0000
0000
0000
0000
0000
0000
1000
0100
1000
0000
0001
0000
0000
0000
0000
0000
,
0000
0000
0000
0000
0000
0000
1000
0100
1000
0000
0001
0000
0000
0000
0000
0000
,
0000
0000
0000
0000
0000
0000
1000
0100
1000
0000
0100
1000
0001
0000
0000
0000
,
0000
0000
0010
0001
0000
0000
0100
0000
0010
1000
0010
0100
0001
0000
1000
0000
,
0010
0000
0100
0000
0001
0000
1000
0100
1000
0000
0001
0000
0010
0000
0100
0000
,
1000
0000
0001
0000
0100
0000
0001
0100
0001
0000
1M00
0000
00M0
0000
0M00
0000
,
000M
0000
M000
000M
0M00
00M0
1000
0100
1000
0000
0100
1000
0001
0000
0000
0000
,
0000
0000
0010
0001
0000
0000
0100
0000
0010
0100
0001
1000
0200
0000
0000
0000
,
0000
0000
0000
0000
,
0000
0000
0000
1300
,
1000
0000
1000
0100
0000
0100
0000
0000
1000
0000
0100
1000
0010
0100
0010
0100
,
0010
0100
0010
0100
0001
1000
0001
1000
0001
1000
0001
1000
0001
0000
0001
0000
,
0001
0000
0001
0010
0000
0010
0000
0000
0001
0000
0001
0010
0100
0000
0010
0000
,
0100
0000
0010
0000
0001
0000
0100
0010
0000
0010
0100
0000
0001
0000
0000
0000
,
0001
0000
0001
0100
0000
0100
0000
0000
0001
0000
0001
0100
0010
1000
0010
1000
,
0010
1000
0010
1000
0001
0100
0001
0100
0001
0100
0001
0100
0001
0000
0001
0000
,
0001
0000
0001
1000
0000
1000
0000
0000
0001
0000
0000
1000
0001
0010
0001
0010
,
0001
0010
0001
0010
0001
0010
0001
0010
0001
0010
0001
0010
0100
1000
0001
0000
,
2001
0000
3010
0100
0001
1000
0001
0000
1002
0000
0013
0100
1000
0001
1000
0000
,
2001
0000
3010
0000
1000
0001
0100
0010
1000
0000
1000
0010
0100
0001
1000
0000
,
1002
0000
0013
0100
1000
0001
1000
0000
2001
0000
3010
0100
0001
1000
0001
0000
,
2001
0000
3010
0000
1010
0000
1000
0010
0000
0010
1000
0010
0100
0001
1000
0000
,
1002
0000
0013
0100
1000
0001
1000
0000
2001
0000
3010
0100
0001
1000
0001
0000
,
1001
0000
1000
0000
1000
0001
0100
0010
1000
0000
1000
0010
0100
0001
1000
0000
,
1002
0000
0013
0100
1000
0001
1000
0000
2001
0000
3010
0100
0001
1000
0001
1000
,
0001
1000
0001
1000
0010
1000
0010
0100
0001
0000
1000
0000
0100
1000
0100
0000
,
2100
0000
3010
0100
0001
0010
0001
0000
0102
0000
0013
0100
1000
0010
1000
0000
,
2100
0000
3001
0000
0001
1000
0010
0100
0001
0000
0001
0100
0010
1000
0100
0000
,
1200
0000
0310
0100
1000
0010
0100
0000
0201
0000
0310
0100
0001
0010
0100
0000
,
2001
0000
3010
0000
0010
1000
0010
1000
0100
0010
0100
0000
0010
0001
0010
0000
,
0012
0000
0103
0010
1000
0100
1000
0000
2010
0000
3100
0010
0001
0100
0001
0000
,
0012
0000
0103
0010
1000
0100
1000
0000
2100
0000
3010
0100
0001
0000
1000
0000
,
0001
0000
1000
0010
0100
0000
0010
0000
0100
0000
0010
1000
0001
1000
0001
1000
,
0010
1000
0010
1000
0001
0010
0001
0010
0100
1000
0100
1000
0001
0000
0000
0000
,
0000
0000
0000
0000
,
0000
0000
0000
0000
0000
0000
0001
1000
,
0010
0002
0013
0002
0013
2000
3100
0010
,
0002
0013
0002
0013
2000
3010
0001
1000
,
0100
0002
0103
0002
0103
2000
3010
0100
,
0002
0103
0002
0103
2000
3100
0001
1000
,
0010
0002
0013
0002
0013
2000
3100
0010
,
0002
0013
0002
0013
2000
3010
0001
1000
,
0100
0002
0103
0002
0103
2000
3010
0100
,
0002
0003
0002
0000
0003
0002
0000
0003
2000
0000
3000
0000
0011
0000
0001
0000
,
0010
0000
0100
0000
0000
1000
0000
0000
1010
0000
0000
0000
0011
0000
0001
0000
,
0010
0000
0100
0000
0000
1000
0000
0000
1010
0000
0000
0000
1100
0000
1000
0000
,
0100
0000
0010
0000
0000
0001
0000
0000
0101
0000
0000
0000
1100
0000
1000
0000
,
0100
0000
0010
0000
0001
0000
0010
0000
0100
1000
0100
0000
0011
0000
0001
0000
,
0010
0000
0100
0000
0000
1000
0000
0000
1010
0000
0000
0000
0011
0000
0001
0000
,
0010
0000
0100
0000
0000
1000
0000
0000
1010
0000
0000
0000
1000
0000
0100
0000
,
0010
0001
0100
0010
0000
0010
1000
0000
,
0010
0001
0010
0100
0010
0000
1000
0001
0010
0000
0000
0000
0001
0000
1000
0000
,
0100
0002
0103
0002
0103
2000
3010
0100
,
0002
0103
0002
0103
2000
3100
0001
1000
,
0010
0002
0013
0002
0013
2000
3100
0010
,
0002
0003
0002
0003
0100
0000
2000
3000
2000
0100
3001
0000
1001
0000
1000
0000
,
0100
0002
0103
0002
0103
2000
3010
0100
,
0002
0103
0002
0103
2000
3100
0001
1000
,
0010
0002
0013
0002
0013
2000
3010
0100
,
0002
0003
0002
0003
0002
0003
0002
0003
0002
0000
0003
0000
0202
0000
0000
0000
,
0000
0000
0000
0000
,
0000
0000
0000
0303
;
