#TITLE:Essence of Life;
#SUBTITLE:Hardstyle;
#ARTIST:Envine;
#TITLETRANSLIT:;
#SUBTITLETRANSLIT:;
#ARTISTTRANSLIT:;
#GENRE:;
#CREDIT:Peter;
#BANNER:../banner.png;
#BACKGROUND:../bg.png;
#LYRICSPATH:;
#CDTITLE:;
#MUSIC:Envine - Essence of Life.ogg;
#OFFSET:0.011;
#SAMPLESTART:11.200;
#SAMPLELENGTH:14.790;
#SELECTABLE:YES;
#BPMS:0.000=150.000;
#STOPS:;
#BGCHANGES:;
#KEYSOUNDS:;

//---------------dance-single - Peter----------------
#NOTES:
     dance-single:
     Peter:
     Challenge:
     10:
     0.000,0.000,0.000,0.000,0.000:
0000
0000
0000
0000
,
0000
0000
0000
0000
,
0000
0000
0000
0000
,
0000
0000
0000
0000
,
0000
0000
0000
0000
,
0000
0000
0000
0000
,
0000
0000
0000
0000
,
0000
0000
0000
0000
0000
0000
0000
0000
0000
0000
1000
0000
0010
0100
0001
1000
,
0002
0000
0000
0003
0100
0000
0000
0001
0000
0000
0000
0000
0100
0000
0000
0001
,
0000
0000
0000
0000
0100
0000
0000
0001
0000
0000
0001
0000
0100
0010
1000
0100
,
2000
0000
0000
3000
0100
0000
0000
1000
0000
0000
0000
0000
0100
0000
0000
1000
,
0000
0000
0000
0000
0100
0000
0000
1000
0002
0000
0000
0003
2000
0000
0001
3000
,
0002
0000
0000
0003
0010
0000
0000
0001
0000
0000
0000
0000
0010
0000
0000
0001
,
0000
0000
0000
0000
0010
0000
0000
0001
0000
0000
0001
0000
0100
0001
1000
0100
,
2000
0000
0000
3000
0010
0000
0000
1000
0000
0000
0010
0000
0010
0000
0010
0000
,
1010
0000
0000
0000
0001
0000
0000
0001
,
2000
0000
0001
3000
0100
0000
0010
0000
0000
0000
0001
0000
0100
0000
0010
0000
,
1000
0000
0000
0000
0001
0000
0000
0100
0010
0000
1000
0000
0010
0100
0001
1000
,
0002
0000
1000
0003
0100
0000
0010
0000
0000
0000
1000
0000
0100
0000
0010
0000
,
0001
0000
0000
0000
1000
0000
0000
0100
1000
0000
0011
0000
1100
0000
0001
1000
,
0002
0000
1000
0003
0010
0000
0100
0000
0000
0000
1000
0000
0010
0000
0100
0000
,
0001
0000
0000
0000
1000
0000
0000
0010
0100
0000
0001
0000
0100
0010
1000
0001
,
2000
0000
0001
3000
0010
0000
0100
0000
0000
0000
0001
0000
0010
0000
0100
0000
,
4000
0000
0000
0000
0000
0000
0000
0000
3000
0000
0000
0000
0001
0010
0100
1000
,
0002
0000
1000
0003
0100
0000
0010
0000
0100
0000
1000
0000
0100
0000
0010
0000
,
0001
0010
0100
0010
0001
0010
0001
0001
,
2000
0000
0001
3000
0100
0000
0010
0000
0100
0000
0001
0000
0100
0000
0010
0000
,
1000
0000
0100
0000
0010
0000
0100
0000
1000
0000
0001
0000
1000
0000
1000
0001
,
2000
0000
0001
3000
0010
0000
0100
0000
0010
0000
0001
0000
0010
0000
0100
0000
,
1100
0000
1000
0000
1000
0000
1000
0000
0011
0000
0011
0000
0011
0000
0001
0010
,
0004
0043
0430
4300
,
3001
0100
0010
1000
0001
0100
0010
0110
,
1001
0000
0000
0000
,
0000
0000
0000
0000
,
0000
0000
0000
0000
,
0000
0000
0000
0000
0000
0000
0000
0000
0000
0000
0000
0000
1000
0100
0010
0001
,
1000
0001
1000
0001
,
0100
0000
0000
0000
0001
0000
0000
0000
0100
0000
0000
0000
0010
1000
0100
0010
,
0001
0010
0001
0010
,
0100
0000
1000
0000
0100
0000
1000
0001
,
0010
0100
0010
0100
0010
0100
0010
0100
,
1000
0001
1000
0001
1000
0001
1000
0001
,
1000
0010
0100
0001
0010
0100
1000
0001
0100
0001
1000
0100
1000
0001
0100
0010
,
0000
0000
0000
0000
0000
0010
0100
0001
,
1000
0010
1000
0010
0100
0001
0100
0001
1000
0001
0010
0100
1000
0001
0100
0010
,
1000
1010
0101
1010
,
0010
1000
0010
1000
0001
0100
0001
0100
0010
1000
0100
0010
0001
0010
0100
1000
,
0100
0000
1100
0000
0011
0000
1100
0100
,
1000
0100
1000
0100
0010
0001
0010
0001
1000
0001
0100
0010
1000
0001
0010
0100
,
1000
1100
0011
1100
,
0100
1000
0100
1000
0001
0010
0001
0010
0100
1000
0010
0100
0001
0100
0010
1000
,
0010
0000
1010
0000
0101
0000
1010
1010
,
1000
0010
1000
0010
0100
0001
0100
0001
1000
0001
0010
0100
1000
0001
0100
0010
,
1000
1010
0101
1010
,
0010
1000
0010
1000
0001
0100
0001
0100
0010
1000
0100
0010
0001
0010
0100
1000
,
0100
0000
1100
0000
0011
0000
1100
0100
,
1000
0100
1000
0100
0010
0001
0010
0001
1000
0001
0100
0010
1000
0001
0010
0100
,
1000
1100
0011
1100
,
0100
1000
0100
1000
0001
0010
0001
0010
0100
1000
0010
0100
0001
0100
0010
1000
,
0010
0000
1000
1000
1010
0000
1000
0010
,
0220
0000
0000
0000
,
0000
0000
0000
0000
,
0330
0000
0000
0000
;
