#TITLE:Clarity (kors k Remix);
#SUBTITLE:Hardcore;
#ARTIST:Zedd;
#TITLETRANSLIT:;
#SUBTITLETRANSLIT:;
#ARTISTTRANSLIT:;
#CREDIT:Peter;
#BACKGROUND:../bg.png;
#BANNER:../banner.png;
#LYRICSPATH:;
#CDTITLE:;
#MUSIC:Zedd - Clarity (kors k Remix).ogg;
#OFFSET:-0.003;
#SAMPLESTART:42.350;
#SAMPLELENGTH:14.470;
#SELECTABLE:YES;
#BPMS:0.000=170.000;
#STOPS:;
#BGCHANGES:;

//---------------dance-single - ----------------
#NOTES:
     dance-single:
     Peter:
     Challenge:
     10:
     0.000,0.000,0.000,0.000,0.000:
0000
0000
0000
0000
,
0000
0000
0000
0000
,
0000
0000
0000
0000
,
0000
0000
0000
0000
,
0000
0000
0000
0000
,
0000
0000
0000
0000
,
0000
0000
0000
0000
,
0000
0000
0000
0000
,
1000
0001
0000
1000
0010
0100
0001
1000
,
0000
1000
0000
0100
1000
0001
0010
0100
,
0000
0000
0010
0000
0000
0000
0001
0000
0000
0000
0010
0001
0010
0000
0001
0000
,
0000
0001
1000
0100
0001
1000
0010
0001
,
1000
0001
0000
1000
0010
0100
0001
1000
,
0000
1000
0000
0001
1000
0010
0100
0001
,
0000
0100
0010
0000
1000
0000
0000
0010
,
0100
0000
0000
0000
0010
0000
0000
0000
1000
0000
0000
0000
0010
1000
0010
1000
,
0010
1000
0001
1000
0100
0010
0100
1000
,
0001
1000
0010
0100
0001
0100
1000
0100
,
0010
0000
0100
0000
0001
0000
1000
0000
0010
0000
1000
0010
1000
0000
0010
0000
,
0100
0001
0100
1000
0100
0001
0010
1000
,
0010
0001
1000
0001
0010
0100
0010
0001
,
1000
0001
0100
0010
0001
0010
1000
0100
,
0010
0000
0100
0000
1000
0000
0001
0000
0100
0000
0010
1000
0010
0000
1010
0000
,
0101
0000
0010
0100
0000
0100
0001
0010
,
0100
1000
0100
1000
0100
0000
1000
0000
0001
0100
0001
0100
0001
0000
1000
0000
,
0010
1000
0010
1000
0001
0100
0001
0100
0010
1000
0010
1000
0100
0000
0010
0000
,
0100
1000
0100
1000
0100
0000
1000
0000
0001
0010
0001
0010
0001
0000
0010
0000
,
0100
1000
0100
1000
0001
0010
0001
0010
0100
1000
0100
1000
0001
0000
1000
0000
,
0010
1000
0010
1000
0001
0100
0001
0100
0010
1000
0010
1000
0001
1000
0001
1000
,
0100
0010
0001
0010
0100
1000
0100
0010
0001
0100
0010
0100
0001
1000
0010
0100
,
0001
0010
0100
0000
0010
0000
0000
0010
,
0100
0000
0000
0000
0010
0000
0100
1000
0010
0000
0010
0100
0001
0000
0000
0000
,
0001
1000
0010
1000
0010
1000
0010
1000
,
0010
0100
0010
0100
0010
0100
0001
1000
,
0000
0100
0010
0100
0010
0100
0010
0100
,
0010
0001
0010
0001
0010
0100
1000
0001
,
1000
0001
0100
0001
0100
0001
0100
0001
,
0100
0010
0100
0010
0100
0010
1000
0001
,
0000
0010
0100
0010
0100
0010
0100
0010
,
0100
1000
0100
1000
0100
0010
0001
1000
,
0001
1000
0010
1000
0010
1000
0010
1000
,
0010
0100
0010
0100
0010
0100
0001
1000
,
0000
0100
0010
0100
0010
0100
0010
0100
,
0010
0001
0010
0001
0010
0100
1000
0001
,
1000
0001
0100
0001
0100
0001
0100
0001
,
0100
0010
0100
0010
0100
0010
1000
0001
,
0000
0010
0100
0010
0100
0010
0100
0010
,
0100
1000
0100
1000
0100
0010
0001
1000
,
0001
1000
0010
0100
0001
0010
0100
1000
0001
0000
0100
0010
1000
0000
0000
0000
,
1000
0000
0100
0000
0010
0000
0000
0001
0000
0010
0000
0001
0010
0000
0100
0000
,
1000
0000
0010
0000
1000
0000
0000
0010
0000
1000
0000
0010
1000
0100
0010
0001
,
1000
0010
0100
0001
0100
0010
0000
1000
0010
0100
0000
0100
0001
0000
1000
0000
,
0001
0010
0100
1000
0100
0010
0000
0001
0010
0000
0100
0000
0010
0100
1000
0000
,
0001
0000
0010
0000
0100
0000
0000
1000
0000
0100
0000
1000
0100
0000
0010
0000
,
0001
0000
0100
0000
0001
0000
0000
0100
0000
0001
0000
0100
0001
0010
0100
1000
,
0001
0100
0010
1000
0010
0100
0001
0100
0010
1000
0000
0001
0000
1000
0000
0010
,
1000
0100
0010
0001
0010
0100
1000
0100
0010
0000
0010
0000
0100
0010
0001
1000
,
0001
0000
0100
0000
0010
0000
0000
1000
0000
0010
0000
1000
0010
0000
0100
0000
,
0001
0000
0010
0000
0001
0000
0000
0010
0000
0001
0000
0010
0001
0100
0010
1000
,
0001
0010
0100
1000
0100
0010
0000
0001
0010
0100
0000
0100
1000
0000
0001
0000
,
1000
0010
0100
0001
0100
0010
0000
1000
0010
0000
0100
0000
0010
0100
0001
0000
,
1000
0000
0010
0000
0100
0000
0000
0001
0000
0100
0000
0001
0100
0000
0010
0000
,
1000
0000
0100
0000
1000
0000
0000
0100
0000
1000
0000
0100
1000
0000
0100
0000
,
1000
0000
0010
0000
0100
0000
0000
0001
0000
0100
0000
0001
0100
0000
0010
0000
,
0000
0100
0000
0010
0000
1000
0000
0001
,
0100
0001
0100
0010
0100
0001
0100
1000
,
0100
0001
0100
0010
0100
0001
0100
1000
,
0100
0001
0010
0100
0010
0001
0010
1000
,
0010
0001
0010
0100
0010
1000
0001
0100
,
1000
0001
0100
0010
0100
0001
0100
1000
,
0100
0001
0100
0010
0100
0001
0100
1000
,
0100
0001
0010
0100
0010
0001
0010
1000
,
0010
0001
0010
0100
0010
1000
0001
0100
,
0000
1000
0000
0100
0000
1000
0000
0001
,
0000
1000
0000
0100
0000
1000
0000
0001
,
0000
1000
0000
0010
0000
1000
0000
0001
,
0000
1000
0000
0010
0000
0001
0000
0010
,
0000
1000
0000
0100
0000
1000
0000
0001
,
0000
1000
0000
0100
0000
1000
0000
0001
,
0000
0000
0000
0000
,
0000
0000
0000
0000
0000
0000
0000
0000
0000
0000
0000
0000
0001
0010
0100
1000
,
0002
0000
0000
0000
,
0000
0000
0003
0000
;
